<?xml version="1.0" encoding="UTF-8"?>
<svg xmlns="http://www.w3.org/2000/svg" xmlns:xlink="http://www.w3.org/1999/xlink" version="1.2" >
<font id="Segoe UI">
<font-face  font-family="Segoe UI" units-per-em="2048" ascent="1491" descent="-431" font-style="normal" font-weight="400" font-stretch="normal" cap-height="1434" x-height="1024" underline-position="-178" underline-thickness="119" />
<missing-glyph  horiz-adv-x="1322" d="M166 0 L166 1398 L1156 1398 L1156 0 L166 0 Z M314 148 L1008 148 L1008 1250 L314 1250 L314 148 Z " />
<glyph glyph-name="null" unicode="&#xd;" d="" />
<glyph glyph-name="space" unicode="&#x20;" horiz-adv-x="561" d="" />
<glyph glyph-name="exclam" unicode="&#x21;" horiz-adv-x="582" d="M375 1434 L356 404 L221 404 L203 1434 L375 1434 Z M291 -18 Q245 -18 212.5 14 Q180 46 180 92 Q180 138 212.5 170.5 Q245 203 291 203 Q336 203 369 170.5 Q402 138 402 92 Q402 46 369 14 Q336 -18 291 -18 Z " />
<glyph glyph-name="quotedbl" unicode="&#x22;" horiz-adv-x="803" d="M323 1434 L293 987 L178 987 L148 1434 L323 1434 Z M655 1434 L625 987 L510 987 L480 1434 L655 1434 Z " />
<glyph glyph-name="numbersign" unicode="&#x23;" horiz-adv-x="1210" d="M1166 1032 L1143 926 L882 926 L819 626 L1100 626 L1073 520 L798 520 L710 123 L584 123 L670 520 L420 520 L336 123 L211 123 L295 520 L33 520 L53 626 L318 626 L379 926 L102 926 L123 1032 L400 1032 L484 1434 L610 1434 L526 1032 L778 1032 L864 1434 L987 1434 L903 1032 L1166 1032 Z M758 926 L506 926 L440 626 L694 626 L758 926 Z " />
<glyph glyph-name="dollar" unicode="&#x24;" horiz-adv-x="1104" d="M616 8 L616 -209 L512 -209 L512 0 Q299 0 166 86 L166 260 Q224 209 324.5 174.5 Q425 140 512 140 L512 652 Q292 758 227 847.5 Q162 937 162 1059 Q162 1204 261 1309.5 Q360 1415 512 1436 L512 1616 L616 1616 L616 1440 Q812 1434 887 1384 L887 1214 Q785 1294 616 1300 L616 772 Q824 673 900.5 580.5 Q977 488 977 370 Q977 228 881.5 131.5 Q786 35 616 8 Z M512 828 L512 1294 Q428 1277 379 1219.5 Q330 1162 330 1080 Q330 994 370 939 Q410 884 512 828 Z M616 600 L616 148 Q809 190 809 356 Q809 494 616 600 Z " />
<glyph glyph-name="percent" unicode="&#x25;" horiz-adv-x="1676" d="M404 715 Q256 715 168 812.5 Q80 910 80 1073 Q80 1251 173 1353.5 Q266 1456 424 1456 Q577 1456 661.5 1361 Q746 1266 746 1094 Q746 922 651.5 818.5 Q557 715 404 715 Z M418 1346 Q323 1346 268 1275.5 Q213 1205 213 1082 Q213 961 267 893.5 Q321 826 414 826 Q508 826 561 896 Q614 966 614 1090 Q614 1211 561.5 1278.5 Q509 1346 418 1346 Z M1364 1434 L444 -10 L301 -10 L1220 1434 L1364 1434 Z M1258 -22 Q1110 -22 1022 76 Q934 174 934 336 Q934 514 1028 617.5 Q1122 721 1278 721 Q1430 721 1515 625 Q1600 529 1600 356 Q1600 185 1505.5 81.5 Q1411 -22 1258 -22 Z M1272 608 Q1176 608 1121.5 538 Q1067 468 1067 344 Q1067 225 1121 157.5 Q1175 90 1268 90 Q1362 90 1415 160.5 Q1468 231 1468 354 Q1468 476 1415.5 542 Q1363 608 1272 608 Z " />
<glyph glyph-name="ampersand" unicode="&#x26;" horiz-adv-x="1639" d="M1445 -23 Q1388 -23 1344.5 -7.5 Q1301 8 1264 36.5 Q1227 65 1192.5 106 Q1158 147 1120 199 Q1080 156 1027.5 116 Q975 76 911 45 Q847 14 771 -4.5 Q695 -23 606 -23 Q498 -23 408 4 Q318 31 254 83.5 Q190 136 154.5 213 Q119 290 119 390 Q119 543 206 651.5 Q293 760 452 829 Q422 851 392 880.5 Q362 910 338.5 947.5 Q315 985 300.5 1030.5 Q286 1076 286 1130 Q286 1209 314.5 1270 Q343 1331 393 1373 Q443 1415 511 1436.5 Q579 1458 658 1458 Q736 1458 800.5 1436.5 Q865 1415 911.5 1375 Q958 1335 984 1279 Q1010 1223 1010 1154 Q1010 1034 941.5 954.5 Q873 875 736 819 Q805 792 861 753 Q917 714 964.5 666 Q1012 618 1053 563 Q1094 508 1134 449 Q1215 562 1256 698 Q1297 834 1297 983 Q1297 1021 1292.5 1054.5 Q1288 1088 1280 1121 L1439 1121 Q1447 1088 1448.5 1058.5 Q1450 1029 1452 988 Q1452 897 1433 805 Q1414 713 1382 626.5 Q1350 540 1307.5 462 Q1265 384 1218 319 Q1253 271 1282 235.5 Q1311 200 1340.5 176 Q1370 152 1401.5 140.5 Q1433 129 1473 129 Q1503 129 1534 137 Q1565 145 1598 157 L1598 5 Q1562 -9 1522.5 -16 Q1483 -23 1445 -23 Z M606 119 Q682 119 746 135.5 Q810 152 864 179.5 Q918 207 962 243.5 Q1006 280 1042 320 Q981 415 929.5 482.5 Q878 550 825.5 599 Q773 648 713.5 683 Q654 718 576 748 Q513 723 460 692.5 Q407 662 368.5 620.5 Q330 579 308 524 Q286 469 286 395 Q286 327 311 275 Q336 223 379.5 188.5 Q423 154 481 136.5 Q539 119 606 119 Z M856 1140 Q856 1190 837.5 1225 Q819 1260 790.5 1283 Q762 1306 727 1316.5 Q692 1327 658 1327 Q560 1327 501.5 1274 Q443 1221 442 1130 Q442 1089 454.5 1053 Q467 1017 489.5 986 Q512 955 542 931 Q572 907 606 890 Q732 934 794 992.5 Q856 1051 856 1140 Z " />
<glyph glyph-name="quotesingle" unicode="&#x27;" horiz-adv-x="471" d="M323 1434 L293 987 L178 987 L148 1434 L323 1434 Z " />
<glyph glyph-name="&amp;#x28;" unicode="&#x28;" horiz-adv-x="618" d="M596 -326 L450 -326 Q140 28 140 547 Q140 1068 450 1434 L598 1434 Q284 1054 284 549 Q284 48 596 -326 Z " />
<glyph glyph-name="&amp;#xfd3e;" unicode="&#xfd3e;" horiz-adv-x="618" d="M596 -326 L450 -326 Q140 28 140 547 Q140 1068 450 1434 L598 1434 Q284 1054 284 549 Q284 48 596 -326 Z " />
<glyph glyph-name="&amp;#x29;" unicode="&#x29;" horiz-adv-x="618" d="M170 -326 L24 -326 Q336 48 336 549 Q336 1054 22 1434 L170 1434 Q482 1068 482 547 Q482 28 170 -326 Z " />
<glyph glyph-name="&amp;#xfd3f;" unicode="&#xfd3f;" horiz-adv-x="618" d="M170 -326 L24 -326 Q336 48 336 549 Q336 1054 22 1434 L170 1434 Q482 1068 482 547 Q482 28 170 -326 Z " />
<glyph glyph-name="asterisk" unicode="&#x2a;" horiz-adv-x="854" d="M780 1104 L506 1048 L696 805 L586 729 L430 994 L272 729 L162 805 L352 1048 L76 1104 L121 1229 L383 1130 L360 1434 L498 1434 L475 1130 L738 1229 L780 1104 Z " />
<glyph glyph-name="plus" unicode="&#x2b;" horiz-adv-x="1401" d="M1172 530 L768 530 L768 127 L635 127 L635 530 L232 530 L232 664 L635 664 L635 1067 L768 1067 L768 664 L1172 664 L1172 530 Z " />
<glyph glyph-name="comma" unicode="&#x2c;" horiz-adv-x="444" d="M316 228 L156 -264 L39 -264 L156 228 L316 228 Z " />
<glyph glyph-name="&amp;#x2d;" unicode="&#x2d;" horiz-adv-x="819" d="M690 506 L144 506 L144 635 L690 635 L690 506 Z " />
<glyph glyph-name="&amp;#x2010;" unicode="&#x2010;" horiz-adv-x="819" d="M690 506 L144 506 L144 635 L690 635 L690 506 Z " />
<glyph glyph-name="period" unicode="&#x2e;" horiz-adv-x="444" d="M223 -22 Q177 -22 144.5 11 Q112 44 112 90 Q112 136 144.5 169.5 Q177 203 223 203 Q270 203 303 169.5 Q336 136 336 90 Q336 44 303 11 Q270 -22 223 -22 Z " />
<glyph glyph-name="slash" unicode="&#x2f;" horiz-adv-x="798" d="M813 1434 L125 -238 L-28 -238 L658 1434 L813 1434 Z " />
<glyph glyph-name="zero" unicode="0" horiz-adv-x="1104" d="M538 -24 Q325 -24 205.5 159 Q86 342 86 688 Q86 1068 210.5 1263 Q335 1458 570 1458 Q1020 1458 1020 723 Q1020 359 893 167.5 Q766 -24 538 -24 Z M561 1319 Q254 1319 254 696 Q254 114 555 114 Q852 114 852 706 Q852 1319 561 1319 Z " />
<glyph glyph-name="one" unicode="1" horiz-adv-x="1104" d="M987 0 L176 0 L176 144 L500 144 L500 1258 L168 1159 L168 1315 L664 1466 L664 144 L987 144 L987 0 Z " />
<glyph glyph-name="two" unicode="2" horiz-adv-x="1104" d="M960 0 L96 0 L96 146 L514 565 Q674 725 742.5 831.5 Q811 938 811 1059 Q811 1183 740 1251 Q669 1319 538 1319 Q346 1319 170 1155 L170 1327 Q338 1458 561 1458 Q753 1458 863 1354 Q973 1250 973 1075 Q973 937 897 805.5 Q821 674 624 479 L293 152 L293 148 L960 148 L960 0 Z " />
<glyph glyph-name="three" unicode="3" horiz-adv-x="1104" d="M131 53 L131 230 Q278 114 463 114 Q613 114 702.5 189 Q792 264 792 391 Q792 672 393 672 L274 672 L274 811 L387 811 Q742 811 742 1075 Q742 1319 471 1319 Q320 1319 186 1216 L186 1376 Q324 1458 512 1458 Q693 1458 801.5 1362 Q910 1266 910 1116 Q910 833 622 752 L622 748 Q777 733 868.5 639.5 Q960 546 960 406 Q960 213 821.5 94.5 Q683 -24 456 -24 Q252 -24 131 53 Z " />
<glyph glyph-name="four" unicode="4" horiz-adv-x="1104" d="M1034 381 L850 381 L850 0 L688 0 L688 381 L14 381 L14 488 L652 1434 L850 1434 L850 514 L1034 514 L1034 381 Z M688 514 L688 1134 Q688 1200 692 1282 L688 1282 Q674 1246 633 1172 L192 514 L688 514 Z " />
<glyph glyph-name="five" unicode="5" horiz-adv-x="1104" d="M164 35 L164 209 Q311 114 463 114 Q615 114 708 200 Q801 286 801 428 Q801 569 706 648 Q611 727 434 727 Q374 727 209 715 L209 1434 L903 1434 L903 1286 L364 1286 L364 866 Q430 870 486 870 Q716 870 842 754.5 Q968 639 968 438 Q968 230 832.5 103 Q697 -24 461 -24 Q262 -24 164 35 Z " />
<glyph glyph-name="six" unicode="6" horiz-adv-x="1104" d="M934 1417 L934 1262 Q823 1319 700 1319 Q509 1319 394.5 1149 Q280 979 280 694 L284 694 Q384 897 612 897 Q800 897 911 776.5 Q1022 656 1022 454 Q1022 243 895 109.5 Q768 -24 572 -24 Q356 -24 233 148 Q110 320 110 631 Q110 1008 271 1233 Q432 1458 696 1458 Q846 1458 934 1417 Z M576 758 Q449 758 370 672 Q291 586 291 469 Q291 322 369.5 218 Q448 114 578 114 Q702 114 778 204.5 Q854 295 854 434 Q854 586 781 672 Q708 758 576 758 Z " />
<glyph glyph-name="seven" unicode="7" horiz-adv-x="1104" d="M1010 1382 L442 0 L272 0 L809 1286 L86 1286 L86 1434 L1010 1434 L1010 1382 Z " />
<glyph glyph-name="eight" unicode="8" horiz-adv-x="1104" d="M410 752 L410 756 Q152 876 152 1104 Q152 1259 270 1358.5 Q388 1458 574 1458 Q742 1458 850 1365 Q958 1272 958 1126 Q958 888 692 756 L692 752 Q1006 640 1006 364 Q1006 186 878 81 Q750 -24 522 -24 Q338 -24 219 80 Q100 184 100 350 Q100 626 410 752 Z M790 1106 Q790 1205 728 1262 Q666 1319 559 1319 Q459 1319 389.5 1259.5 Q320 1200 320 1108 Q320 921 553 826 Q790 924 790 1106 Z M542 674 Q268 565 268 358 Q268 251 347.5 182.5 Q427 114 557 114 Q681 114 759.5 181.5 Q838 249 838 352 Q838 568 542 674 Z " />
<glyph glyph-name="nine" unicode="9" horiz-adv-x="1104" d="M172 24 L172 182 Q292 114 426 114 Q621 114 729.5 271 Q838 428 838 717 Q836 716 834 717 Q742 532 514 532 Q330 532 212 657 Q94 782 94 979 Q94 1189 223.5 1323.5 Q353 1458 555 1458 Q767 1458 885.5 1290.5 Q1004 1123 1004 803 Q1004 406 850 191 Q696 -24 422 -24 Q278 -24 172 24 Z M540 1319 Q421 1319 341.5 1229.5 Q262 1140 262 1002 Q262 851 340 764.5 Q418 678 551 678 Q667 678 747.5 757 Q828 836 828 950 Q828 1113 748 1216 Q668 1319 540 1319 Z " />
<glyph glyph-name="colon" unicode="&#x3a;" horiz-adv-x="444" d="M223 824 Q177 824 144.5 857 Q112 890 112 936 Q112 982 144.5 1014 Q177 1046 223 1046 Q270 1046 303 1014 Q336 982 336 936 Q336 890 303 857 Q270 824 223 824 Z M223 -22 Q177 -22 144.5 11 Q112 44 112 90 Q112 136 144.5 169.5 Q177 203 223 203 Q270 203 303 169.5 Q336 136 336 90 Q336 44 303 11 Q270 -22 223 -22 Z " />
<glyph glyph-name="semicolon" unicode="&#x3b;" horiz-adv-x="444" d="M226 824 Q179 824 146.5 857 Q114 890 114 936 Q114 982 146.5 1014 Q179 1046 226 1046 Q272 1046 305 1014 Q338 982 338 936 Q338 890 305 857 Q272 824 226 824 Z M316 228 L156 -264 L39 -264 L156 228 L316 228 Z " />
<glyph glyph-name="less" unicode="&#x3c;" horiz-adv-x="1401" d="M1132 127 L272 559 L272 618 L1132 1100 L1132 950 L490 594 L490 590 L1132 276 L1132 127 Z " />
<glyph glyph-name="equal" unicode="&#x3d;" horiz-adv-x="1401" d="M1172 744 L232 744 L232 876 L1172 876 L1172 744 Z M1172 318 L232 318 L232 450 L1172 450 L1172 318 Z " />
<glyph glyph-name="greater" unicode="&#x3e;" horiz-adv-x="1401" d="M1132 559 L272 127 L272 276 L916 588 L916 594 L272 950 L272 1100 L1132 618 L1132 559 Z " />
<glyph glyph-name="question" unicode="&#x3f;" horiz-adv-x="918" d="M335 398 Q326 424 319 465.5 Q312 507 312 548 Q312 612 337.5 663.5 Q363 715 401 760 Q439 805 484 846.5 Q529 888 567 930.5 Q605 973 630.5 1019.5 Q656 1066 656 1122 Q656 1170 637.5 1207 Q619 1244 587 1269 Q555 1294 513 1306.5 Q471 1319 424 1319 Q255 1319 131 1186 L131 1362 Q284 1458 448 1458 Q524 1458 591 1438 Q658 1418 708.5 1378.5 Q759 1339 788 1280 Q817 1221 817 1143 Q817 1069 791 1011 Q765 953 725.5 904.5 Q686 856 640 814 Q594 772 554.5 730.5 Q515 689 489 644 Q463 599 463 545 Q463 499 474 461.5 Q485 424 496 398 L335 398 Z M425 -18 Q381 -18 347 14 Q314 46 314 92 Q314 139 347 170 Q380 203 425 203 Q470 203 503 170 Q536 139 536 92 Q536 46 503 14 Q469 -18 425 -18 Z " />
<glyph glyph-name="at" unicode="&#x40;" horiz-adv-x="1956" d="M1164 420 L1159 420 Q1086 182 872 182 Q735 182 651.5 283 Q568 384 568 555 Q568 781 683.5 930.5 Q799 1080 987 1080 Q1059 1080 1115.5 1043 Q1172 1006 1188 950 L1192 950 Q1194 978 1202 1065 L1327 1065 Q1280 514 1280 504 Q1280 297 1399 297 Q1507 297 1578.5 414 Q1650 531 1650 717 Q1650 992 1476 1166 Q1302 1340 994 1340 Q697 1340 503 1132 Q309 924 309 612 Q309 305 493.5 116.5 Q678 -72 991 -72 Q1238 -72 1413 10 L1413 -114 Q1240 -188 981 -188 Q617 -188 394.5 31.5 Q172 251 172 606 Q172 972 405.5 1213 Q639 1454 1002 1454 Q1342 1454 1565 1252 Q1788 1050 1788 725 Q1788 487 1670.5 334.5 Q1553 182 1384 182 Q1165 182 1164 420 Z M985 964 Q861 964 784.5 846 Q708 728 708 553 Q708 435 759.5 367 Q811 299 897 299 Q1021 299 1093.5 422.5 Q1166 546 1166 750 Q1166 964 985 964 Z " />
<glyph glyph-name="A" unicode="A" horiz-adv-x="1321" d="M1298 0 L1112 0 L960 402 L352 402 L209 0 L22 0 L572 1434 L746 1434 L1298 0 Z M905 553 L680 1164 Q669 1194 658 1260 L654 1260 Q644 1199 631 1164 L408 553 L905 553 Z " />
<glyph glyph-name="B" unicode="B" horiz-adv-x="1174" d="M188 0 L188 1434 L596 1434 Q782 1434 891 1343 Q1000 1252 1000 1106 Q1000 984 934 894 Q868 804 752 766 L752 762 Q897 745 984 652.5 Q1071 560 1071 412 Q1071 228 939 114 Q807 0 606 0 L188 0 Z M356 1282 L356 819 L528 819 Q666 819 745 885.5 Q824 952 824 1073 Q824 1282 549 1282 L356 1282 Z M356 668 L356 152 L584 152 Q732 152 813.5 222 Q895 292 895 414 Q895 668 549 668 L356 668 Z " />
<glyph glyph-name="C" unicode="C" horiz-adv-x="1268" d="M1164 60 Q1005 -24 768 -24 Q462 -24 278 173 Q94 370 94 690 Q94 1034 301 1246 Q508 1458 826 1458 Q1030 1458 1164 1399 L1164 1220 Q1010 1306 824 1306 Q577 1306 423.5 1141 Q270 976 270 700 Q270 438 413.5 282.5 Q557 127 790 127 Q1006 127 1164 223 L1164 60 Z " />
<glyph glyph-name="D" unicode="D" horiz-adv-x="1436" d="M188 0 L188 1434 L584 1434 Q1342 1434 1342 735 Q1342 403 1131.5 201.5 Q921 0 568 0 L188 0 Z M356 1282 L356 152 L570 152 Q852 152 1009 303 Q1166 454 1166 731 Q1166 1282 580 1282 L356 1282 Z " />
<glyph glyph-name="E" unicode="E" horiz-adv-x="1036" d="M948 0 L188 0 L188 1434 L916 1434 L916 1282 L356 1282 L356 805 L874 805 L874 654 L356 654 L356 152 L948 152 L948 0 Z " />
<glyph glyph-name="F" unicode="F" horiz-adv-x="1000" d="M916 1282 L356 1282 L356 786 L874 786 L874 635 L356 635 L356 0 L188 0 L188 1434 L916 1434 L916 1282 Z " />
<glyph glyph-name="G" unicode="G" horiz-adv-x="1405" d="M1260 98 Q1044 -24 780 -24 Q473 -24 283.5 174 Q94 372 94 698 Q94 1031 304.5 1244.5 Q515 1458 838 1458 Q1072 1458 1231 1382 L1231 1196 Q1057 1306 819 1306 Q578 1306 424 1140 Q270 974 270 710 Q270 438 413 282.5 Q556 127 801 127 Q969 127 1092 194 L1092 596 L778 596 L778 748 L1260 748 L1260 98 Z " />
<glyph glyph-name="H" unicode="H" horiz-adv-x="1454" d="M1266 0 L1098 0 L1098 654 L356 654 L356 0 L188 0 L188 1434 L356 1434 L356 805 L1098 805 L1098 1434 L1266 1434 L1266 0 Z " />
<glyph glyph-name="I" unicode="I" horiz-adv-x="545" d="M496 1434 L496 1290 L356 1290 L356 144 L496 144 L496 0 L48 0 L48 144 L188 144 L188 1290 L48 1290 L48 1434 L496 1434 Z " />
<glyph glyph-name="J" unicode="J" horiz-adv-x="731" d="M555 514 Q555 259 447 117.5 Q339 -24 158 -24 Q74 -24 20 0 L20 166 Q74 127 160 127 Q387 127 387 512 L387 1434 L555 1434 L555 514 Z " />
<glyph glyph-name="K" unicode="K" horiz-adv-x="1188" d="M1186 0 L952 0 L398 656 Q367 693 360 706 L356 706 L356 0 L188 0 L188 1434 L356 1434 L356 760 L360 760 Q374 782 398 809 L934 1434 L1143 1434 L528 746 L1186 0 Z " />
<glyph glyph-name="L" unicode="L" horiz-adv-x="964" d="M932 0 L188 0 L188 1434 L356 1434 L356 152 L932 152 L932 0 Z " />
<glyph glyph-name="M" unicode="M" horiz-adv-x="1839" d="M1650 0 L1483 0 L1483 962 Q1483 1076 1497 1241 L1493 1241 Q1469 1144 1450 1102 L960 0 L878 0 L389 1094 Q368 1142 346 1241 L342 1241 Q350 1155 350 960 L350 0 L188 0 L188 1434 L410 1434 L850 434 Q901 319 916 262 L922 262 Q965 380 991 438 L1440 1434 L1650 1434 L1650 0 Z " />
<glyph glyph-name="N" unicode="N" horiz-adv-x="1532" d="M1344 0 L1138 0 L400 1143 Q372 1186 354 1233 L348 1233 Q356 1187 356 1036 L356 0 L188 0 L188 1434 L406 1434 L1124 309 Q1169 239 1182 213 L1186 213 Q1176 275 1176 424 L1176 1434 L1344 1434 L1344 0 Z " />
<glyph glyph-name="O" unicode="O" horiz-adv-x="1544" d="M766 -24 Q461 -24 277.5 177 Q94 378 94 700 Q94 1046 281 1252 Q468 1458 790 1458 Q1087 1458 1268.5 1258 Q1450 1058 1450 735 Q1450 384 1264 180 Q1078 -24 766 -24 Z M778 1306 Q552 1306 411 1143 Q270 980 270 715 Q270 450 407.5 288.5 Q545 127 766 127 Q1002 127 1138 281 Q1274 435 1274 712 Q1274 996 1142 1151 Q1010 1306 778 1306 Z " />
<glyph glyph-name="P" unicode="P" horiz-adv-x="1147" d="M356 542 L356 0 L188 0 L188 1434 L582 1434 Q812 1434 938.5 1322 Q1065 1210 1065 1006 Q1065 802 924.5 672 Q784 542 545 542 L356 542 Z M356 1282 L356 694 L532 694 Q706 694 797.5 773.5 Q889 853 889 998 Q889 1282 553 1282 L356 1282 Z " />
<glyph glyph-name="Q" unicode="Q" horiz-adv-x="1544" d="M756 -24 Q692 -24 626 -11.5 Q560 1 498 26.5 Q436 52 379.5 89.5 Q323 127 277 177 Q94 377 94 700 Q94 1047 280 1252 Q468 1458 794 1458 Q1086 1458 1268 1258 Q1450 1058 1450 735 Q1450 599 1419.5 478.5 Q1389 358 1327 261 Q1265 164 1171 96.5 Q1077 29 949 0 Q1001 -56 1046.5 -99 Q1092 -142 1137.5 -171.5 Q1183 -201 1232 -216 Q1281 -231 1340 -231 Q1356 -231 1375 -229.5 Q1394 -228 1413.5 -224.5 Q1433 -221 1451 -216.5 Q1469 -212 1484 -206 L1484 -368 Q1468 -373 1448 -376.5 Q1428 -380 1407.5 -382.5 Q1387 -385 1367 -386.5 Q1347 -388 1330 -388 Q1234 -388 1157.5 -359.5 Q1081 -331 1014.5 -281.5 Q948 -232 886 -166 Q824 -100 756 -24 Z M778 1306 Q552 1306 411 1143 Q270 980 270 715 Q270 451 407 288 Q545 127 766 127 Q1002 127 1138 281 Q1274 435 1274 712 Q1274 997 1142 1151 Q1010 1306 778 1306 Z " />
<glyph glyph-name="R" unicode="R" horiz-adv-x="1225" d="M1216 0 L1016 0 L776 402 Q743 458 712 497.5 Q681 537 648.5 562 Q616 587 578.5 598.5 Q541 610 494 610 L356 610 L356 0 L188 0 L188 1434 L616 1434 Q710 1434 789.5 1410.5 Q869 1387 927.5 1339 Q986 1291 1019 1219.5 Q1052 1148 1052 1052 Q1052 977 1029.5 914.5 Q1007 852 965.5 803 Q924 754 865.5 719.5 Q807 685 734 666 L734 662 Q770 646 796.5 625.5 Q823 605 847 577 Q871 549 894.5 513.5 Q918 478 947 431 L1216 0 Z M356 1282 L356 762 L584 762 Q647 762 700.5 781 Q754 800 793 835.5 Q832 871 854 922.5 Q876 974 876 1038 Q876 1153 801.5 1217.5 Q727 1282 586 1282 L356 1282 Z " />
<glyph glyph-name="S" unicode="S" horiz-adv-x="1088" d="M121 58 L121 256 Q155 226 202.5 202 Q250 178 302.5 161.5 Q355 145 408 136 Q461 127 506 127 Q661 127 737.5 184.5 Q814 242 814 350 Q814 408 788.5 451 Q763 494 718 529.5 Q673 565 611.5 597.5 Q550 630 479 666 Q404 704 339 743 Q274 782 226 829 Q178 876 150.5 935.5 Q123 995 123 1075 Q123 1173 166 1245.5 Q209 1318 279 1365 Q349 1412 438.5 1435 Q528 1458 621 1458 Q833 1458 930 1407 L930 1218 Q803 1306 604 1306 Q549 1306 494 1294.5 Q439 1283 396 1257 Q353 1231 326 1190 Q299 1149 299 1090 Q299 1035 319.5 995 Q340 955 380 922 Q420 889 477.5 858 Q535 827 610 790 Q687 752 756 710 Q825 668 877 617 Q929 566 959.5 504 Q990 442 990 362 Q990 256 948.5 182.5 Q907 109 836.5 63 Q766 17 674 -3.5 Q582 -24 480 -24 Q446 -24 396 -18.5 Q346 -13 294 -2.5 Q242 8 195.5 23.5 Q149 39 121 58 Z " />
<glyph glyph-name="T" unicode="T" horiz-adv-x="1073" d="M1036 1282 L622 1282 L622 0 L454 0 L454 1282 L41 1282 L41 1434 L1036 1434 L1036 1282 Z " />
<glyph glyph-name="U" unicode="U" horiz-adv-x="1407" d="M1237 580 Q1237 -24 692 -24 Q170 -24 170 557 L170 1434 L338 1434 L338 568 Q338 127 710 127 Q1069 127 1069 553 L1069 1434 L1237 1434 L1237 580 Z " />
<glyph glyph-name="V" unicode="V" horiz-adv-x="1272" d="M1254 1434 L723 0 L538 0 L18 1434 L205 1434 L602 297 Q621 242 631 170 L635 170 Q643 230 668 299 L1073 1434 L1254 1434 Z " />
<glyph glyph-name="W" unicode="W" horiz-adv-x="1913" d="M1888 1434 L1483 0 L1286 0 L991 1048 Q972 1115 968 1194 L964 1194 Q958 1120 938 1050 L641 0 L446 0 L26 1434 L211 1434 L516 334 Q535 265 540 190 L545 190 Q550 243 576 334 L893 1434 L1054 1434 L1358 326 Q1374 269 1382 192 L1386 192 Q1390 244 1413 330 L1706 1434 L1888 1434 Z " />
<glyph glyph-name="X" unicode="X" horiz-adv-x="1208" d="M1178 0 L973 0 L643 549 Q628 574 610 620 L606 620 Q596 597 572 549 L232 0 L26 0 L506 721 L64 1434 L270 1434 L563 930 Q592 880 614 830 L618 830 Q650 896 674 934 L979 1434 L1172 1434 L721 723 L1178 0 Z " />
<glyph glyph-name="Y" unicode="Y" horiz-adv-x="1132" d="M1120 1434 L647 530 L647 0 L479 0 L479 526 L18 1434 L209 1434 L530 786 Q536 774 565 698 L568 698 Q578 732 606 786 L942 1434 L1120 1434 Z " />
<glyph glyph-name="Z" unicode="Z" horiz-adv-x="1168" d="M1124 1394 L284 152 L1104 152 L1104 0 L33 0 L33 47 L866 1282 L100 1282 L100 1434 L1124 1434 L1124 1394 Z " />
<glyph glyph-name="bracketleft" unicode="&#x5b;" horiz-adv-x="618" d="M568 -326 L200 -326 L200 1434 L568 1434 L568 1315 L346 1315 L346 -207 L568 -207 L568 -326 Z " />
<glyph glyph-name="backslash" unicode="&#x5c;" horiz-adv-x="776" d="M798 -240 L647 -240 L-26 1434 L129 1434 L798 -240 Z " />
<glyph glyph-name="bracketright" unicode="&#x5d;" horiz-adv-x="618" d="M420 -326 L53 -326 L53 -207 L274 -207 L274 1315 L53 1315 L53 1434 L420 1434 L420 -326 Z " />
<glyph glyph-name="asciicircum" unicode="&#x5e;" horiz-adv-x="1401" d="M1174 624 L1024 624 L692 1243 L686 1243 L377 624 L230 624 L652 1458 L717 1458 L1174 624 Z " />
<glyph glyph-name="underscore" unicode="&#x5f;" horiz-adv-x="850" d="M850 -297 L0 -297 L0 -178 L850 -178 L850 -297 Z " />
<glyph glyph-name="grave" unicode="&#x60;" horiz-adv-x="549" d="M471 1218 L344 1218 L82 1546 L250 1546 L471 1218 Z " />
<glyph glyph-name="a" unicode="a" horiz-adv-x="1042" d="M899 0 L735 0 L735 160 L731 160 Q624 -24 416 -24 Q263 -24 176.5 57 Q90 138 90 272 Q90 559 428 606 L735 649 Q735 910 524 910 Q339 910 190 784 L190 952 Q341 1048 538 1048 Q899 1048 899 666 L899 0 Z M735 518 L488 484 Q374 468 316 427.5 Q258 387 258 284 Q258 209 311.5 161.5 Q365 114 454 114 Q576 114 655.5 199.5 Q735 285 735 416 L735 518 Z " />
<glyph glyph-name="b" unicode="b" horiz-adv-x="1204" d="M334 148 L330 148 L330 0 L166 0 L166 1516 L330 1516 L330 844 L334 844 Q455 1048 688 1048 Q885 1048 996.5 910.5 Q1108 773 1108 542 Q1108 285 983 130.5 Q858 -24 641 -24 Q438 -24 334 148 Z M330 561 L330 418 Q330 291 412.5 202.5 Q495 114 622 114 Q771 114 855.5 228 Q940 342 940 545 Q940 716 861 813 Q782 910 647 910 Q504 910 417 810.5 Q330 711 330 561 Z " />
<glyph glyph-name="c" unicode="c" horiz-adv-x="946" d="M864 47 Q746 -24 584 -24 Q365 -24 230.5 118.5 Q96 261 96 488 Q96 741 241 894.5 Q386 1048 628 1048 Q763 1048 866 998 L866 830 Q752 910 622 910 Q465 910 364.5 797.5 Q264 685 264 502 Q264 322 358.5 218 Q453 114 612 114 Q746 114 864 203 L864 47 Z " />
<glyph glyph-name="d" unicode="d" horiz-adv-x="1206" d="M1040 0 L876 0 L876 174 L872 174 Q758 -24 520 -24 Q327 -24 211.5 113.5 Q96 251 96 488 Q96 742 224 895 Q352 1048 565 1048 Q776 1048 872 882 L876 882 L876 1516 L1040 1516 L1040 0 Z M876 463 L876 614 Q876 738 794 824 Q712 910 586 910 Q436 910 350 800 Q264 690 264 496 Q264 319 346.5 216.5 Q429 114 568 114 Q705 114 790.5 213 Q876 312 876 463 Z " />
<glyph glyph-name="e" unicode="e" horiz-adv-x="1071" d="M989 471 L266 471 Q270 300 358 207 Q446 114 600 114 Q773 114 918 228 L918 74 Q783 -24 561 -24 Q344 -24 220 115.5 Q96 255 96 508 Q96 747 231.5 897.5 Q367 1048 568 1048 Q769 1048 879 918 Q989 788 989 557 L989 471 Z M821 610 Q820 752 752.5 831 Q685 910 565 910 Q449 910 368 827 Q287 744 268 610 L821 610 Z " />
<glyph glyph-name="f" unicode="f" horiz-adv-x="641" d="M672 1372 Q624 1399 563 1399 Q391 1399 391 1182 L391 1024 L631 1024 L631 884 L391 884 L391 0 L228 0 L228 884 L53 884 L53 1024 L228 1024 L228 1190 Q228 1351 321 1444.5 Q414 1538 553 1538 Q628 1538 672 1520 L672 1372 Z " />
<glyph glyph-name="g" unicode="g" horiz-adv-x="1206" d="M1040 82 Q1040 -482 500 -482 Q310 -482 168 -410 L168 -246 Q341 -342 498 -342 Q876 -342 876 60 L876 172 L872 172 Q755 -24 520 -24 Q329 -24 212.5 112.5 Q96 249 96 479 Q96 740 221.5 894 Q347 1048 565 1048 Q772 1048 872 882 L876 882 L876 1024 L1040 1024 L1040 82 Z M876 463 L876 614 Q876 736 793.5 823 Q711 910 588 910 Q436 910 350 799.5 Q264 689 264 490 Q264 319 346.5 216.5 Q429 114 565 114 Q703 114 789.5 212 Q876 310 876 463 Z " />
<glyph glyph-name="h" unicode="h" horiz-adv-x="1159" d="M1016 0 L852 0 L852 590 Q852 910 614 910 Q494 910 412 817.5 Q330 725 330 580 L330 0 L166 0 L166 1516 L330 1516 L330 854 L334 854 Q452 1048 670 1048 Q1016 1048 1016 631 L1016 0 Z " />
<glyph glyph-name="i" unicode="i" horiz-adv-x="496" d="M250 1284 Q206 1284 175 1314 Q144 1344 144 1390 Q144 1436 175 1466.5 Q206 1497 250 1497 Q295 1497 326.5 1466.5 Q358 1436 358 1390 Q358 1346 326.5 1315 Q295 1284 250 1284 Z M330 0 L166 0 L166 1024 L330 1024 L330 0 Z " />
<glyph glyph-name="j" unicode="j" horiz-adv-x="496" d="M330 43 Q330 -209 228.5 -345.5 Q127 -482 -62 -482 Q-132 -482 -198 -450 L-198 -297 Q-124 -342 -58 -342 Q166 -342 166 16 L166 1024 L330 1024 L330 43 Z M250 1284 Q206 1284 175 1314 Q144 1344 144 1390 Q144 1436 175 1466.5 Q206 1497 250 1497 Q295 1497 326.5 1466.5 Q358 1436 358 1390 Q358 1346 326.5 1315 Q295 1284 250 1284 Z " />
<glyph glyph-name="k" unicode="k" horiz-adv-x="1018" d="M1016 0 L786 0 L334 492 L330 492 L330 0 L166 0 L166 1516 L330 1516 L330 555 L334 555 L764 1024 L979 1024 L504 530 L1016 0 Z " />
<glyph glyph-name="l" unicode="l" horiz-adv-x="496" d="M330 0 L166 0 L166 1516 L330 1516 L330 0 Z " />
<glyph glyph-name="m" unicode="m" horiz-adv-x="1764" d="M1620 0 L1456 0 L1456 588 Q1456 758 1403.5 834 Q1351 910 1227 910 Q1122 910 1048.5 814 Q975 718 975 584 L975 0 L811 0 L811 608 Q811 910 578 910 Q470 910 400 819.5 Q330 729 330 584 L330 0 L166 0 L166 1024 L330 1024 L330 862 L334 862 Q443 1048 652 1048 Q757 1048 835 989.5 Q913 931 942 836 Q1056 1048 1282 1048 Q1620 1048 1620 631 L1620 0 Z " />
<glyph glyph-name="n" unicode="n" horiz-adv-x="1159" d="M1016 0 L852 0 L852 584 Q852 910 614 910 Q491 910 410.5 817.5 Q330 725 330 584 L330 0 L166 0 L166 1024 L330 1024 L330 854 L334 854 Q450 1048 670 1048 Q838 1048 927 939.5 Q1016 831 1016 626 L1016 0 Z " />
<glyph glyph-name="o" unicode="o" horiz-adv-x="1200" d="M594 -24 Q367 -24 231.5 119.5 Q96 263 96 500 Q96 758 237 903 Q378 1048 618 1048 Q847 1048 975.5 907 Q1104 766 1104 516 Q1104 271 965.5 123.5 Q827 -24 594 -24 Z M606 910 Q448 910 356 802.5 Q264 695 264 506 Q264 324 357 219 Q450 114 606 114 Q765 114 850.5 217 Q936 320 936 510 Q936 702 850.5 806 Q765 910 606 910 Z " />
<glyph glyph-name="p" unicode="p" horiz-adv-x="1204" d="M334 148 L330 148 L330 -471 L166 -471 L166 1024 L330 1024 L330 844 L334 844 Q455 1048 688 1048 Q886 1048 997 910.5 Q1108 773 1108 542 Q1108 285 983 130.5 Q858 -24 641 -24 Q442 -24 334 148 Z M330 561 L330 418 Q330 291 412.5 202.5 Q495 114 622 114 Q771 114 855.5 228 Q940 342 940 545 Q940 716 861 813 Q782 910 647 910 Q504 910 417 810.5 Q330 711 330 561 Z " />
<glyph glyph-name="q" unicode="q" horiz-adv-x="1206" d="M1040 -471 L876 -471 L876 176 L872 176 Q765 -24 522 -24 Q329 -24 212.5 113.5 Q96 251 96 488 Q96 743 224 895.5 Q352 1048 568 1048 Q778 1048 872 882 L876 882 L876 1024 L1040 1024 L1040 -471 Z M876 461 L876 610 Q876 736 793.5 823 Q711 910 584 910 Q436 910 350 800.5 Q264 691 264 492 Q264 315 347 214.5 Q430 114 561 114 Q705 114 790.5 212.5 Q876 311 876 461 Z " />
<glyph glyph-name="r" unicode="r" horiz-adv-x="712" d="M700 858 Q657 891 576 891 Q471 891 400.5 792 Q330 693 330 522 L330 0 L166 0 L166 1024 L330 1024 L330 813 L334 813 Q369 921 441 981.5 Q513 1042 602 1042 Q666 1042 700 1028 L700 858 Z " />
<glyph glyph-name="s" unicode="s" horiz-adv-x="869" d="M104 37 L104 213 Q238 114 399 114 Q615 114 615 258 Q615 299 596.5 327.5 Q578 356 546.5 378 Q515 400 472.5 417.5 Q430 435 381 454 Q313 481 261.5 508.5 Q210 536 175.5 570.5 Q141 605 123.5 649 Q106 693 106 752 Q106 824 139 879.5 Q172 935 227 972.5 Q282 1010 352.5 1029 Q423 1048 498 1048 Q631 1048 736 1002 L736 836 Q623 910 476 910 Q430 910 393 899.5 Q356 889 329.5 870 Q303 851 288.5 824.5 Q274 798 274 766 Q274 726 288.5 699 Q303 672 331 651 Q359 630 399 613 Q439 596 490 576 Q558 550 612 522.5 Q666 495 704 460.5 Q742 426 762.5 381 Q783 336 783 274 Q783 198 749.5 142 Q716 86 660 49 Q604 12 531 -6 Q458 -24 378 -24 Q220 -24 104 37 Z " />
<glyph glyph-name="t" unicode="t" horiz-adv-x="694" d="M641 10 Q583 -22 488 -22 Q219 -22 219 278 L219 884 L43 884 L43 1024 L219 1024 L219 1274 L383 1327 L383 1024 L641 1024 L641 884 L383 884 L383 307 Q383 204 418 160 Q453 116 534 116 Q596 116 641 150 L641 10 Z " />
<glyph glyph-name="u" unicode="u" horiz-adv-x="1159" d="M994 0 L830 0 L830 162 L826 162 Q724 -24 510 -24 Q144 -24 144 412 L144 1024 L307 1024 L307 438 Q307 114 555 114 Q675 114 752.5 202.5 Q830 291 830 434 L830 1024 L994 1024 L994 0 Z " />
<glyph glyph-name="v" unicode="v" horiz-adv-x="981" d="M971 1024 L563 0 L402 0 L14 1024 L194 1024 L454 280 Q483 198 490 137 L494 137 Q504 214 526 276 L798 1024 L971 1024 Z " />
<glyph glyph-name="w" unicode="w" horiz-adv-x="1480" d="M1456 1024 L1149 0 L979 0 L768 733 Q756 775 752 828 L748 828 Q745 792 727 735 L498 0 L334 0 L24 1024 L196 1024 L408 254 Q418 219 422 162 L430 162 Q433 206 448 256 L684 1024 L834 1024 L1046 252 Q1056 215 1061 160 L1069 160 Q1071 199 1086 252 L1294 1024 L1456 1024 Z " />
<glyph glyph-name="x" unicode="x" horiz-adv-x="940" d="M914 1024 L570 506 L908 0 L717 0 L516 332 Q497 363 471 410 L467 410 Q462 401 420 332 L215 0 L26 0 L375 502 L41 1024 L232 1024 L430 674 Q452 635 473 594 L477 594 L733 1024 L914 1024 Z " />
<glyph glyph-name="y" unicode="y" horiz-adv-x="991" d="M981 1024 L510 -164 Q384 -482 156 -482 Q92 -482 49 -469 L49 -322 Q102 -340 146 -340 Q270 -340 332 -192 L414 2 L14 1024 L196 1024 L473 236 Q478 221 494 158 L500 158 Q505 182 520 234 L811 1024 L981 1024 Z " />
<glyph glyph-name="z" unicode="z" horiz-adv-x="926" d="M880 977 L274 140 L874 140 L874 0 L33 0 L33 51 L639 884 L90 884 L90 1024 L880 1024 L880 977 Z " />
<glyph glyph-name="braceleft" unicode="&#x7b;" horiz-adv-x="618" d="M555 -326 Q248 -322 248 -16 L248 284 Q248 486 92 496 L92 612 Q248 622 248 828 L248 1120 Q248 1430 555 1434 L555 1306 Q396 1302 396 1108 L396 815 Q396 605 246 557 L246 553 Q396 508 396 297 L396 8 Q396 -103 431.5 -150.5 Q467 -198 555 -200 L555 -326 Z " />
<glyph glyph-name="bar" unicode="&#x7c;" horiz-adv-x="490" d="M320 -482 L172 -482 L172 1566 L320 1566 L320 -482 Z " />
<glyph glyph-name="braceright" unicode="&#x7d;" horiz-adv-x="618" d="M528 496 Q372 486 372 284 L372 -16 Q372 -322 66 -326 L66 -200 Q153 -198 189.5 -150 Q226 -102 226 8 L226 297 Q226 508 375 553 L375 557 Q226 605 226 815 L226 1108 Q226 1302 66 1306 L66 1434 Q372 1430 372 1120 L372 828 Q372 622 528 612 L528 496 Z " />
<glyph glyph-name="asciitilde" unicode="&#x7e;" horiz-adv-x="1401" d="M1194 750 Q1187 602 1113.5 521 Q1040 440 914 440 Q805 440 649 549 Q552 616 490 616 Q350 616 344 440 L209 440 Q214 583 288.5 666.5 Q363 750 490 750 Q596 750 725 662 Q857 572 922 572 Q983 572 1020 621 Q1057 670 1059 750 L1194 750 Z " />
<glyph glyph-name="Adieresis" unicode="&#xc4;" horiz-adv-x="1321" d="M1298 0 L1112 0 L960 402 L352 402 L209 0 L22 0 L572 1434 L746 1434 L1298 0 Z M905 553 L680 1164 Q669 1194 658 1260 L654 1260 Q644 1199 631 1164 L408 553 L905 553 Z M840 1565 Q800 1565 771 1593 Q742 1621 742 1664 Q742 1706 770 1734 Q798 1762 838 1762 Q880 1762 909 1733.5 Q938 1705 938 1664 Q938 1623 910 1594 Q882 1565 840 1565 Z M456 1565 Q414 1565 384.5 1594.5 Q355 1624 355 1664 Q355 1706 383.5 1734 Q412 1762 453 1762 Q494 1762 524 1733.5 Q554 1705 554 1664 Q554 1623 525 1594 Q496 1565 456 1565 Z " />
<glyph glyph-name="Aring" unicode="&#xc5;" horiz-adv-x="1321" d="M1298 0 L1112 0 L960 402 L352 402 L209 0 L22 0 L551 1378 Q450 1430 450 1542 Q450 1631 510 1686 Q570 1741 662 1741 Q750 1741 806 1686.5 Q862 1632 862 1548 Q862 1436 766 1382 L1298 0 Z M656 1659 Q606 1659 574 1627.5 Q542 1596 542 1548 Q542 1434 656 1434 Q704 1434 737 1467 Q770 1500 770 1548 Q770 1597 737 1628 Q704 1659 656 1659 Z M905 553 L680 1164 Q669 1194 658 1260 L654 1260 Q644 1199 631 1164 L408 553 L905 553 Z " />
<glyph glyph-name="Ccedilla" unicode="&#xc7;" horiz-adv-x="1268" d="M1164 60 Q1005 -24 768 -24 Q462 -24 278 173 Q94 370 94 690 Q94 1034 301 1246 Q508 1458 826 1458 Q1030 1458 1164 1399 L1164 1220 Q1010 1306 824 1306 Q577 1306 423.5 1141 Q270 976 270 700 Q270 438 413.5 282.5 Q557 127 790 127 Q1006 127 1164 223 L1164 60 Z M960 -256 Q960 -432 685 -432 Q647 -432 620 -430 L620 -340 Q663 -346 690 -346 Q831 -346 831 -256 Q831 -178 702 -178 Q692 -178 661 -182 L661 0 L769 0 L769 -104 Q857 -104 908.5 -144 Q960 -184 960 -256 Z " />
<glyph glyph-name="Eacute" unicode="&#xc9;" horiz-adv-x="1036" d="M948 0 L188 0 L188 1434 L916 1434 L916 1282 L356 1282 L356 805 L874 805 L874 654 L356 654 L356 152 L948 152 L948 0 Z M803 1893 L541 1565 L414 1565 L637 1893 L803 1893 Z " />
<glyph glyph-name="Ntilde" unicode="&#xd1;" horiz-adv-x="1532" d="M1344 0 L1138 0 L400 1143 Q372 1186 354 1233 L348 1233 Q356 1187 356 1036 L356 0 L188 0 L188 1434 L406 1434 L1124 309 Q1169 239 1182 213 L1186 213 Q1176 275 1176 424 L1176 1434 L1344 1434 L1344 0 Z M1113 1803 Q1113 1698 1065 1631.5 Q1017 1565 935 1565 Q864 1565 773 1617 Q696 1660 654 1660 Q566 1660 566 1547 L472 1547 Q472 1654 520 1718.5 Q568 1783 654 1783 Q719 1783 803 1731 Q877 1687 931 1687 Q1015 1687 1015 1803 L1113 1803 Z " />
<glyph glyph-name="Odieresis" unicode="&#xd6;" horiz-adv-x="1544" d="M766 -24 Q461 -24 277.5 177 Q94 378 94 700 Q94 1046 281 1252 Q468 1458 790 1458 Q1087 1458 1268.5 1258 Q1450 1058 1450 735 Q1450 384 1264 180 Q1078 -24 766 -24 Z M778 1306 Q552 1306 411 1143 Q270 980 270 715 Q270 450 407.5 288.5 Q545 127 766 127 Q1002 127 1138 281 Q1274 435 1274 712 Q1274 996 1142 1151 Q1010 1306 778 1306 Z M968 1563 Q928 1563 899 1591 Q870 1619 870 1662 Q870 1704 898 1732 Q926 1760 966 1760 Q1008 1760 1037 1731.5 Q1066 1703 1066 1662 Q1066 1621 1038 1592 Q1010 1563 968 1563 Z M584 1563 Q542 1563 512.5 1592.5 Q483 1622 483 1662 Q483 1704 511.5 1732 Q540 1760 581 1760 Q622 1760 652 1731.5 Q682 1703 682 1662 Q682 1621 653 1592 Q624 1563 584 1563 Z " />
<glyph glyph-name="Udieresis" unicode="&#xdc;" horiz-adv-x="1407" d="M1237 580 Q1237 -24 692 -24 Q170 -24 170 557 L170 1434 L338 1434 L338 568 Q338 127 710 127 Q1069 127 1069 553 L1069 1434 L1237 1434 L1237 580 Z M895 1567 Q855 1567 826 1595 Q797 1623 797 1666 Q797 1708 825 1736 Q853 1764 893 1764 Q935 1764 964 1735.5 Q993 1707 993 1666 Q993 1625 965 1596 Q937 1567 895 1567 Z M511 1567 Q469 1567 439.5 1596.5 Q410 1626 410 1666 Q410 1708 438.5 1736 Q467 1764 508 1764 Q549 1764 579 1735.5 Q609 1707 609 1666 Q609 1625 580 1596 Q551 1567 511 1567 Z " />
<glyph glyph-name="aacute" unicode="&#xe1;" horiz-adv-x="1042" d="M899 0 L735 0 L735 160 L731 160 Q624 -24 416 -24 Q263 -24 176.5 57 Q90 138 90 272 Q90 559 428 606 L735 649 Q735 910 524 910 Q339 910 190 784 L190 952 Q341 1048 538 1048 Q899 1048 899 666 L899 0 Z M735 518 L488 484 Q374 468 316 427.5 Q258 387 258 284 Q258 209 311.5 161.5 Q365 114 454 114 Q576 114 655.5 199.5 Q735 285 735 416 L735 518 Z M757 1546 L495 1218 L368 1218 L591 1546 L757 1546 Z " />
<glyph glyph-name="agrave" unicode="&#xe0;" horiz-adv-x="1042" d="M899 0 L735 0 L735 160 L731 160 Q624 -24 416 -24 Q263 -24 176.5 57 Q90 138 90 272 Q90 559 428 606 L735 649 Q735 910 524 910 Q339 910 190 784 L190 952 Q341 1048 538 1048 Q899 1048 899 666 L899 0 Z M735 518 L488 484 Q374 468 316 427.5 Q258 387 258 284 Q258 209 311.5 161.5 Q365 114 454 114 Q576 114 655.5 199.5 Q735 285 735 416 L735 518 Z M674 1218 L547 1218 L285 1546 L453 1546 L674 1218 Z " />
<glyph glyph-name="acircumflex" unicode="&#xe2;" horiz-adv-x="1042" d="M899 0 L735 0 L735 160 L731 160 Q624 -24 416 -24 Q263 -24 176.5 57 Q90 138 90 272 Q90 559 428 606 L735 649 Q735 910 524 910 Q339 910 190 784 L190 952 Q341 1048 538 1048 Q899 1048 899 666 L899 0 Z M735 518 L488 484 Q374 468 316 427.5 Q258 387 258 284 Q258 209 311.5 161.5 Q365 114 454 114 Q576 114 655.5 199.5 Q735 285 735 416 L735 518 Z M806 1218 L684 1218 L520 1448 L355 1218 L242 1218 L457 1550 L590 1550 L806 1218 Z " />
<glyph glyph-name="adieresis" unicode="&#xe4;" horiz-adv-x="1042" d="M899 0 L735 0 L735 160 L731 160 Q624 -24 416 -24 Q263 -24 176.5 57 Q90 138 90 272 Q90 559 428 606 L735 649 Q735 910 524 910 Q339 910 190 784 L190 952 Q341 1048 538 1048 Q899 1048 899 666 L899 0 Z M735 518 L488 484 Q374 468 316 427.5 Q258 387 258 284 Q258 209 311.5 161.5 Q365 114 454 114 Q576 114 655.5 199.5 Q735 285 735 416 L735 518 Z M708 1218 Q668 1218 639 1246 Q610 1274 610 1317 Q610 1359 638 1387 Q666 1415 706 1415 Q748 1415 777 1386.5 Q806 1358 806 1317 Q806 1276 778 1247 Q750 1218 708 1218 Z M324 1218 Q282 1218 252.5 1247.5 Q223 1277 223 1317 Q223 1359 251.5 1387 Q280 1415 321 1415 Q362 1415 392 1386.5 Q422 1358 422 1317 Q422 1276 393 1247 Q364 1218 324 1218 Z " />
<glyph glyph-name="atilde" unicode="&#xe3;" horiz-adv-x="1042" d="M899 0 L735 0 L735 160 L731 160 Q624 -24 416 -24 Q263 -24 176.5 57 Q90 138 90 272 Q90 559 428 606 L735 649 Q735 910 524 910 Q339 910 190 784 L190 952 Q341 1048 538 1048 Q899 1048 899 666 L899 0 Z M735 518 L488 484 Q374 468 316 427.5 Q258 387 258 284 Q258 209 311.5 161.5 Q365 114 454 114 Q576 114 655.5 199.5 Q735 285 735 416 L735 518 Z M844 1458 Q844 1353 796 1286.5 Q748 1220 666 1220 Q595 1220 504 1272 Q427 1315 385 1315 Q297 1315 297 1202 L203 1202 Q203 1309 251 1373.5 Q299 1438 385 1438 Q450 1438 534 1386 Q608 1342 662 1342 Q746 1342 746 1458 L844 1458 Z " />
<glyph glyph-name="aring" unicode="&#xe5;" horiz-adv-x="1042" d="M899 0 L735 0 L735 160 L731 160 Q624 -24 416 -24 Q263 -24 176.5 57 Q90 138 90 272 Q90 559 428 606 L735 649 Q735 910 524 910 Q339 910 190 784 L190 952 Q341 1048 538 1048 Q899 1048 899 666 L899 0 Z M735 518 L488 484 Q374 468 316 427.5 Q258 387 258 284 Q258 209 311.5 161.5 Q365 114 454 114 Q576 114 655.5 199.5 Q735 285 735 416 L735 518 Z M517 1176 Q430 1176 372.5 1228.5 Q315 1281 315 1366 Q315 1456 374 1510 Q433 1564 524 1564 Q613 1564 670 1510 Q727 1456 727 1372 Q727 1288 666 1232 Q605 1176 517 1176 Z M517 1483 Q469 1483 437 1450.5 Q405 1418 405 1370 Q405 1258 517 1258 Q567 1258 600 1290 Q633 1322 633 1370 Q633 1419 600 1451 Q567 1483 517 1483 Z " />
<glyph glyph-name="ccedilla" unicode="&#xe7;" horiz-adv-x="946" d="M864 47 Q746 -24 584 -24 Q365 -24 230.5 118.5 Q96 261 96 488 Q96 741 241 894.5 Q386 1048 628 1048 Q763 1048 866 998 L866 830 Q752 910 622 910 Q465 910 364.5 797.5 Q264 685 264 502 Q264 322 358.5 218 Q453 114 612 114 Q746 114 864 203 L864 47 Z M778 -256 Q778 -432 503 -432 Q465 -432 438 -430 L438 -340 Q481 -346 508 -346 Q649 -346 649 -256 Q649 -178 520 -178 Q510 -178 479 -182 L479 0 L587 0 L587 -104 Q675 -104 726.5 -144 Q778 -184 778 -256 Z " />
<glyph glyph-name="eacute" unicode="&#xe9;" horiz-adv-x="1071" d="M989 471 L266 471 Q270 300 358 207 Q446 114 600 114 Q773 114 918 228 L918 74 Q783 -24 561 -24 Q344 -24 220 115.5 Q96 255 96 508 Q96 747 231.5 897.5 Q367 1048 568 1048 Q769 1048 879 918 Q989 788 989 557 L989 471 Z M821 610 Q820 752 752.5 831 Q685 910 565 910 Q449 910 368 827 Q287 744 268 610 L821 610 Z M795 1546 L533 1218 L406 1218 L629 1546 L795 1546 Z " />
<glyph glyph-name="egrave" unicode="&#xe8;" horiz-adv-x="1071" d="M989 471 L266 471 Q270 300 358 207 Q446 114 600 114 Q773 114 918 228 L918 74 Q783 -24 561 -24 Q344 -24 220 115.5 Q96 255 96 508 Q96 747 231.5 897.5 Q367 1048 568 1048 Q769 1048 879 918 Q989 788 989 557 L989 471 Z M821 610 Q820 752 752.5 831 Q685 910 565 910 Q449 910 368 827 Q287 744 268 610 L821 610 Z M725 1218 L598 1218 L336 1546 L504 1546 L725 1218 Z " />
<glyph glyph-name="ecircumflex" unicode="&#xea;" horiz-adv-x="1071" d="M989 471 L266 471 Q270 300 358 207 Q446 114 600 114 Q773 114 918 228 L918 74 Q783 -24 561 -24 Q344 -24 220 115.5 Q96 255 96 508 Q96 747 231.5 897.5 Q367 1048 568 1048 Q769 1048 879 918 Q989 788 989 557 L989 471 Z M821 610 Q820 752 752.5 831 Q685 910 565 910 Q449 910 368 827 Q287 744 268 610 L821 610 Z M840 1218 L718 1218 L554 1448 L389 1218 L276 1218 L491 1550 L624 1550 L840 1218 Z " />
<glyph glyph-name="edieresis" unicode="&#xeb;" horiz-adv-x="1071" d="M989 471 L266 471 Q270 300 358 207 Q446 114 600 114 Q773 114 918 228 L918 74 Q783 -24 561 -24 Q344 -24 220 115.5 Q96 255 96 508 Q96 747 231.5 897.5 Q367 1048 568 1048 Q769 1048 879 918 Q989 788 989 557 L989 471 Z M821 610 Q820 752 752.5 831 Q685 910 565 910 Q449 910 368 827 Q287 744 268 610 L821 610 Z M746 1218 Q706 1218 677 1246 Q648 1274 648 1317 Q648 1359 676 1387 Q704 1415 744 1415 Q786 1415 815 1386.5 Q844 1358 844 1317 Q844 1276 816 1247 Q788 1218 746 1218 Z M362 1218 Q320 1218 290.5 1247.5 Q261 1277 261 1317 Q261 1359 289.5 1387 Q318 1415 359 1415 Q400 1415 430 1386.5 Q460 1358 460 1317 Q460 1276 431 1247 Q402 1218 362 1218 Z " />
<glyph glyph-name="iacute" unicode="&#xed;" horiz-adv-x="496" d="M330 0 L166 0 L166 1024 L330 1024 L330 0 Z M477 1546 L215 1218 L88 1218 L311 1546 L477 1546 Z " />
<glyph glyph-name="igrave" unicode="&#xec;" horiz-adv-x="496" d="M330 0 L166 0 L166 1024 L330 1024 L330 0 Z M369 1218 L242 1218 L-20 1546 L148 1546 L369 1218 Z " />
<glyph glyph-name="icircumflex" unicode="&#xee;" horiz-adv-x="496" d="M330 0 L166 0 L166 1024 L330 1024 L330 0 Z M519 1218 L397 1218 L233 1448 L68 1218 L-45 1218 L170 1550 L303 1550 L519 1218 Z " />
<glyph glyph-name="idieresis" unicode="&#xef;" horiz-adv-x="496" d="M330 0 L166 0 L166 1024 L330 1024 L330 0 Z M430 1218 Q390 1218 361 1246 Q332 1274 332 1317 Q332 1359 360 1387 Q388 1415 428 1415 Q470 1415 499 1386.5 Q528 1358 528 1317 Q528 1276 500 1247 Q472 1218 430 1218 Z M46 1218 Q4 1218 -25.5 1247.5 Q-55 1277 -55 1317 Q-55 1359 -26.5 1387 Q2 1415 43 1415 Q84 1415 114 1386.5 Q144 1358 144 1317 Q144 1276 115 1247 Q86 1218 46 1218 Z " />
<glyph glyph-name="ntilde" unicode="&#xf1;" horiz-adv-x="1159" d="M1016 0 L852 0 L852 584 Q852 910 614 910 Q491 910 410.5 817.5 Q330 725 330 584 L330 0 L166 0 L166 1024 L330 1024 L330 854 L334 854 Q450 1048 670 1048 Q838 1048 927 939.5 Q1016 831 1016 626 L1016 0 Z M908 1458 Q908 1353 860 1286.5 Q812 1220 730 1220 Q659 1220 568 1272 Q491 1315 449 1315 Q361 1315 361 1202 L267 1202 Q267 1309 315 1373.5 Q363 1438 449 1438 Q514 1438 598 1386 Q672 1342 726 1342 Q810 1342 810 1458 L908 1458 Z " />
<glyph glyph-name="oacute" unicode="&#xf3;" horiz-adv-x="1200" d="M594 -24 Q367 -24 231.5 119.5 Q96 263 96 500 Q96 758 237 903 Q378 1048 618 1048 Q847 1048 975.5 907 Q1104 766 1104 516 Q1104 271 965.5 123.5 Q827 -24 594 -24 Z M606 910 Q448 910 356 802.5 Q264 695 264 506 Q264 324 357 219 Q450 114 606 114 Q765 114 850.5 217 Q936 320 936 510 Q936 702 850.5 806 Q765 910 606 910 Z M846 1546 L584 1218 L457 1218 L680 1546 L846 1546 Z " />
<glyph glyph-name="ograve" unicode="&#xf2;" horiz-adv-x="1200" d="M594 -24 Q367 -24 231.5 119.5 Q96 263 96 500 Q96 758 237 903 Q378 1048 618 1048 Q847 1048 975.5 907 Q1104 766 1104 516 Q1104 271 965.5 123.5 Q827 -24 594 -24 Z M606 910 Q448 910 356 802.5 Q264 695 264 506 Q264 324 357 219 Q450 114 606 114 Q765 114 850.5 217 Q936 320 936 510 Q936 702 850.5 806 Q765 910 606 910 Z M747 1218 L620 1218 L358 1546 L526 1546 L747 1218 Z " />
<glyph glyph-name="ocircumflex" unicode="&#xf4;" horiz-adv-x="1200" d="M594 -24 Q367 -24 231.5 119.5 Q96 263 96 500 Q96 758 237 903 Q378 1048 618 1048 Q847 1048 975.5 907 Q1104 766 1104 516 Q1104 271 965.5 123.5 Q827 -24 594 -24 Z M606 910 Q448 910 356 802.5 Q264 695 264 506 Q264 324 357 219 Q450 114 606 114 Q765 114 850.5 217 Q936 320 936 510 Q936 702 850.5 806 Q765 910 606 910 Z M885 1218 L763 1218 L599 1448 L434 1218 L321 1218 L536 1550 L669 1550 L885 1218 Z " />
<glyph glyph-name="odieresis" unicode="&#xf6;" horiz-adv-x="1200" d="M594 -24 Q367 -24 231.5 119.5 Q96 263 96 500 Q96 758 237 903 Q378 1048 618 1048 Q847 1048 975.5 907 Q1104 766 1104 516 Q1104 271 965.5 123.5 Q827 -24 594 -24 Z M606 910 Q448 910 356 802.5 Q264 695 264 506 Q264 324 357 219 Q450 114 606 114 Q765 114 850.5 217 Q936 320 936 510 Q936 702 850.5 806 Q765 910 606 910 Z M793 1218 Q753 1218 724 1246 Q695 1274 695 1317 Q695 1359 723 1387 Q751 1415 791 1415 Q833 1415 862 1386.5 Q891 1358 891 1317 Q891 1276 863 1247 Q835 1218 793 1218 Z M409 1218 Q367 1218 337.5 1247.5 Q308 1277 308 1317 Q308 1359 336.5 1387 Q365 1415 406 1415 Q447 1415 477 1386.5 Q507 1358 507 1317 Q507 1276 478 1247 Q449 1218 409 1218 Z " />
<glyph glyph-name="otilde" unicode="&#xf5;" horiz-adv-x="1200" d="M594 -24 Q367 -24 231.5 119.5 Q96 263 96 500 Q96 758 237 903 Q378 1048 618 1048 Q847 1048 975.5 907 Q1104 766 1104 516 Q1104 271 965.5 123.5 Q827 -24 594 -24 Z M606 910 Q448 910 356 802.5 Q264 695 264 506 Q264 324 357 219 Q450 114 606 114 Q765 114 850.5 217 Q936 320 936 510 Q936 702 850.5 806 Q765 910 606 910 Z M931 1458 Q931 1353 883 1286.5 Q835 1220 753 1220 Q682 1220 591 1272 Q514 1315 472 1315 Q384 1315 384 1202 L290 1202 Q290 1309 338 1373.5 Q386 1438 472 1438 Q537 1438 621 1386 Q695 1342 749 1342 Q833 1342 833 1458 L931 1458 Z " />
<glyph glyph-name="uacute" unicode="&#xfa;" horiz-adv-x="1159" d="M994 0 L830 0 L830 162 L826 162 Q724 -24 510 -24 Q144 -24 144 412 L144 1024 L307 1024 L307 438 Q307 114 555 114 Q675 114 752.5 202.5 Q830 291 830 434 L830 1024 L994 1024 L994 0 Z M840 1546 L578 1218 L451 1218 L674 1546 L840 1546 Z " />
<glyph glyph-name="ugrave" unicode="&#xf9;" horiz-adv-x="1159" d="M994 0 L830 0 L830 162 L826 162 Q724 -24 510 -24 Q144 -24 144 412 L144 1024 L307 1024 L307 438 Q307 114 555 114 Q675 114 752.5 202.5 Q830 291 830 434 L830 1024 L994 1024 L994 0 Z M705 1218 L578 1218 L316 1546 L484 1546 L705 1218 Z " />
<glyph glyph-name="ucircumflex" unicode="&#xfb;" horiz-adv-x="1159" d="M994 0 L830 0 L830 162 L826 162 Q724 -24 510 -24 Q144 -24 144 412 L144 1024 L307 1024 L307 438 Q307 114 555 114 Q675 114 752.5 202.5 Q830 291 830 434 L830 1024 L994 1024 L994 0 Z M854 1218 L732 1218 L568 1448 L403 1218 L290 1218 L505 1550 L638 1550 L854 1218 Z " />
<glyph glyph-name="udieresis" unicode="&#xfc;" horiz-adv-x="1159" d="M994 0 L830 0 L830 162 L826 162 Q724 -24 510 -24 Q144 -24 144 412 L144 1024 L307 1024 L307 438 Q307 114 555 114 Q675 114 752.5 202.5 Q830 291 830 434 L830 1024 L994 1024 L994 0 Z M770 1218 Q730 1218 701 1246 Q672 1274 672 1317 Q672 1359 700 1387 Q728 1415 768 1415 Q810 1415 839 1386.5 Q868 1358 868 1317 Q868 1276 840 1247 Q812 1218 770 1218 Z M386 1218 Q344 1218 314.5 1247.5 Q285 1277 285 1317 Q285 1359 313.5 1387 Q342 1415 383 1415 Q424 1415 454 1386.5 Q484 1358 484 1317 Q484 1276 455 1247 Q426 1218 386 1218 Z " />
<glyph glyph-name="dagger" unicode="&#x2020;" horiz-adv-x="768" d="M728 893 L466 923 L426 229 L350 229 L310 923 L48 893 L48 1043 L350 1023 L310 1433 L466 1433 L426 1023 L728 1043 L728 893 Z " />
<glyph glyph-name="degree" unicode="&#xb0;" horiz-adv-x="772" d="M385 897 Q270 897 189 978.5 Q108 1060 108 1176 Q108 1291 188 1370.5 Q268 1450 383 1450 Q499 1450 580.5 1370 Q662 1290 662 1176 Q662 1060 581 978.5 Q500 897 385 897 Z M385 1333 Q320 1333 274 1287 Q228 1241 228 1176 Q228 1109 273 1061.5 Q318 1014 383 1014 Q448 1014 495 1062 Q542 1110 542 1176 Q542 1242 496 1287.5 Q450 1333 385 1333 Z " />
<glyph glyph-name="cent" unicode="&#xa2;" horiz-adv-x="1104" d="M952 209 Q856 150 731 140 L731 -49 L606 -49 L606 142 Q413 164 298.5 303 Q184 442 184 649 Q184 868 298.5 1015.5 Q413 1163 606 1200 L606 1413 L731 1413 L731 1210 Q854 1208 952 1159 L952 987 Q851 1058 731 1065 L731 280 Q853 292 952 366 L952 209 Z M606 291 L606 1052 Q487 1021 419.5 918.5 Q352 816 352 666 Q352 516 420 417 Q488 318 606 291 Z " />
<glyph glyph-name="sterling" unicode="&#xa3;" horiz-adv-x="1104" d="M1006 0 L106 0 L106 135 Q324 204 324 448 L324 635 L127 635 L127 776 L324 776 L324 1030 Q324 1218 433 1338 Q542 1458 715 1458 Q832 1458 928 1417 L928 1262 Q828 1319 717 1319 Q488 1319 488 1012 L488 776 L784 776 L784 635 L488 635 L488 479 Q488 237 295 140 L1006 140 L1006 0 Z " />
<glyph glyph-name="section" unicode="&#xa7;" horiz-adv-x="918" d="M658 416 Q748 342 748 230 Q748 98 648 16 Q548 -66 393 -66 Q262 -66 154 -10 L154 148 Q284 74 404 74 Q488 74 534 113.5 Q580 153 580 213 Q580 266 544.5 302.5 Q509 339 364 416 Q131 538 131 733 Q131 896 278 977 Q172 1060 172 1200 Q172 1327 265.5 1409 Q359 1491 512 1491 Q642 1491 731 1448 L731 1290 Q630 1352 508 1352 Q340 1352 340 1208 Q340 1153 380.5 1108 Q421 1063 584 985 Q807 878 807 692 Q807 522 658 416 Z M398 905 Q297 854 297 746 Q297 674 353.5 619.5 Q410 565 551 502 Q639 570 639 674 Q639 746 586.5 796.5 Q534 847 398 905 Z " />
<glyph glyph-name="bullet" unicode="&#x2022;" horiz-adv-x="832" d="M418 408 Q314 408 239 481 Q164 554 164 658 Q164 761 239 836.5 Q314 912 418 912 Q522 912 595 837 Q668 762 668 658 Q668 554 595 481 Q522 408 418 408 Z " />
<glyph glyph-name="paragraph" unicode="&#xb6;" horiz-adv-x="938" d="M834 1331 L706 1331 L706 0 L600 0 L600 1331 L442 1331 L442 0 L334 0 L334 903 Q226 903 155 979 Q84 1055 84 1170 Q84 1287 158.5 1360.5 Q233 1434 340 1434 L834 1434 L834 1331 Z " />
<glyph glyph-name="germandbls" unicode="&#xdf;" horiz-adv-x="1114" d="M461 2 L461 162 Q536 114 631 114 Q740 114 808 187.5 Q876 261 876 385 Q876 535 776 628.5 Q676 722 498 742 L498 872 Q616 892 692 975 Q768 1058 768 1172 Q768 1280 713 1339.5 Q658 1399 561 1399 Q330 1399 330 1090 L330 0 L166 0 L166 1114 Q166 1306 276 1422 Q386 1538 572 1538 Q738 1538 837 1443 Q936 1348 936 1192 Q936 1065 861 964 Q786 863 666 824 L666 819 Q1044 744 1044 393 Q1044 216 933 96 Q822 -24 639 -24 Q538 -24 461 2 Z " />
<glyph glyph-name="sfthyphen" unicode="&#xad;" horiz-adv-x="819" d="M690 506 L144 506 L144 635 L690 635 L690 506 Z " />
<glyph glyph-name="registered" unicode="&#xae;" horiz-adv-x="1823" d="M912 -33 Q601 -33 381.5 186.5 Q162 406 162 717 Q162 1028 381.5 1247.5 Q601 1467 912 1467 Q1222 1467 1441.5 1247.5 Q1661 1028 1661 717 Q1661 406 1441.5 186.5 Q1222 -33 912 -33 Z M912 1379 Q638 1379 444 1185 Q250 991 250 717 Q250 443 444 249.5 Q638 56 912 56 Q1186 56 1379.5 249.5 Q1573 443 1573 717 Q1573 991 1379.5 1185 Q1186 1379 912 1379 Z M1276 248 L1114 248 L1010 477 Q931 649 840 649 L752 649 L752 248 L619 248 L619 1202 L887 1202 Q1054 1202 1144.5 1132 Q1235 1062 1235 942 Q1235 844 1171.5 775 Q1108 706 994 682 L994 678 Q1073 661 1151 502 L1276 248 Z M752 1088 L752 762 L895 762 Q1092 762 1092 926 Q1092 1014 1039 1051 Q986 1088 871 1088 L752 1088 Z " />
<glyph glyph-name="copyright" unicode="&#xa9;" horiz-adv-x="1823" d="M912 -33 Q601 -33 381.5 186.5 Q162 406 162 717 Q162 1028 381.5 1247.5 Q601 1467 912 1467 Q1222 1467 1441.5 1247.5 Q1661 1028 1661 717 Q1661 406 1441.5 186.5 Q1222 -33 912 -33 Z M912 1379 Q638 1379 444 1185 Q250 991 250 717 Q250 443 444 249.5 Q638 56 912 56 Q1186 56 1379.5 249.5 Q1573 443 1573 717 Q1573 991 1379.5 1185 Q1186 1379 912 1379 Z M1213 266 Q1099 197 944 197 Q735 197 594 338.5 Q453 480 453 692 Q453 939 597.5 1086 Q742 1233 973 1233 Q1105 1233 1209 1180 L1209 1030 Q1114 1102 955 1102 Q799 1102 697.5 995.5 Q596 889 596 709 Q596 535 699.5 429.5 Q803 324 963 324 Q1109 324 1213 402 L1213 266 Z " />
<glyph glyph-name="trademark" unicode="&#x2122;" horiz-adv-x="1583" d="M1396 772 L1288 772 L1288 1250 L1284 1250 L1065 772 L1006 772 L792 1250 L788 1250 L788 772 L686 772 L686 1434 L813 1434 L1038 938 L1042 938 L1270 1434 L1396 1434 L1396 772 Z M602 1336 L393 1336 L393 772 L282 772 L282 1336 L76 1336 L76 1434 L602 1434 L602 1336 Z " />
<glyph glyph-name="acute" unicode="&#xb4;" horiz-adv-x="578" d="M524 1546 L262 1218 L135 1218 L358 1546 L524 1546 Z " />
<glyph glyph-name="dieresis" unicode="&#xa8;" horiz-adv-x="848" d="M610 1218 Q570 1218 541 1246 Q512 1274 512 1317 Q512 1359 540 1387 Q568 1415 608 1415 Q650 1415 679 1386.5 Q708 1358 708 1317 Q708 1276 680 1247 Q652 1218 610 1218 Z M226 1218 Q184 1218 154.5 1247.5 Q125 1277 125 1317 Q125 1359 153.5 1387 Q182 1415 223 1415 Q264 1415 294 1386.5 Q324 1358 324 1317 Q324 1276 295 1247 Q266 1218 226 1218 Z " />
<glyph glyph-name="notequal" unicode="&#x2260;" horiz-adv-x="1403" d="M1172 318 L622 318 L459 0 L318 0 L482 318 L232 318 L232 450 L551 450 L700 744 L232 744 L232 876 L770 876 L928 1188 L1069 1188 L910 876 L1172 876 L1172 744 L842 744 L690 450 L1172 450 L1172 318 Z " />
<glyph glyph-name="AE" unicode="&#xc6;" horiz-adv-x="1762" d="M1667 0 L908 0 L908 402 L398 402 L205 0 L10 0 L710 1434 L1634 1434 L1634 1282 L1075 1282 L1075 805 L1594 805 L1594 654 L1075 654 L1075 152 L1667 152 L1667 0 Z M908 553 L908 1282 L813 1282 L467 553 L908 553 Z " />
<glyph glyph-name="Oslash" unicode="&#xd8;" horiz-adv-x="1544" d="M324 131 L172 -51 L94 14 L252 205 Q94 400 94 700 Q94 1043 280.5 1250.5 Q467 1458 790 1458 Q1024 1458 1192 1329 L1327 1491 L1405 1428 L1266 1262 Q1450 1062 1450 735 Q1450 384 1264 180 Q1078 -24 766 -24 Q500 -24 324 131 Z M1090 1204 Q964 1306 778 1306 Q551 1306 410.5 1142 Q270 978 270 715 Q270 492 368 342 L1090 1204 Z M1157 1130 L432 264 Q563 127 766 127 Q1002 127 1138 281.5 Q1274 436 1274 712 Q1274 972 1157 1130 Z " />
<glyph glyph-name="infinity" unicode="&#x221e;" horiz-adv-x="1673" d="M836 482 Q668 207 454 207 Q289 207 185.5 313.5 Q82 420 82 592 Q82 754 190 869.5 Q298 985 454 985 Q690 985 840 712 Q1004 985 1220 985 Q1386 985 1490 878.5 Q1594 772 1594 600 Q1594 439 1486 323 Q1378 207 1220 207 Q994 207 836 482 Z M901 596 Q1032 336 1220 336 Q1329 336 1394.5 408.5 Q1460 481 1460 600 Q1460 712 1392 786 Q1324 860 1220 860 Q1047 860 901 596 Z M774 598 Q642 860 454 860 Q344 860 278.5 785 Q213 710 213 592 Q213 482 280.5 409 Q348 336 454 336 Q630 336 774 598 Z " />
<glyph glyph-name="plusminus" unicode="&#xb1;" horiz-adv-x="1401" d="M1172 652 L768 652 L768 248 L637 248 L637 652 L232 652 L232 784 L637 784 L637 1188 L768 1188 L768 784 L1172 784 L1172 652 Z M1172 0 L232 0 L232 133 L1172 133 L1172 0 Z " />
<glyph glyph-name="lessequal" unicode="&#x2264;" horiz-adv-x="1403" d="M1132 254 L272 688 L272 746 L1132 1227 L1132 1077 L490 723 L490 719 L1132 406 L1132 254 Z M1172 0 L232 0 L232 133 L1172 133 L1172 0 Z " />
<glyph glyph-name="greaterequal" unicode="&#x2265;" horiz-adv-x="1403" d="M1132 690 L272 256 L272 408 L916 717 L916 723 L272 1080 L272 1229 L1132 748 L1132 690 Z M1172 0 L232 0 L232 133 L1172 133 L1172 0 Z " />
<glyph glyph-name="yen" unicode="&#xa5;" horiz-adv-x="1104" d="M1042 1434 L686 778 L971 778 L971 639 L637 639 L637 432 L971 432 L971 293 L637 293 L637 0 L473 0 L473 293 L129 293 L129 432 L473 432 L473 639 L129 639 L129 778 L420 778 L68 1434 L260 1434 L510 920 Q538 862 557 809 L561 809 Q574 851 610 926 L862 1434 L1042 1434 Z " />
<glyph glyph-name="mu1" unicode="&#xb5;" horiz-adv-x="1182" d="M1048 0 L878 0 Q855 72 855 168 L850 168 Q766 -23 571 -23 Q404 -23 333 100 L329 100 L329 -396 L166 -396 L166 1024 L329 1024 L329 398 Q329 271 398 196 Q467 121 578 121 Q699 121 774.5 207 Q850 293 850 438 L850 1024 L1016 1024 L1016 265 Q1016 77 1048 0 Z " />
<glyph glyph-name="partialdiff" unicode="&#x2202;" horiz-adv-x="1096" d="M862 872 L866 872 Q892 1348 600 1348 Q477 1348 354 1268 L393 1424 Q512 1489 641 1489 Q835 1489 931.5 1357 Q1028 1225 1028 934 Q1028 713 963 473 Q898 233 763 104.5 Q628 -24 444 -24 Q278 -24 178 82.5 Q78 189 78 370 Q78 642 225.5 841 Q373 1040 600 1040 Q778 1040 862 872 Z M850 692 Q792 901 620 901 Q460 901 353 744 Q246 587 246 377 Q246 255 302.5 184.5 Q359 114 456 114 Q607 114 715 273.5 Q823 433 850 692 Z " />
<glyph glyph-name="summation" unicode="&#x2211;" horiz-adv-x="1263" d="M1210 -469 L51 -469 L51 -391 L727 492 L88 1344 L88 1434 L1170 1434 L1170 1280 L334 1280 L928 496 L303 -316 L1210 -316 L1210 -469 Z " />
<glyph glyph-name="product" unicode="&#x220f;" horiz-adv-x="1544" d="M1362 -469 L1194 -469 L1194 1280 L356 1280 L356 -469 L188 -469 L188 1434 L1362 1434 L1362 -469 Z " />
<glyph glyph-name="integral" unicode="&#x222b;" horiz-adv-x="1105" d="M916 1372 Q868 1399 805 1399 Q635 1399 635 1182 L635 -140 Q635 -298 541.5 -392 Q448 -486 309 -486 Q234 -486 190 -467 L190 -320 Q238 -346 299 -346 Q471 -346 471 -129 L471 1190 Q471 1350 564.5 1444 Q658 1538 796 1538 Q872 1538 916 1520 L916 1372 Z " />
<glyph glyph-name="ordfeminine" unicode="&#xaa;" horiz-adv-x="803" d="M688 717 L559 717 L559 817 L555 817 Q476 698 324 698 Q215 698 148.5 757.5 Q82 817 82 910 Q82 1112 330 1145 L559 1176 Q559 1344 408 1344 Q272 1344 154 1258 L154 1386 Q265 1456 420 1456 Q546 1456 617 1384 Q688 1312 688 1182 L688 717 Z M559 1075 L379 1050 Q211 1027 211 916 Q211 865 249.5 833 Q288 801 352 801 Q434 801 496.5 862 Q559 923 559 1008 L559 1075 Z " />
<glyph glyph-name="ordmasculine" unicode="&#xba;" horiz-adv-x="882" d="M436 696 Q269 696 173.5 796.5 Q78 897 78 1069 Q78 1250 180.5 1352 Q283 1454 452 1454 Q615 1454 709 1354.5 Q803 1255 803 1084 Q803 906 703.5 801 Q604 696 436 696 Z M444 1344 Q338 1344 275.5 1272 Q213 1200 213 1073 Q213 949 272.5 879 Q332 809 442 809 Q547 809 608.5 880.5 Q670 952 670 1075 Q670 1201 609.5 1272.5 Q549 1344 444 1344 Z " />
<glyph glyph-name="Ohm" unicode="&#x2126;" horiz-adv-x="1546" d="M1449 0 L930 0 L930 147 Q1275 402 1275 780 Q1275 1025 1136 1167.5 Q997 1310 778 1310 Q556 1310 415 1168 Q274 1026 274 781 Q274 403 620 147 L620 0 L100 0 L100 148 L448 147 Q100 382 100 785 Q100 1098 285 1278 Q470 1458 772 1458 Q1081 1458 1265 1279.5 Q1449 1101 1449 786 Q1449 384 1102 147 L1449 148 L1449 0 Z " />
<glyph glyph-name="ae" unicode="&#xe6;" horiz-adv-x="1704" d="M1622 471 L897 471 Q900 300 988 207 Q1076 114 1229 114 Q1406 114 1550 228 L1550 74 Q1418 -24 1192 -24 Q922 -24 809 205 L805 205 Q660 -24 418 -24 Q265 -24 177.5 56.5 Q90 137 90 272 Q90 572 473 596 L735 612 Q735 910 520 910 Q345 910 190 788 L190 952 Q338 1048 538 1048 Q770 1048 838 848 L842 848 Q958 1048 1198 1048 Q1400 1048 1511 917.5 Q1622 787 1622 555 L1622 471 Z M1454 610 Q1452 754 1385.5 832 Q1319 910 1200 910 Q1084 910 1001 828 Q918 746 899 610 L1454 610 Z M735 410 L735 473 L532 461 Q393 453 324.5 412 Q256 371 256 276 Q256 203 309 158.5 Q362 114 452 114 Q571 114 653 198.5 Q735 283 735 410 Z " />
<glyph glyph-name="oslash" unicode="&#xf8;" horiz-adv-x="1200" d="M1174 1048 L1006 868 Q1104 730 1104 522 Q1104 270 965 123 Q826 -24 594 -24 Q402 -24 276 78 L131 -82 L49 -4 L198 160 Q96 297 96 500 Q96 758 238 903 Q380 1048 620 1048 Q804 1048 928 950 L1090 1126 L1174 1048 Z M821 836 Q742 910 606 910 Q447 910 355.5 802.5 Q264 695 264 506 Q264 374 314 282 L821 836 Z M891 742 L383 190 Q470 114 604 114 Q767 114 852.5 218 Q938 322 938 512 Q938 646 891 742 Z " />
<glyph glyph-name="questiondown" unicode="&#xbf;" horiz-adv-x="918" d="M625 630 Q634 604 641 562.5 Q648 521 648 480 Q648 416 622.5 364.5 Q597 313 559 268 Q521 223 476 181.5 Q431 140 393 97.5 Q355 55 329.5 8.5 Q304 -38 304 -94 Q304 -142 322.5 -179 Q341 -216 373 -241 Q405 -266 447 -278.5 Q489 -291 536 -291 Q705 -291 829 -158 L829 -334 Q676 -430 512 -430 Q436 -430 369 -410 Q302 -390 252 -350.5 Q202 -311 172.5 -252 Q143 -193 143 -115 Q143 -41 169 17 Q195 75 234.5 123.5 Q274 172 320 214 Q366 256 405.5 297.5 Q445 339 471 384 Q497 429 497 483 Q497 529 486 566.5 Q475 604 464 630 L625 630 Z M535 1046 Q579 1046 613 1014 Q646 983 646 936 Q646 890 613 858 Q580 825 535 825 Q490 825 457 858 Q424 890 424 936 Q424 983 457 1014 Q491 1046 535 1046 Z " />
<glyph glyph-name="nbspace" unicode="&#xa0;" horiz-adv-x="561" d="" />
<glyph glyph-name="exclamdown" unicode="&#xa1;" horiz-adv-x="582" d="M291 826 Q245 826 212.5 858 Q180 890 180 936 Q180 982 212.5 1014 Q245 1046 291 1046 Q336 1046 369 1014 Q402 982 402 936 Q402 890 369 858 Q336 826 291 826 Z M379 -406 L207 -406 L226 624 L360 624 L379 -406 Z " />
<glyph glyph-name="logicalnot" unicode="&#xac;" horiz-adv-x="1401" d="M1172 254 L1040 254 L1040 684 L232 684 L232 817 L1172 817 L1172 254 Z " />
<glyph glyph-name="radical" unicode="&#x221a;" horiz-adv-x="1331" d="M1114 1516 L725 0 L612 0 L293 750 L123 750 L123 870 L387 870 L662 209 L996 1516 L1114 1516 Z " />
<glyph glyph-name="florin" unicode="&#x192;" horiz-adv-x="1104" d="M952 1266 Q904 1294 844 1294 Q698 1294 674 1134 L643 926 L809 926 L809 788 L622 788 L532 140 Q474 -278 184 -278 Q153 -278 94 -262 L94 -119 Q130 -140 180 -140 Q330 -140 370 152 L461 788 L358 788 L358 926 L482 926 L510 1145 Q527 1276 614.5 1355 Q702 1434 836 1434 Q900 1434 952 1415 L952 1266 Z " />
<glyph glyph-name="approxequal" unicode="&#x2248;" horiz-adv-x="1403" d="M1194 960 Q1187 814 1113.5 733 Q1040 652 914 652 Q805 652 649 760 Q552 828 490 828 Q350 828 344 652 L209 652 Q214 796 288.5 878 Q363 960 490 960 Q596 960 725 872 Q857 782 922 782 Q983 782 1020 831 Q1057 880 1059 960 L1194 960 Z M1194 549 Q1187 402 1113.5 321 Q1040 240 914 240 Q805 240 649 348 Q555 414 490 414 Q350 414 344 240 L209 240 Q214 383 288.5 466 Q363 549 490 549 Q596 549 725 461 Q857 370 922 370 Q983 370 1020 420 Q1057 470 1059 549 L1194 549 Z " />
<glyph glyph-name="increment" unicode="&#x394;" horiz-adv-x="1320" d="M1272 0 L51 0 L51 76 L572 1434 L746 1434 L1272 76 L1272 0 Z M1057 152 L696 1120 Q663 1208 658 1262 L654 1262 Q648 1214 614 1120 L262 152 L1057 152 Z " />
<glyph glyph-name="guillemotleft" unicode="&#xab;" horiz-adv-x="1036" d="M946 200 L778 200 L479 536 L778 880 L948 880 L641 536 L946 200 Z M557 200 L391 200 L92 536 L391 880 L557 880 L254 536 L557 200 Z " />
<glyph glyph-name="guillemotright" unicode="&#xbb;" horiz-adv-x="1036" d="M948 538 L647 200 L482 200 L784 538 L482 880 L647 880 L948 538 Z M559 538 L260 200 L90 200 L398 538 L90 880 L260 880 L559 538 Z " />
<glyph glyph-name="ellipsis" unicode="&#x2026;" horiz-adv-x="1501" d="M1252 -18 Q1206 -18 1174.5 14 Q1143 46 1143 92 Q1143 138 1174.5 171.5 Q1206 205 1252 205 Q1297 205 1329.5 171.5 Q1362 138 1362 92 Q1362 46 1329.5 14 Q1297 -18 1252 -18 Z M750 -18 Q704 -18 671.5 14 Q639 46 639 92 Q639 138 671.5 171.5 Q704 205 750 205 Q795 205 827.5 171.5 Q860 138 860 92 Q860 46 827.5 14 Q795 -18 750 -18 Z M248 -18 Q202 -18 171 14 Q140 46 140 92 Q140 138 171 171.5 Q202 205 248 205 Q293 205 325.5 171.5 Q358 138 358 92 Q358 46 326 14 Q294 -18 248 -18 Z " />
<glyph glyph-name="Agrave" unicode="&#xc0;" horiz-adv-x="1321" d="M1298 0 L1112 0 L960 402 L352 402 L209 0 L22 0 L572 1434 L746 1434 L1298 0 Z M905 553 L680 1164 Q669 1194 658 1260 L654 1260 Q644 1199 631 1164 L408 553 L905 553 Z M758 1566 L631 1566 L369 1894 L537 1894 L758 1566 Z " />
<glyph glyph-name="Atilde" unicode="&#xc3;" horiz-adv-x="1321" d="M1298 0 L1112 0 L960 402 L352 402 L209 0 L22 0 L572 1434 L746 1434 L1298 0 Z M905 553 L680 1164 Q669 1194 658 1260 L654 1260 Q644 1199 631 1164 L408 553 L905 553 Z M977 1803 Q977 1698 929 1631.5 Q881 1565 799 1565 Q728 1565 637 1617 Q560 1660 518 1660 Q430 1660 430 1547 L336 1547 Q336 1654 384 1718.5 Q432 1783 518 1783 Q583 1783 667 1731 Q741 1687 795 1687 Q879 1687 879 1803 L977 1803 Z " />
<glyph glyph-name="Otilde" unicode="&#xd5;" horiz-adv-x="1544" d="M766 -24 Q461 -24 277.5 177 Q94 378 94 700 Q94 1046 281 1252 Q468 1458 790 1458 Q1087 1458 1268.5 1258 Q1450 1058 1450 735 Q1450 384 1264 180 Q1078 -24 766 -24 Z M778 1306 Q552 1306 411 1143 Q270 980 270 715 Q270 450 407.5 288.5 Q545 127 766 127 Q1002 127 1138 281 Q1274 435 1274 712 Q1274 996 1142 1151 Q1010 1306 778 1306 Z M1103 1802 Q1103 1697 1055 1630.5 Q1007 1564 925 1564 Q854 1564 763 1616 Q686 1659 644 1659 Q556 1659 556 1546 L462 1546 Q462 1653 510 1717.5 Q558 1782 644 1782 Q709 1782 793 1730 Q867 1686 921 1686 Q1005 1686 1005 1802 L1103 1802 Z " />
<glyph glyph-name="OE" unicode="&#x152;" horiz-adv-x="1906" d="M1810 0 L1090 0 Q1074 0 952 -14 Q854 -24 770 -24 Q458 -24 276 177 Q94 378 94 700 Q94 1046 283.5 1252 Q473 1458 798 1458 Q888 1458 976 1448 Q1088 1434 1090 1434 L1778 1434 L1778 1282 L1218 1282 L1218 805 L1736 805 L1736 654 L1218 654 L1218 152 L1810 152 L1810 0 Z M1050 160 L1050 1278 Q890 1306 782 1306 Q553 1306 411.5 1140 Q270 974 270 715 Q270 457 409.5 292 Q549 127 776 127 Q892 127 1050 160 Z " />
<glyph glyph-name="oe" unicode="&#x153;" horiz-adv-x="1900" d="M1825 471 L1100 471 Q1103 300 1191.5 207 Q1280 114 1434 114 Q1609 114 1753 228 L1753 74 Q1617 -24 1396 -24 Q1126 -24 1014 213 L1010 213 Q879 -24 594 -24 Q365 -24 230.5 119 Q96 262 96 498 Q96 756 238 902 Q380 1048 620 1048 Q914 1048 1022 813 L1026 813 Q1145 1048 1411 1048 Q1607 1048 1716 916.5 Q1825 785 1825 559 L1825 471 Z M1657 610 Q1655 752 1588 831 Q1521 910 1405 910 Q1285 910 1201.5 824.5 Q1118 739 1102 610 L1657 610 Z M606 910 Q448 910 356 801.5 Q264 693 264 502 Q264 322 356 218 Q448 114 604 114 Q763 114 849.5 216.5 Q936 319 936 508 Q936 702 849.5 806 Q763 910 606 910 Z " />
<glyph glyph-name="endash" unicode="&#x2013;" horiz-adv-x="1024" d="M1024 506 L0 506 L0 635 L1024 635 L1024 506 Z " />
<glyph glyph-name="emdash" unicode="&#x2014;" horiz-adv-x="2048" d="M2048 506 L0 506 L0 635 L2048 635 L2048 506 Z " />
<glyph glyph-name="quotedblleft" unicode="&#x201c;" horiz-adv-x="772" d="M668 1458 L557 1012 L410 1012 L551 1458 L668 1458 Z M364 1458 L256 1012 L106 1012 L246 1458 L364 1458 Z " />
<glyph glyph-name="quotedblright" unicode="&#x201d;" horiz-adv-x="772" d="M672 1458 L532 1012 L414 1012 L522 1458 L672 1458 Z M368 1458 L228 1012 L110 1012 L221 1458 L368 1458 Z " />
<glyph glyph-name="quoteleft" unicode="&#x2018;" horiz-adv-x="469" d="M364 1458 L256 1012 L106 1012 L246 1458 L364 1458 Z " />
<glyph glyph-name="quoteright" unicode="&#x2019;" horiz-adv-x="469" d="M368 1458 L228 1012 L110 1012 L221 1458 L368 1458 Z " />
<glyph glyph-name="divide" unicode="&#xf7;" horiz-adv-x="1401" d="M708 868 Q664 868 634 898.5 Q604 929 604 973 Q604 1018 633 1050 Q662 1082 708 1082 Q811 1082 811 975 Q811 928 780.5 898 Q750 868 708 868 Z M1172 530 L232 530 L232 664 L1172 664 L1172 530 Z M704 112 Q660 112 629 142 Q598 172 598 215 Q598 260 628 293 Q658 326 704 326 Q805 326 805 217 Q805 172 776 142 Q747 112 704 112 Z " />
<glyph glyph-name="lozenge" unicode="&#x25ca;" horiz-adv-x="1195" d="M1088 717 L635 0 L559 0 L108 715 L559 1434 L635 1434 L1088 717 Z M954 717 L598 1292 L242 717 L598 140 L954 717 Z " />
<glyph glyph-name="ydieresis" unicode="&#xff;" horiz-adv-x="991" d="M981 1024 L510 -164 Q384 -482 156 -482 Q92 -482 49 -469 L49 -322 Q102 -340 146 -340 Q270 -340 332 -192 L414 2 L14 1024 L196 1024 L473 236 Q478 221 494 158 L500 158 Q505 182 520 234 L811 1024 L981 1024 Z M689 1218 Q649 1218 620 1246 Q591 1274 591 1317 Q591 1359 619 1387 Q647 1415 687 1415 Q729 1415 758 1386.5 Q787 1358 787 1317 Q787 1276 759 1247 Q731 1218 689 1218 Z M305 1218 Q263 1218 233.5 1247.5 Q204 1277 204 1317 Q204 1359 232.5 1387 Q261 1415 302 1415 Q343 1415 373 1386.5 Q403 1358 403 1317 Q403 1276 374 1247 Q345 1218 305 1218 Z " />
<glyph glyph-name="Ydieresis" unicode="&#x178;" horiz-adv-x="1132" d="M1120 1434 L647 530 L647 0 L479 0 L479 526 L18 1434 L209 1434 L530 786 Q536 774 565 698 L568 698 Q578 732 606 786 L942 1434 L1120 1434 Z M759 1565 Q719 1565 690 1593 Q661 1621 661 1664 Q661 1706 689 1734 Q717 1762 757 1762 Q799 1762 828 1733.5 Q857 1705 857 1664 Q857 1623 829 1594 Q801 1565 759 1565 Z M375 1565 Q333 1565 303.5 1594.5 Q274 1624 274 1664 Q274 1706 302.5 1734 Q331 1762 372 1762 Q413 1762 443 1733.5 Q473 1705 473 1664 Q473 1623 444 1594 Q415 1565 375 1565 Z " />
<glyph glyph-name="&amp;#x2044;" unicode="&#x2044;" horiz-adv-x="354" d="M690 1434 L-168 0 L-312 0 L547 1434 L690 1434 Z " />
<glyph glyph-name="&amp;#x2215;" unicode="&#x2215;" horiz-adv-x="354" d="M690 1434 L-168 0 L-312 0 L547 1434 L690 1434 Z " />
<glyph glyph-name="Euro" unicode="&#x20ac;" horiz-adv-x="1104" d="M1014 50 Q881 -24 732 -24 Q305 -24 223 482 L102 482 L102 622 L210 622 Q206 653 206 699 Q206 747 212 807 L102 807 L102 947 L233 947 Q284 1187 425.5 1322.5 Q567 1458 769 1458 Q906 1458 1014 1402 L1014 1240 Q900 1318 758 1318 Q633 1318 535.5 1217.5 Q438 1117 399 947 L896 947 L896 807 L377 807 Q369 708 376 622 L896 622 L896 482 L392 482 Q464 116 742 116 Q873 116 1014 203 L1014 50 Z " />
<glyph glyph-name="guilsinglleft" unicode="&#x2039;" horiz-adv-x="647" d="M557 200 L391 200 L92 536 L391 880 L559 880 L254 536 L557 200 Z " />
<glyph glyph-name="guilsinglright" unicode="&#x203a;" horiz-adv-x="647" d="M559 538 L258 200 L92 200 L396 538 L92 880 L258 880 L559 538 Z " />
<glyph glyph-name="fi" unicode="&#xfb01;" horiz-adv-x="1136" d="M672 1372 Q624 1399 563 1399 Q391 1399 391 1182 L391 1024 L631 1024 L631 884 L391 884 L391 0 L228 0 L228 884 L53 884 L53 1024 L228 1024 L228 1190 Q228 1351 321 1444.5 Q414 1538 553 1538 Q628 1538 672 1520 L672 1372 Z M893 1284 Q848 1284 817 1314 Q786 1344 786 1390 Q786 1435 817 1466 Q848 1497 893 1497 Q938 1497 970 1466.5 Q1002 1436 1002 1390 Q1002 1346 970 1315 Q938 1284 893 1284 Z M973 0 L809 0 L809 1024 L973 1024 L973 0 Z " />
<glyph glyph-name="fl" unicode="&#xfb02;" horiz-adv-x="1136" d="M672 1372 Q624 1399 563 1399 Q391 1399 391 1182 L391 1024 L631 1024 L631 884 L391 884 L391 0 L228 0 L228 884 L53 884 L53 1024 L228 1024 L228 1190 Q228 1351 321 1444.5 Q414 1538 553 1538 Q628 1538 672 1520 L672 1372 Z M975 0 L813 0 L813 1516 L975 1516 L975 0 Z " />
<glyph glyph-name="daggerdbl" unicode="&#x2021;" horiz-adv-x="768" d="M728 519 L426 539 L466 229 L310 229 L350 539 L48 519 L48 669 L310 639 L368 831 L310 1023 L48 993 L48 1143 L350 1123 L310 1433 L466 1433 L426 1123 L728 1143 L728 993 L466 1023 L408 831 L466 639 L728 669 L728 519 Z " />
<glyph glyph-name="middot" unicode="&#xb7;" horiz-adv-x="444" d="M223 510 Q177 510 144.5 543 Q112 576 112 622 Q112 669 144.5 702 Q177 735 223 735 Q270 735 303 702 Q336 669 336 622 Q336 576 303 543 Q270 510 223 510 Z " />
<glyph glyph-name="quotesinglbase" unicode="&#x201a;" horiz-adv-x="469" d="M346 217 L205 -228 L88 -228 L198 217 L346 217 Z " />
<glyph glyph-name="quotedblbase" unicode="&#x201e;" horiz-adv-x="772" d="M649 217 L510 -228 L391 -228 L500 217 L649 217 Z M346 217 L205 -228 L88 -228 L198 217 L346 217 Z " />
<glyph glyph-name="perthousand" unicode="&#x2030;" horiz-adv-x="2478" d="M404 715 Q256 715 168 812.5 Q80 910 80 1073 Q80 1251 173 1353.5 Q266 1456 424 1456 Q577 1456 661.5 1361 Q746 1266 746 1094 Q746 922 651.5 818.5 Q557 715 404 715 Z M418 1346 Q323 1346 268 1275.5 Q213 1205 213 1082 Q213 961 267 893.5 Q321 826 414 826 Q508 826 561 896 Q614 966 614 1090 Q614 1211 561.5 1278.5 Q509 1346 418 1346 Z M1366 1434 L444 -10 L301 -10 L1222 1434 L1366 1434 Z M2056 -22 Q1908 -22 1820 76 Q1732 174 1732 336 Q1732 513 1826.5 617 Q1921 721 2076 721 Q2229 721 2313.5 625.5 Q2398 530 2398 356 Q2398 185 2304 81.5 Q2210 -22 2056 -22 Z M2070 608 Q1974 608 1920 537.5 Q1866 467 1866 344 Q1866 224 1919.5 157 Q1973 90 2066 90 Q2161 90 2214 160.5 Q2267 231 2267 354 Q2267 475 2214 541.5 Q2161 608 2070 608 Z M1258 -22 Q1110 -22 1022 76 Q934 174 934 336 Q934 514 1028 617.5 Q1122 721 1278 721 Q1430 721 1515 625 Q1600 529 1600 356 Q1600 185 1505.5 81.5 Q1411 -22 1258 -22 Z M1272 608 Q1176 608 1121.5 538 Q1067 468 1067 344 Q1067 225 1121 157.5 Q1175 90 1268 90 Q1362 90 1415 160.5 Q1468 231 1468 354 Q1468 476 1415.5 542 Q1363 608 1272 608 Z " />
<glyph glyph-name="Acircumflex" unicode="&#xc2;" horiz-adv-x="1321" d="M1298 0 L1112 0 L960 402 L352 402 L209 0 L22 0 L572 1434 L746 1434 L1298 0 Z M905 553 L680 1164 Q669 1194 658 1260 L654 1260 Q644 1199 631 1164 L408 553 L905 553 Z M927 1565 L805 1565 L641 1795 L476 1565 L363 1565 L578 1897 L711 1897 L927 1565 Z " />
<glyph glyph-name="Ecircumflex" unicode="&#xca;" horiz-adv-x="1036" d="M948 0 L188 0 L188 1434 L916 1434 L916 1282 L356 1282 L356 805 L874 805 L874 654 L356 654 L356 152 L948 152 L948 0 Z M827 1567 L705 1567 L541 1797 L376 1567 L263 1567 L478 1899 L611 1899 L827 1567 Z " />
<glyph glyph-name="Aacute" unicode="&#xc1;" horiz-adv-x="1321" d="M1298 0 L1112 0 L960 402 L352 402 L209 0 L22 0 L572 1434 L746 1434 L1298 0 Z M905 553 L680 1164 Q669 1194 658 1260 L654 1260 Q644 1199 631 1164 L408 553 L905 553 Z M867 1894 L605 1566 L478 1566 L701 1894 L867 1894 Z " />
<glyph glyph-name="Edieresis" unicode="&#xcb;" horiz-adv-x="1036" d="M948 0 L188 0 L188 1434 L916 1434 L916 1282 L356 1282 L356 805 L874 805 L874 654 L356 654 L356 152 L948 152 L948 0 Z M749 1566 Q709 1566 680 1594 Q651 1622 651 1665 Q651 1707 679 1735 Q707 1763 747 1763 Q789 1763 818 1734.5 Q847 1706 847 1665 Q847 1624 819 1595 Q791 1566 749 1566 Z M365 1566 Q323 1566 293.5 1595.5 Q264 1625 264 1665 Q264 1707 292.5 1735 Q321 1763 362 1763 Q403 1763 433 1734.5 Q463 1706 463 1665 Q463 1624 434 1595 Q405 1566 365 1566 Z " />
<glyph glyph-name="Egrave" unicode="&#xc8;" horiz-adv-x="1036" d="M948 0 L188 0 L188 1434 L916 1434 L916 1282 L356 1282 L356 805 L874 805 L874 654 L356 654 L356 152 L948 152 L948 0 Z M703 1566 L576 1566 L314 1894 L482 1894 L703 1566 Z " />
<glyph glyph-name="Iacute" unicode="&#xcd;" horiz-adv-x="545" d="M496 1434 L496 1290 L356 1290 L356 144 L496 144 L496 0 L48 0 L48 144 L188 144 L188 1290 L48 1290 L48 1434 L496 1434 Z M509 1894 L247 1566 L120 1566 L343 1894 L509 1894 Z " />
<glyph glyph-name="Icircumflex" unicode="&#xce;" horiz-adv-x="545" d="M496 1434 L496 1290 L356 1290 L356 144 L496 144 L496 0 L48 0 L48 144 L188 144 L188 1290 L48 1290 L48 1434 L496 1434 Z M560 1567 L438 1567 L274 1797 L109 1567 L-4 1567 L211 1899 L344 1899 L560 1567 Z " />
<glyph glyph-name="Idieresis" unicode="&#xcf;" horiz-adv-x="545" d="M496 1434 L496 1290 L356 1290 L356 144 L496 144 L496 0 L48 0 L48 144 L188 144 L188 1290 L48 1290 L48 1434 L496 1434 Z M470 1566 Q430 1566 401 1594 Q372 1622 372 1665 Q372 1707 400 1735 Q428 1763 468 1763 Q510 1763 539 1734.5 Q568 1706 568 1665 Q568 1624 540 1595 Q512 1566 470 1566 Z M86 1566 Q44 1566 14.5 1595.5 Q-15 1625 -15 1665 Q-15 1707 13.5 1735 Q42 1763 83 1763 Q124 1763 154 1734.5 Q184 1706 184 1665 Q184 1624 155 1595 Q126 1566 86 1566 Z " />
<glyph glyph-name="Igrave" unicode="&#xcc;" horiz-adv-x="545" d="M496 1434 L496 1290 L356 1290 L356 144 L496 144 L496 0 L48 0 L48 144 L188 144 L188 1290 L48 1290 L48 1434 L496 1434 Z M416 1566 L289 1566 L27 1894 L195 1894 L416 1566 Z " />
<glyph glyph-name="Oacute" unicode="&#xd3;" horiz-adv-x="1544" d="M766 -24 Q461 -24 277.5 177 Q94 378 94 700 Q94 1046 281 1252 Q468 1458 790 1458 Q1087 1458 1268.5 1258 Q1450 1058 1450 735 Q1450 384 1264 180 Q1078 -24 766 -24 Z M778 1306 Q552 1306 411 1143 Q270 980 270 715 Q270 450 407.5 288.5 Q545 127 766 127 Q1002 127 1138 281 Q1274 435 1274 712 Q1274 996 1142 1151 Q1010 1306 778 1306 Z M1028 1894 L766 1566 L639 1566 L862 1894 L1028 1894 Z " />
<glyph glyph-name="Ocircumflex" unicode="&#xd4;" horiz-adv-x="1544" d="M766 -24 Q461 -24 277.5 177 Q94 378 94 700 Q94 1046 281 1252 Q468 1458 790 1458 Q1087 1458 1268.5 1258 Q1450 1058 1450 735 Q1450 384 1264 180 Q1078 -24 766 -24 Z M778 1306 Q552 1306 411 1143 Q270 980 270 715 Q270 450 407.5 288.5 Q545 127 766 127 Q1002 127 1138 281 Q1274 435 1274 712 Q1274 996 1142 1151 Q1010 1306 778 1306 Z M1063 1566 L941 1566 L777 1796 L612 1566 L499 1566 L714 1898 L847 1898 L1063 1566 Z " />
<glyph glyph-name="Ograve" unicode="&#xd2;" horiz-adv-x="1544" d="M766 -24 Q461 -24 277.5 177 Q94 378 94 700 Q94 1046 281 1252 Q468 1458 790 1458 Q1087 1458 1268.5 1258 Q1450 1058 1450 735 Q1450 384 1264 180 Q1078 -24 766 -24 Z M778 1306 Q552 1306 411 1143 Q270 980 270 715 Q270 450 407.5 288.5 Q545 127 766 127 Q1002 127 1138 281 Q1274 435 1274 712 Q1274 996 1142 1151 Q1010 1306 778 1306 Z M880 1566 L753 1566 L491 1894 L659 1894 L880 1566 Z " />
<glyph glyph-name="Uacute" unicode="&#xda;" horiz-adv-x="1407" d="M1237 580 Q1237 -24 692 -24 Q170 -24 170 557 L170 1434 L338 1434 L338 568 Q338 127 710 127 Q1069 127 1069 553 L1069 1434 L1237 1434 L1237 580 Z M960 1893 L698 1565 L571 1565 L794 1893 L960 1893 Z " />
<glyph glyph-name="Ucircumflex" unicode="&#xdb;" horiz-adv-x="1407" d="M1237 580 Q1237 -24 692 -24 Q170 -24 170 557 L170 1434 L338 1434 L338 568 Q338 127 710 127 Q1069 127 1069 553 L1069 1434 L1237 1434 L1237 580 Z M987 1567 L865 1567 L701 1797 L536 1567 L423 1567 L638 1899 L771 1899 L987 1567 Z " />
<glyph glyph-name="Ugrave" unicode="&#xd9;" horiz-adv-x="1407" d="M1237 580 Q1237 -24 692 -24 Q170 -24 170 557 L170 1434 L338 1434 L338 568 Q338 127 710 127 Q1069 127 1069 553 L1069 1434 L1237 1434 L1237 580 Z M830 1566 L703 1566 L441 1894 L609 1894 L830 1566 Z " />
<glyph glyph-name="dotlessi" unicode="&#x131;" horiz-adv-x="496" d="M330 0 L166 0 L166 1024 L330 1024 L330 0 Z " />
<glyph glyph-name="circumflex" unicode="&#x2c6;" horiz-adv-x="760" d="M656 1218 L534 1218 L370 1448 L205 1218 L92 1218 L307 1550 L440 1550 L656 1218 Z " />
<glyph glyph-name="tilde" unicode="&#x2dc;" horiz-adv-x="690" d="M676 1458 Q676 1353 628 1286.5 Q580 1220 498 1220 Q427 1220 336 1272 Q259 1315 217 1315 Q129 1315 129 1202 L35 1202 Q35 1309 83 1373.5 Q131 1438 217 1438 Q282 1438 366 1386 Q440 1342 494 1342 Q578 1342 578 1458 L676 1458 Z " />
<glyph glyph-name="overscore" unicode="&#x2c9;" horiz-adv-x="635" d="M570 1218 L62 1218 L62 1327 L570 1327 L570 1218 Z " />
<glyph glyph-name="breve" unicode="&#x2d8;" horiz-adv-x="622" d="M586 1470 Q576 1357 497.5 1287.5 Q419 1218 307 1218 Q190 1218 116 1287 Q42 1356 37 1470 L137 1470 Q149 1315 309 1315 Q377 1315 425.5 1357 Q474 1399 484 1470 L586 1470 Z " />
<glyph glyph-name="dotaccent" unicode="&#x2d9;" horiz-adv-x="412" d="M207 1218 Q167 1218 137.5 1246.5 Q108 1275 108 1317 Q108 1357 137 1385 Q166 1413 207 1413 Q248 1413 276.5 1385.5 Q305 1358 305 1317 Q305 1276 276.5 1247 Q248 1218 207 1218 Z " />
<glyph glyph-name="ring" unicode="&#x2da;" horiz-adv-x="574" d="M284 1176 Q197 1176 139.5 1228.5 Q82 1281 82 1366 Q82 1456 141 1510 Q200 1564 291 1564 Q380 1564 437 1510 Q494 1456 494 1372 Q494 1288 433 1232 Q372 1176 284 1176 Z M284 1483 Q236 1483 204 1450.5 Q172 1418 172 1370 Q172 1258 284 1258 Q334 1258 367 1290 Q400 1322 400 1370 Q400 1419 367 1451 Q334 1483 284 1483 Z " />
<glyph glyph-name="cedilla" unicode="&#xb8;" horiz-adv-x="420" d="M391 -256 Q391 -432 116 -432 Q78 -432 51 -430 L51 -340 Q94 -346 121 -346 Q262 -346 262 -256 Q262 -178 133 -178 Q123 -178 92 -182 L92 0 L200 0 L200 -104 Q288 -104 339.5 -144 Q391 -184 391 -256 Z " />
<glyph glyph-name="hungarumlaut" unicode="&#x2dd;" horiz-adv-x="664" d="M647 1536 L402 1218 L305 1218 L514 1536 L647 1536 Z M400 1536 L160 1218 L64 1218 L270 1536 L400 1536 Z " />
<glyph glyph-name="ogonek" unicode="&#x2db;" horiz-adv-x="379" d="M338 0 Q188 -141 188 -223 Q188 -293 256 -293 Q286 -293 312 -280 L312 -387 Q282 -400 230 -400 Q154 -400 108 -360 Q62 -320 62 -250 Q62 -128 219 0 L338 0 Z " />
<glyph glyph-name="caron" unicode="&#x2c7;" horiz-adv-x="760" d="M664 1548 L450 1218 L318 1218 L102 1548 L217 1548 L381 1319 L545 1548 L664 1548 Z " />
<glyph glyph-name="Lslash" unicode="&#x141;" horiz-adv-x="964" d="M932 0 L188 0 L188 547 L33 450 L33 602 L188 698 L188 1434 L356 1434 L356 803 L684 1006 L684 852 L356 652 L356 152 L932 152 L932 0 Z " />
<glyph glyph-name="lslash" unicode="&#x142;" horiz-adv-x="561" d="M530 811 L356 688 L356 0 L192 0 L192 578 L22 459 L22 616 L192 735 L192 1516 L356 1516 L356 846 L530 968 L530 811 Z " />
<glyph glyph-name="Scaron" unicode="&#x160;" horiz-adv-x="1088" d="M121 58 L121 256 Q155 226 202.5 202 Q250 178 302.5 161.5 Q355 145 408 136 Q461 127 506 127 Q661 127 737.5 184.5 Q814 242 814 350 Q814 408 788.5 451 Q763 494 718 529.5 Q673 565 611.5 597.5 Q550 630 479 666 Q404 704 339 743 Q274 782 226 829 Q178 876 150.5 935.5 Q123 995 123 1075 Q123 1173 166 1245.5 Q209 1318 279 1365 Q349 1412 438.5 1435 Q528 1458 621 1458 Q833 1458 930 1407 L930 1218 Q803 1306 604 1306 Q549 1306 494 1294.5 Q439 1283 396 1257 Q353 1231 326 1190 Q299 1149 299 1090 Q299 1035 319.5 995 Q340 955 380 922 Q420 889 477.5 858 Q535 827 610 790 Q687 752 756 710 Q825 668 877 617 Q929 566 959.5 504 Q990 442 990 362 Q990 256 948.5 182.5 Q907 109 836.5 63 Q766 17 674 -3.5 Q582 -24 480 -24 Q446 -24 396 -18.5 Q346 -13 294 -2.5 Q242 8 195.5 23.5 Q149 39 121 58 Z M826 1898 L612 1568 L480 1568 L264 1898 L379 1898 L543 1669 L707 1898 L826 1898 Z " />
<glyph glyph-name="scaron" unicode="&#x161;" horiz-adv-x="869" d="M104 37 L104 213 Q238 114 399 114 Q615 114 615 258 Q615 299 596.5 327.5 Q578 356 546.5 378 Q515 400 472.5 417.5 Q430 435 381 454 Q313 481 261.5 508.5 Q210 536 175.5 570.5 Q141 605 123.5 649 Q106 693 106 752 Q106 824 139 879.5 Q172 935 227 972.5 Q282 1010 352.5 1029 Q423 1048 498 1048 Q631 1048 736 1002 L736 836 Q623 910 476 910 Q430 910 393 899.5 Q356 889 329.5 870 Q303 851 288.5 824.5 Q274 798 274 766 Q274 726 288.5 699 Q303 672 331 651 Q359 630 399 613 Q439 596 490 576 Q558 550 612 522.5 Q666 495 704 460.5 Q742 426 762.5 381 Q783 336 783 274 Q783 198 749.5 142 Q716 86 660 49 Q604 12 531 -6 Q458 -24 378 -24 Q220 -24 104 37 Z M682 1548 L468 1218 L336 1218 L120 1548 L235 1548 L399 1319 L563 1548 L682 1548 Z " />
<glyph glyph-name="Zcaron" unicode="&#x17d;" horiz-adv-x="1168" d="M1124 1394 L284 152 L1104 152 L1104 0 L33 0 L33 47 L866 1282 L100 1282 L100 1434 L1124 1434 L1124 1394 Z M900 1895 L686 1565 L554 1565 L338 1895 L453 1895 L617 1666 L781 1895 L900 1895 Z " />
<glyph glyph-name="zcaron" unicode="&#x17e;" horiz-adv-x="926" d="M880 977 L274 140 L874 140 L874 0 L33 0 L33 51 L639 884 L90 884 L90 1024 L880 1024 L880 977 Z M782 1548 L568 1218 L436 1218 L220 1548 L335 1548 L499 1319 L663 1548 L782 1548 Z " />
<glyph glyph-name="brokenbar" unicode="&#xa6;" horiz-adv-x="490" d="M320 715 L172 715 L172 1566 L320 1566 L320 715 Z M320 -482 L172 -482 L172 370 L320 370 L320 -482 Z " />
<glyph glyph-name="Eth" unicode="&#xd0;" horiz-adv-x="1436" d="M188 0 L188 641 L28 641 L28 796 L188 796 L188 1434 L584 1434 Q1342 1434 1342 735 Q1342 401 1131.5 200.5 Q921 0 568 0 L188 0 Z M356 1282 L356 796 L692 796 L692 641 L356 641 L356 152 L570 152 Q852 152 1009 303 Q1166 454 1166 731 Q1166 1282 580 1282 L356 1282 Z " />
<glyph glyph-name="eth" unicode="&#xf0;" horiz-adv-x="1145" d="M786 968 L790 971 Q700 1133 592 1237 L293 1086 L242 1184 L512 1315 Q394 1420 248 1516 L469 1516 Q544 1464 641 1380 L930 1524 L985 1430 L721 1300 Q1048 993 1048 526 Q1048 286 919 132 Q790 -22 568 -22 Q346 -22 221 118 Q96 258 96 500 Q96 743 226 894.5 Q356 1046 576 1046 Q699 1046 786 968 Z M582 910 Q434 910 349 801.5 Q264 693 264 506 Q264 325 347 219.5 Q430 114 578 114 Q717 114 798.5 222 Q880 330 880 510 Q880 910 582 910 Z " />
<glyph glyph-name="Yacute" unicode="&#xdd;" horiz-adv-x="1132" d="M1120 1434 L647 530 L647 0 L479 0 L479 526 L18 1434 L209 1434 L530 786 Q536 774 565 698 L568 698 Q578 732 606 786 L942 1434 L1120 1434 Z M831 1894 L569 1566 L442 1566 L665 1894 L831 1894 Z " />
<glyph glyph-name="yacute" unicode="&#xfd;" horiz-adv-x="991" d="M981 1024 L510 -164 Q384 -482 156 -482 Q92 -482 49 -469 L49 -322 Q102 -340 146 -340 Q270 -340 332 -192 L414 2 L14 1024 L196 1024 L473 236 Q478 221 494 158 L500 158 Q505 182 520 234 L811 1024 L981 1024 Z M762 1546 L500 1218 L373 1218 L596 1546 L762 1546 Z " />
<glyph glyph-name="Thorn" unicode="&#xde;" horiz-adv-x="1147" d="M356 318 L356 0 L188 0 L188 1434 L356 1434 L356 1208 L582 1208 Q814 1208 939.5 1096.5 Q1065 985 1065 780 Q1065 576 923.5 447 Q782 318 542 318 L356 318 Z M356 1057 L356 469 L532 469 Q705 469 797 547 Q889 625 889 770 Q889 1057 553 1057 L356 1057 Z " />
<glyph glyph-name="thorn" unicode="&#xfe;" horiz-adv-x="1204" d="M334 148 L330 148 L330 -471 L166 -471 L166 1516 L330 1516 L330 844 L334 844 Q455 1048 688 1048 Q886 1048 997 910.5 Q1108 773 1108 542 Q1108 285 983 130.5 Q858 -24 641 -24 Q442 -24 334 148 Z M330 561 L330 418 Q330 291 412.5 202.5 Q495 114 622 114 Q771 114 855.5 228 Q940 342 940 545 Q940 716 861 813 Q782 910 647 910 Q504 910 417 810.5 Q330 711 330 561 Z " />
<glyph glyph-name="minus" unicode="&#x2212;" horiz-adv-x="1401" d="M1172 530 L232 530 L232 664 L1172 664 L1172 530 Z " />
<glyph glyph-name="multiply" unicode="&#xd7;" horiz-adv-x="1401" d="M1134 258 L1040 164 L700 504 L362 164 L268 258 L608 596 L268 936 L362 1030 L700 690 L1040 1030 L1134 936 L794 596 L1134 258 Z " />
<glyph glyph-name="onehalf" unicode="&#xbd;" horiz-adv-x="1906" d="M639 584 L135 584 L135 696 L320 696 L320 1290 L127 1235 L127 1360 L450 1456 L450 696 L639 696 L639 584 Z M1393 1434 L535 0 L391 0 L1250 1434 L1393 1434 Z M1748 1 L1194 1 L1194 115 L1434 351 Q1538 453 1566 507.5 Q1594 562 1594 617 Q1594 675 1556 711.5 Q1518 748 1456 748 Q1338 748 1240 646 L1240 795 Q1324 871 1475 871 Q1593 871 1662 805 Q1731 739 1731 631 Q1731 478 1526 283 L1362 127 L1362 123 L1748 123 L1748 1 Z " />
<glyph glyph-name="onequarter" unicode="&#xbc;" horiz-adv-x="1856" d="M639 584 L135 584 L135 696 L320 696 L320 1290 L127 1235 L127 1360 L450 1456 L450 696 L639 696 L639 584 Z M1393 1434 L535 0 L391 0 L1250 1434 L1393 1434 Z M1706 204 L1596 204 L1596 0 L1464 0 L1464 204 L1071 204 L1071 296 L1440 850 L1596 850 L1596 313 L1706 313 L1706 204 Z M1468 724 L1464 724 Q1452 693 1426 651 L1208 313 L1464 313 L1464 636 Q1464 668 1468 724 Z " />
<glyph glyph-name="threequarters" unicode="&#xbe;" horiz-adv-x="1950" d="M129 616 L129 758 Q232 682 346 682 Q426 682 472 719.5 Q518 757 518 821 Q518 962 299 962 L215 962 L215 1080 L295 1080 Q492 1080 492 1214 Q492 1333 348 1333 Q254 1333 162 1264 L162 1403 Q249 1454 375 1454 Q488 1454 555 1394.5 Q622 1335 622 1239 Q622 1088 477 1034 L477 1030 Q654 988 654 828 Q654 711 569 637 Q484 563 342 563 Q205 563 129 616 Z M1464 1434 L606 0 L462 0 L1321 1434 L1464 1434 Z M1771 204 L1661 204 L1661 0 L1529 0 L1529 204 L1136 204 L1136 296 L1505 850 L1661 850 L1661 313 L1771 313 L1771 204 Z M1533 724 L1529 724 Q1517 693 1491 651 L1273 313 L1529 313 L1529 636 Q1529 668 1533 724 Z " />
<glyph glyph-name="franc" unicode="&#x20a3;" horiz-adv-x="1000" d="M600 278 L356 278 L356 0 L188 0 L188 278 L28 278 L28 434 L188 434 L188 1434 L916 1434 L916 1282 L356 1282 L356 786 L874 786 L874 635 L356 635 L356 434 L600 434 L600 278 Z " />
<glyph glyph-name="Gbreve" unicode="&#x11e;" horiz-adv-x="1405" d="M1260 98 Q1044 -24 780 -24 Q473 -24 283.5 174 Q94 372 94 698 Q94 1031 304.5 1244.5 Q515 1458 838 1458 Q1072 1458 1231 1382 L1231 1196 Q1057 1306 819 1306 Q578 1306 424 1140 Q270 974 270 710 Q270 438 413 282.5 Q556 127 801 127 Q969 127 1092 194 L1092 596 L778 596 L778 748 L1260 748 L1260 98 Z M1068 1817 Q1058 1704 979.5 1634.5 Q901 1565 789 1565 Q672 1565 598 1634 Q524 1703 519 1817 L619 1817 Q631 1662 791 1662 Q859 1662 907.5 1704 Q956 1746 966 1817 L1068 1817 Z " />
<glyph glyph-name="gbreve" unicode="&#x11f;" horiz-adv-x="1206" d="M1040 82 Q1040 -482 500 -482 Q310 -482 168 -410 L168 -246 Q341 -342 498 -342 Q876 -342 876 60 L876 172 L872 172 Q755 -24 520 -24 Q329 -24 212.5 112.5 Q96 249 96 479 Q96 740 221.5 894 Q347 1048 565 1048 Q772 1048 872 882 L876 882 L876 1024 L1040 1024 L1040 82 Z M876 463 L876 614 Q876 736 793.5 823 Q711 910 588 910 Q436 910 350 799.5 Q264 689 264 490 Q264 319 346.5 216.5 Q429 114 565 114 Q703 114 789.5 212 Q876 310 876 463 Z M868 1470 Q858 1357 779.5 1287.5 Q701 1218 589 1218 Q472 1218 398 1287 Q324 1356 319 1470 L419 1470 Q431 1315 591 1315 Q659 1315 707.5 1357 Q756 1399 766 1470 L868 1470 Z " />
<glyph glyph-name="Idot" unicode="&#x130;" horiz-adv-x="545" d="M496 1434 L496 1290 L356 1290 L356 144 L496 144 L496 0 L48 0 L48 144 L188 144 L188 1290 L48 1290 L48 1434 L496 1434 Z M272 1567 Q232 1567 202.5 1595.5 Q173 1624 173 1666 Q173 1706 202 1734 Q231 1762 272 1762 Q313 1762 341.5 1734.5 Q370 1707 370 1666 Q370 1625 341.5 1596 Q313 1567 272 1567 Z " />
<glyph glyph-name="Scedilla" unicode="&#x15e;" horiz-adv-x="1088" d="M121 58 L121 256 Q155 226 202.5 202 Q250 178 302.5 161.5 Q355 145 408 136 Q461 127 506 127 Q661 127 737.5 184.5 Q814 242 814 350 Q814 408 788.5 451 Q763 494 718 529.5 Q673 565 611.5 597.5 Q550 630 479 666 Q404 704 339 743 Q274 782 226 829 Q178 876 150.5 935.5 Q123 995 123 1075 Q123 1173 166 1245.5 Q209 1318 279 1365 Q349 1412 438.5 1435 Q528 1458 621 1458 Q833 1458 930 1407 L930 1218 Q803 1306 604 1306 Q549 1306 494 1294.5 Q439 1283 396 1257 Q353 1231 326 1190 Q299 1149 299 1090 Q299 1035 319.5 995 Q340 955 380 922 Q420 889 477.5 858 Q535 827 610 790 Q687 752 756 710 Q825 668 877 617 Q929 566 959.5 504 Q990 442 990 362 Q990 256 948.5 182.5 Q907 109 836.5 63 Q766 17 674 -3.5 Q582 -24 480 -24 Q446 -24 396 -18.5 Q346 -13 294 -2.5 Q242 8 195.5 23.5 Q149 39 121 58 Z M765 -256 Q765 -432 490 -432 Q452 -432 425 -430 L425 -340 Q468 -346 495 -346 Q636 -346 636 -256 Q636 -178 507 -178 Q497 -178 466 -182 L466 0 L574 0 L574 -104 Q662 -104 713.5 -144 Q765 -184 765 -256 Z " />
<glyph glyph-name="scedilla" unicode="&#x15f;" horiz-adv-x="869" d="M104 37 L104 213 Q238 114 399 114 Q615 114 615 258 Q615 299 596.5 327.5 Q578 356 546.5 378 Q515 400 472.5 417.5 Q430 435 381 454 Q313 481 261.5 508.5 Q210 536 175.5 570.5 Q141 605 123.5 649 Q106 693 106 752 Q106 824 139 879.5 Q172 935 227 972.5 Q282 1010 352.5 1029 Q423 1048 498 1048 Q631 1048 736 1002 L736 836 Q623 910 476 910 Q430 910 393 899.5 Q356 889 329.5 870 Q303 851 288.5 824.5 Q274 798 274 766 Q274 726 288.5 699 Q303 672 331 651 Q359 630 399 613 Q439 596 490 576 Q558 550 612 522.5 Q666 495 704 460.5 Q742 426 762.5 381 Q783 336 783 274 Q783 198 749.5 142 Q716 86 660 49 Q604 12 531 -6 Q458 -24 378 -24 Q220 -24 104 37 Z M650 -256 Q650 -432 375 -432 Q337 -432 310 -430 L310 -340 Q353 -346 380 -346 Q521 -346 521 -256 Q521 -178 392 -178 Q382 -178 351 -182 L351 0 L459 0 L459 -104 Q547 -104 598.5 -144 Q650 -184 650 -256 Z " />
<glyph glyph-name="Cacute" unicode="&#x106;" horiz-adv-x="1268" d="M1164 60 Q1005 -24 768 -24 Q462 -24 278 173 Q94 370 94 690 Q94 1034 301 1246 Q508 1458 826 1458 Q1030 1458 1164 1399 L1164 1220 Q1010 1306 824 1306 Q577 1306 423.5 1141 Q270 976 270 700 Q270 438 413.5 282.5 Q557 127 790 127 Q1006 127 1164 223 L1164 60 Z M993 1894 L731 1566 L604 1566 L827 1894 L993 1894 Z " />
<glyph glyph-name="cacute" unicode="&#x107;" horiz-adv-x="946" d="M864 47 Q746 -24 584 -24 Q365 -24 230.5 118.5 Q96 261 96 488 Q96 741 241 894.5 Q386 1048 628 1048 Q763 1048 866 998 L866 830 Q752 910 622 910 Q465 910 364.5 797.5 Q264 685 264 502 Q264 322 358.5 218 Q453 114 612 114 Q746 114 864 203 L864 47 Z M815 1546 L553 1218 L426 1218 L649 1546 L815 1546 Z " />
<glyph glyph-name="Ccaron" unicode="&#x10c;" horiz-adv-x="1268" d="M1164 60 Q1005 -24 768 -24 Q462 -24 278 173 Q94 370 94 690 Q94 1034 301 1246 Q508 1458 826 1458 Q1030 1458 1164 1399 L1164 1220 Q1010 1306 824 1306 Q577 1306 423.5 1141 Q270 976 270 700 Q270 438 413.5 282.5 Q557 127 790 127 Q1006 127 1164 223 L1164 60 Z M1054 1896 L840 1566 L708 1566 L492 1896 L607 1896 L771 1667 L935 1896 L1054 1896 Z " />
<glyph glyph-name="ccaron" unicode="&#x10d;" horiz-adv-x="946" d="M864 47 Q746 -24 584 -24 Q365 -24 230.5 118.5 Q96 261 96 488 Q96 741 241 894.5 Q386 1048 628 1048 Q763 1048 866 998 L866 830 Q752 910 622 910 Q465 910 364.5 797.5 Q264 685 264 502 Q264 322 358.5 218 Q453 114 612 114 Q746 114 864 203 L864 47 Z M858 1548 L644 1218 L512 1218 L296 1548 L411 1548 L575 1319 L739 1548 L858 1548 Z " />
<glyph glyph-name="dslash" unicode="&#x111;" horiz-adv-x="1206" d="M1040 0 L876 0 L876 174 L872 174 Q758 -24 520 -24 Q327 -24 211.5 113.5 Q96 251 96 488 Q96 742 224 895 Q352 1048 565 1048 Q773 1048 872 882 L876 882 L876 1202 L545 1202 L545 1336 L876 1336 L876 1516 L1040 1516 L1040 1336 L1176 1336 L1176 1202 L1040 1202 L1040 0 Z M876 463 L876 614 Q876 738 794 824 Q712 910 586 910 Q436 910 350 800 Q264 690 264 496 Q264 319 346.5 216.5 Q429 114 568 114 Q704 114 790 213 Q876 312 876 463 Z " />
<glyph glyph-name="uni00AF" unicode="&#xaf;" horiz-adv-x="850" d="M850 1396 L0 1396 L0 1516 L850 1516 L850 1396 Z " />
<glyph glyph-name="uni2219" unicode="&#x2219;" horiz-adv-x="444" d="M223 510 Q177 510 144.5 543 Q112 576 112 622 Q112 669 144.5 702 Q177 735 223 735 Q270 735 303 702 Q336 669 336 622 Q336 576 303 543 Q270 510 223 510 Z " />
<glyph glyph-name="Abreve" unicode="&#x102;" horiz-adv-x="1321" d="M1298 0 L1112 0 L960 402 L352 402 L209 0 L22 0 L572 1434 L746 1434 L1298 0 Z M905 553 L680 1164 Q669 1194 658 1260 L654 1260 Q644 1199 631 1164 L408 553 L905 553 Z M932 1819 Q922 1706 843.5 1636.5 Q765 1567 653 1567 Q536 1567 462 1636 Q388 1705 383 1819 L483 1819 Q495 1664 655 1664 Q723 1664 771.5 1706 Q820 1748 830 1819 L932 1819 Z " />
<glyph glyph-name="abreve" unicode="&#x103;" horiz-adv-x="1042" d="M899 0 L735 0 L735 160 L731 160 Q624 -24 416 -24 Q263 -24 176.5 57 Q90 138 90 272 Q90 559 428 606 L735 649 Q735 910 524 910 Q339 910 190 784 L190 952 Q341 1048 538 1048 Q899 1048 899 666 L899 0 Z M735 518 L488 484 Q374 468 316 427.5 Q258 387 258 284 Q258 209 311.5 161.5 Q365 114 454 114 Q576 114 655.5 199.5 Q735 285 735 416 L735 518 Z M805 1470 Q795 1357 716.5 1287.5 Q638 1218 526 1218 Q409 1218 335 1287 Q261 1356 256 1470 L356 1470 Q368 1315 528 1315 Q596 1315 644.5 1357 Q693 1399 703 1470 L805 1470 Z " />
<glyph glyph-name="Aogonek" unicode="&#x104;" horiz-adv-x="1321" d="M1298 0 L1112 0 L960 402 L352 402 L209 0 L22 0 L572 1434 L746 1434 L1298 0 Z M905 553 L680 1164 Q669 1194 658 1260 L654 1260 Q644 1199 631 1164 L408 553 L905 553 Z M1227 0 Q1077 -141 1077 -223 Q1077 -293 1145 -293 Q1175 -293 1201 -280 L1201 -387 Q1171 -400 1119 -400 Q1043 -400 997 -360 Q951 -320 951 -250 Q951 -128 1108 0 L1227 0 Z " />
<glyph glyph-name="aogonek" unicode="&#x105;" horiz-adv-x="1042" d="M899 0 L735 0 L735 160 L731 160 Q624 -24 416 -24 Q263 -24 176.5 57 Q90 138 90 272 Q90 559 428 606 L735 649 Q735 910 524 910 Q339 910 190 784 L190 952 Q341 1048 538 1048 Q899 1048 899 666 L899 0 Z M735 518 L488 484 Q374 468 316 427.5 Q258 387 258 284 Q258 209 311.5 161.5 Q365 114 454 114 Q576 114 655.5 199.5 Q735 285 735 416 L735 518 Z M850 0 Q700 -141 700 -223 Q700 -293 768 -293 Q798 -293 824 -280 L824 -387 Q794 -400 742 -400 Q666 -400 620 -360 Q574 -320 574 -250 Q574 -128 731 0 L850 0 Z " />
<glyph glyph-name="Dcaron" unicode="&#x10e;" horiz-adv-x="1436" d="M188 0 L188 1434 L584 1434 Q1342 1434 1342 735 Q1342 403 1131.5 201.5 Q921 0 568 0 L188 0 Z M356 1282 L356 152 L570 152 Q852 152 1009 303 Q1166 454 1166 731 Q1166 1282 580 1282 L356 1282 Z M962 1896 L748 1566 L616 1566 L400 1896 L515 1896 L679 1667 L843 1896 L962 1896 Z " />
<glyph glyph-name="dcaron" unicode="&#x10f;" horiz-adv-x="1381" d="M1040 0 L876 0 L876 174 L872 174 Q758 -24 520 -24 Q327 -24 211.5 113.5 Q96 251 96 488 Q96 742 224 895 Q352 1048 565 1048 Q776 1048 872 882 L876 882 L876 1516 L1040 1516 L1040 0 Z M876 463 L876 614 Q876 738 794 824 Q712 910 586 910 Q436 910 350 800 Q264 690 264 496 Q264 319 346.5 216.5 Q429 114 568 114 Q705 114 790.5 213 Q876 312 876 463 Z M1459 1516 L1293 1256 L1170 1256 L1287 1516 L1459 1516 Z " />
<glyph glyph-name="Dcroat" unicode="&#x110;" horiz-adv-x="1436" d="M188 0 L188 641 L28 641 L28 796 L188 796 L188 1434 L584 1434 Q1342 1434 1342 735 Q1342 401 1131.5 200.5 Q921 0 568 0 L188 0 Z M356 1282 L356 796 L692 796 L692 641 L356 641 L356 152 L570 152 Q852 152 1009 303 Q1166 454 1166 731 Q1166 1282 580 1282 L356 1282 Z " />
<glyph glyph-name="Eogonek" unicode="&#x118;" horiz-adv-x="1036" d="M948 0 L188 0 L188 1434 L916 1434 L916 1282 L356 1282 L356 805 L874 805 L874 654 L356 654 L356 152 L948 152 L948 0 Z M865 0 Q715 -141 715 -223 Q715 -293 783 -293 Q813 -293 839 -280 L839 -387 Q809 -400 757 -400 Q681 -400 635 -360 Q589 -320 589 -250 Q589 -128 746 0 L865 0 Z " />
<glyph glyph-name="eogonek" unicode="&#x119;" horiz-adv-x="1071" d="M989 471 L266 471 Q270 300 358 207 Q446 114 600 114 Q773 114 918 228 L918 74 Q783 -24 561 -24 Q344 -24 220 115.5 Q96 255 96 508 Q96 747 231.5 897.5 Q367 1048 568 1048 Q769 1048 879 918 Q989 788 989 557 L989 471 Z M821 610 Q820 752 752.5 831 Q685 910 565 910 Q449 910 368 827 Q287 744 268 610 L821 610 Z M755 0 Q605 -141 605 -223 Q605 -293 673 -293 Q703 -293 729 -280 L729 -387 Q699 -400 647 -400 Q571 -400 525 -360 Q479 -320 479 -250 Q479 -128 636 0 L755 0 Z " />
<glyph glyph-name="Ecaron" unicode="&#x11a;" horiz-adv-x="1036" d="M948 0 L188 0 L188 1434 L916 1434 L916 1282 L356 1282 L356 805 L874 805 L874 654 L356 654 L356 152 L948 152 L948 0 Z M841 1896 L627 1566 L495 1566 L279 1896 L394 1896 L558 1667 L722 1896 L841 1896 Z " />
<glyph glyph-name="ecaron" unicode="&#x11b;" horiz-adv-x="1071" d="M989 471 L266 471 Q270 300 358 207 Q446 114 600 114 Q773 114 918 228 L918 74 Q783 -24 561 -24 Q344 -24 220 115.5 Q96 255 96 508 Q96 747 231.5 897.5 Q367 1048 568 1048 Q769 1048 879 918 Q989 788 989 557 L989 471 Z M821 610 Q820 752 752.5 831 Q685 910 565 910 Q449 910 368 827 Q287 744 268 610 L821 610 Z M844 1548 L630 1218 L498 1218 L282 1548 L397 1548 L561 1319 L725 1548 L844 1548 Z " />
<glyph glyph-name="Lacute" unicode="&#x139;" horiz-adv-x="964" d="M932 0 L188 0 L188 1434 L356 1434 L356 152 L932 152 L932 0 Z M856 1894 L594 1566 L467 1566 L690 1894 L856 1894 Z " />
<glyph glyph-name="lacute" unicode="&#x13a;" horiz-adv-x="496" d="M330 0 L166 0 L166 1516 L330 1516 L330 0 Z M531 1979 L269 1651 L142 1651 L365 1979 L531 1979 Z " />
<glyph glyph-name="Lcaron" unicode="&#x13d;" horiz-adv-x="964" d="M932 0 L188 0 L188 1434 L356 1434 L356 152 L932 152 L932 0 Z M905 1434 L739 1174 L616 1174 L733 1434 L905 1434 Z " />
<glyph glyph-name="lcaron" unicode="&#x13e;" horiz-adv-x="629" d="M330 0 L166 0 L166 1516 L330 1516 L330 0 Z M707 1510 L541 1250 L418 1250 L535 1510 L707 1510 Z " />
<glyph glyph-name="Ldot" unicode="&#x13f;" horiz-adv-x="964" d="M932 0 L188 0 L188 1434 L356 1434 L356 152 L932 152 L932 0 Z M736 666 Q696 666 666.5 694.5 Q637 723 637 765 Q637 805 666 833 Q695 861 736 861 Q777 861 805.5 833.5 Q834 806 834 765 Q834 724 805.5 695 Q777 666 736 666 Z " />
<glyph glyph-name="ldot" unicode="&#x140;" horiz-adv-x="645" d="M330 0 L166 0 L166 1516 L330 1516 L330 0 Z M549 666 Q509 666 479.5 694.5 Q450 723 450 765 Q450 805 479 833 Q508 861 549 861 Q590 861 618.5 833.5 Q647 806 647 765 Q647 724 618.5 695 Q590 666 549 666 Z " />
<glyph glyph-name="Nacute" unicode="&#x143;" horiz-adv-x="1532" d="M1344 0 L1138 0 L400 1143 Q372 1186 354 1233 L348 1233 Q356 1187 356 1036 L356 0 L188 0 L188 1434 L406 1434 L1124 309 Q1169 239 1182 213 L1186 213 Q1176 275 1176 424 L1176 1434 L1344 1434 L1344 0 Z M1006 1894 L744 1566 L617 1566 L840 1894 L1006 1894 Z " />
<glyph glyph-name="nacute" unicode="&#x144;" horiz-adv-x="1159" d="M1016 0 L852 0 L852 584 Q852 910 614 910 Q491 910 410.5 817.5 Q330 725 330 584 L330 0 L166 0 L166 1024 L330 1024 L330 854 L334 854 Q450 1048 670 1048 Q838 1048 927 939.5 Q1016 831 1016 626 L1016 0 Z M836 1546 L574 1218 L447 1218 L670 1546 L836 1546 Z " />
<glyph glyph-name="Ncaron" unicode="&#x147;" horiz-adv-x="1532" d="M1344 0 L1138 0 L400 1143 Q372 1186 354 1233 L348 1233 Q356 1187 356 1036 L356 0 L188 0 L188 1434 L406 1434 L1124 309 Q1169 239 1182 213 L1186 213 Q1176 275 1176 424 L1176 1434 L1344 1434 L1344 0 Z M1046 1896 L832 1566 L700 1566 L484 1896 L599 1896 L763 1667 L927 1896 L1046 1896 Z " />
<glyph glyph-name="ncaron" unicode="&#x148;" horiz-adv-x="1159" d="M1016 0 L852 0 L852 584 Q852 910 614 910 Q491 910 410.5 817.5 Q330 725 330 584 L330 0 L166 0 L166 1024 L330 1024 L330 854 L334 854 Q450 1048 670 1048 Q838 1048 927 939.5 Q1016 831 1016 626 L1016 0 Z M882 1548 L668 1218 L536 1218 L320 1548 L435 1548 L599 1319 L763 1548 L882 1548 Z " />
<glyph glyph-name="Ohungarumlaut" unicode="&#x150;" horiz-adv-x="1544" d="M766 -24 Q461 -24 277.5 177 Q94 378 94 700 Q94 1046 281 1252 Q468 1458 790 1458 Q1087 1458 1268.5 1258 Q1450 1058 1450 735 Q1450 384 1264 180 Q1078 -24 766 -24 Z M778 1306 Q552 1306 411 1143 Q270 980 270 715 Q270 450 407.5 288.5 Q545 127 766 127 Q1002 127 1138 281 Q1274 435 1274 712 Q1274 996 1142 1151 Q1010 1306 778 1306 Z M1128 1886 L883 1568 L786 1568 L995 1886 L1128 1886 Z M881 1886 L641 1568 L545 1568 L751 1886 L881 1886 Z " />
<glyph glyph-name="ohungarumlaut" unicode="&#x151;" horiz-adv-x="1200" d="M594 -24 Q367 -24 231.5 119.5 Q96 263 96 500 Q96 758 237 903 Q378 1048 618 1048 Q847 1048 975.5 907 Q1104 766 1104 516 Q1104 271 965.5 123.5 Q827 -24 594 -24 Z M606 910 Q448 910 356 802.5 Q264 695 264 506 Q264 324 357 219 Q450 114 606 114 Q765 114 850.5 217 Q936 320 936 510 Q936 702 850.5 806 Q765 910 606 910 Z M966 1536 L721 1218 L624 1218 L833 1536 L966 1536 Z M719 1536 L479 1218 L383 1218 L589 1536 L719 1536 Z " />
<glyph glyph-name="Racute" unicode="&#x154;" horiz-adv-x="1225" d="M1216 0 L1016 0 L776 402 Q743 458 712 497.5 Q681 537 648.5 562 Q616 587 578.5 598.5 Q541 610 494 610 L356 610 L356 0 L188 0 L188 1434 L616 1434 Q710 1434 789.5 1410.5 Q869 1387 927.5 1339 Q986 1291 1019 1219.5 Q1052 1148 1052 1052 Q1052 977 1029.5 914.5 Q1007 852 965.5 803 Q924 754 865.5 719.5 Q807 685 734 666 L734 662 Q770 646 796.5 625.5 Q823 605 847 577 Q871 549 894.5 513.5 Q918 478 947 431 L1216 0 Z M356 1282 L356 762 L584 762 Q647 762 700.5 781 Q754 800 793 835.5 Q832 871 854 922.5 Q876 974 876 1038 Q876 1153 801.5 1217.5 Q727 1282 586 1282 L356 1282 Z M875 1894 L613 1566 L486 1566 L709 1894 L875 1894 Z " />
<glyph glyph-name="racute" unicode="&#x155;" horiz-adv-x="712" d="M700 858 Q657 891 576 891 Q471 891 400.5 792 Q330 693 330 522 L330 0 L166 0 L166 1024 L330 1024 L330 813 L334 813 Q369 921 441 981.5 Q513 1042 602 1042 Q666 1042 700 1028 L700 858 Z M688 1546 L426 1218 L299 1218 L522 1546 L688 1546 Z " />
<glyph glyph-name="Rcaron" unicode="&#x158;" horiz-adv-x="1225" d="M1216 0 L1016 0 L776 402 Q743 458 712 497.5 Q681 537 648.5 562 Q616 587 578.5 598.5 Q541 610 494 610 L356 610 L356 0 L188 0 L188 1434 L616 1434 Q710 1434 789.5 1410.5 Q869 1387 927.5 1339 Q986 1291 1019 1219.5 Q1052 1148 1052 1052 Q1052 977 1029.5 914.5 Q1007 852 965.5 803 Q924 754 865.5 719.5 Q807 685 734 666 L734 662 Q770 646 796.5 625.5 Q823 605 847 577 Q871 549 894.5 513.5 Q918 478 947 431 L1216 0 Z M356 1282 L356 762 L584 762 Q647 762 700.5 781 Q754 800 793 835.5 Q832 871 854 922.5 Q876 974 876 1038 Q876 1153 801.5 1217.5 Q727 1282 586 1282 L356 1282 Z M891 1896 L677 1566 L545 1566 L329 1896 L444 1896 L608 1667 L772 1896 L891 1896 Z " />
<glyph glyph-name="rcaron" unicode="&#x159;" horiz-adv-x="712" d="M700 858 Q657 891 576 891 Q471 891 400.5 792 Q330 693 330 522 L330 0 L166 0 L166 1024 L330 1024 L330 813 L334 813 Q369 921 441 981.5 Q513 1042 602 1042 Q666 1042 700 1028 L700 858 Z M713 1548 L499 1218 L367 1218 L151 1548 L266 1548 L430 1319 L594 1548 L713 1548 Z " />
<glyph glyph-name="Sacute" unicode="&#x15a;" horiz-adv-x="1088" d="M121 58 L121 256 Q155 226 202.5 202 Q250 178 302.5 161.5 Q355 145 408 136 Q461 127 506 127 Q661 127 737.5 184.5 Q814 242 814 350 Q814 408 788.5 451 Q763 494 718 529.5 Q673 565 611.5 597.5 Q550 630 479 666 Q404 704 339 743 Q274 782 226 829 Q178 876 150.5 935.5 Q123 995 123 1075 Q123 1173 166 1245.5 Q209 1318 279 1365 Q349 1412 438.5 1435 Q528 1458 621 1458 Q833 1458 930 1407 L930 1218 Q803 1306 604 1306 Q549 1306 494 1294.5 Q439 1283 396 1257 Q353 1231 326 1190 Q299 1149 299 1090 Q299 1035 319.5 995 Q340 955 380 922 Q420 889 477.5 858 Q535 827 610 790 Q687 752 756 710 Q825 668 877 617 Q929 566 959.5 504 Q990 442 990 362 Q990 256 948.5 182.5 Q907 109 836.5 63 Q766 17 674 -3.5 Q582 -24 480 -24 Q446 -24 396 -18.5 Q346 -13 294 -2.5 Q242 8 195.5 23.5 Q149 39 121 58 Z M821 1893 L559 1565 L432 1565 L655 1893 L821 1893 Z " />
<glyph glyph-name="sacute" unicode="&#x15b;" horiz-adv-x="869" d="M104 37 L104 213 Q238 114 399 114 Q615 114 615 258 Q615 299 596.5 327.5 Q578 356 546.5 378 Q515 400 472.5 417.5 Q430 435 381 454 Q313 481 261.5 508.5 Q210 536 175.5 570.5 Q141 605 123.5 649 Q106 693 106 752 Q106 824 139 879.5 Q172 935 227 972.5 Q282 1010 352.5 1029 Q423 1048 498 1048 Q631 1048 736 1002 L736 836 Q623 910 476 910 Q430 910 393 899.5 Q356 889 329.5 870 Q303 851 288.5 824.5 Q274 798 274 766 Q274 726 288.5 699 Q303 672 331 651 Q359 630 399 613 Q439 596 490 576 Q558 550 612 522.5 Q666 495 704 460.5 Q742 426 762.5 381 Q783 336 783 274 Q783 198 749.5 142 Q716 86 660 49 Q604 12 531 -6 Q458 -24 378 -24 Q220 -24 104 37 Z M714 1546 L452 1218 L325 1218 L548 1546 L714 1546 Z " />
<glyph glyph-name="Tcedilla" unicode="&#x162;" horiz-adv-x="1073" d="M1036 1282 L622 1282 L622 0 L454 0 L454 1282 L41 1282 L41 1434 L1036 1434 L1036 1282 Z M764 -256 Q764 -432 489 -432 Q451 -432 424 -430 L424 -340 Q467 -346 494 -346 Q635 -346 635 -256 Q635 -178 506 -178 Q496 -178 465 -182 L465 0 L573 0 L573 -104 Q661 -104 712.5 -144 Q764 -184 764 -256 Z " />
<glyph glyph-name="tcedilla" unicode="&#x163;" horiz-adv-x="694" d="M641 10 Q583 -22 488 -22 Q219 -22 219 278 L219 884 L43 884 L43 1024 L219 1024 L219 1274 L383 1327 L383 1024 L641 1024 L641 884 L383 884 L383 307 Q383 204 418 160 Q453 116 534 116 Q596 116 641 150 L641 10 Z M666 -256 Q666 -432 391 -432 Q353 -432 326 -430 L326 -340 Q369 -346 396 -346 Q537 -346 537 -256 Q537 -178 408 -178 Q398 -178 367 -182 L367 0 L475 0 L475 -104 Q563 -104 614.5 -144 Q666 -184 666 -256 Z " />
<glyph glyph-name="Tcaron" unicode="&#x164;" horiz-adv-x="1073" d="M1036 1282 L622 1282 L622 0 L454 0 L454 1282 L41 1282 L41 1434 L1036 1434 L1036 1282 Z M821 1896 L607 1566 L475 1566 L259 1896 L374 1896 L538 1667 L702 1896 L821 1896 Z " />
<glyph glyph-name="tcaron" unicode="&#x165;" horiz-adv-x="901" d="M641 10 Q583 -22 488 -22 Q219 -22 219 278 L219 884 L43 884 L43 1024 L219 1024 L219 1274 L383 1327 L383 1024 L641 1024 L641 884 L383 884 L383 307 Q383 204 418 160 Q453 116 534 116 Q596 116 641 150 L641 10 Z M979 1394 L813 1134 L690 1134 L807 1394 L979 1394 Z " />
<glyph glyph-name="Uring" unicode="&#x16e;" horiz-adv-x="1407" d="M1237 580 Q1237 -24 692 -24 Q170 -24 170 557 L170 1434 L338 1434 L338 568 Q338 127 710 127 Q1069 127 1069 553 L1069 1434 L1237 1434 L1237 580 Z M682 1567 Q595 1567 537.5 1619.5 Q480 1672 480 1757 Q480 1847 539 1901 Q598 1955 689 1955 Q778 1955 835 1901 Q892 1847 892 1763 Q892 1679 831 1623 Q770 1567 682 1567 Z M682 1874 Q634 1874 602 1841.5 Q570 1809 570 1761 Q570 1649 682 1649 Q732 1649 765 1681 Q798 1713 798 1761 Q798 1810 765 1842 Q732 1874 682 1874 Z " />
<glyph glyph-name="uring" unicode="&#x16f;" horiz-adv-x="1159" d="M994 0 L830 0 L830 162 L826 162 Q724 -24 510 -24 Q144 -24 144 412 L144 1024 L307 1024 L307 438 Q307 114 555 114 Q675 114 752.5 202.5 Q830 291 830 434 L830 1024 L994 1024 L994 0 Z M564 1176 Q477 1176 419.5 1228.5 Q362 1281 362 1366 Q362 1456 421 1510 Q480 1564 571 1564 Q660 1564 717 1510 Q774 1456 774 1372 Q774 1288 713 1232 Q652 1176 564 1176 Z M564 1483 Q516 1483 484 1450.5 Q452 1418 452 1370 Q452 1258 564 1258 Q614 1258 647 1290 Q680 1322 680 1370 Q680 1419 647 1451 Q614 1483 564 1483 Z " />
<glyph glyph-name="Uhungarumlaut" unicode="&#x170;" horiz-adv-x="1407" d="M1237 580 Q1237 -24 692 -24 Q170 -24 170 557 L170 1434 L338 1434 L338 568 Q338 127 710 127 Q1069 127 1069 553 L1069 1434 L1237 1434 L1237 580 Z M1050 1884 L805 1566 L708 1566 L917 1884 L1050 1884 Z M803 1884 L563 1566 L467 1566 L673 1884 L803 1884 Z " />
<glyph glyph-name="uhungarumlaut" unicode="&#x171;" horiz-adv-x="1159" d="M994 0 L830 0 L830 162 L826 162 Q724 -24 510 -24 Q144 -24 144 412 L144 1024 L307 1024 L307 438 Q307 114 555 114 Q675 114 752.5 202.5 Q830 291 830 434 L830 1024 L994 1024 L994 0 Z M908 1536 L663 1218 L566 1218 L775 1536 L908 1536 Z M661 1536 L421 1218 L325 1218 L531 1536 L661 1536 Z " />
<glyph glyph-name="Zacute" unicode="&#x179;" horiz-adv-x="1168" d="M1124 1394 L284 152 L1104 152 L1104 0 L33 0 L33 47 L866 1282 L100 1282 L100 1434 L1124 1434 L1124 1394 Z M868 1895 L606 1567 L479 1567 L702 1895 L868 1895 Z " />
<glyph glyph-name="zacute" unicode="&#x17a;" horiz-adv-x="926" d="M880 977 L274 140 L874 140 L874 0 L33 0 L33 51 L639 884 L90 884 L90 1024 L880 1024 L880 977 Z M723 1546 L461 1218 L334 1218 L557 1546 L723 1546 Z " />
<glyph glyph-name="Zdotaccent" unicode="&#x17b;" horiz-adv-x="1168" d="M1124 1394 L284 152 L1104 152 L1104 0 L33 0 L33 47 L866 1282 L100 1282 L100 1434 L1124 1434 L1124 1394 Z M594 1566 Q554 1566 524.5 1594.5 Q495 1623 495 1665 Q495 1705 524 1733 Q553 1761 594 1761 Q635 1761 663.5 1733.5 Q692 1706 692 1665 Q692 1624 663.5 1595 Q635 1566 594 1566 Z " />
<glyph glyph-name="zdotaccent" unicode="&#x17c;" horiz-adv-x="926" d="M880 977 L274 140 L874 140 L874 0 L33 0 L33 51 L639 884 L90 884 L90 1024 L880 1024 L880 977 Z M486 1218 Q446 1218 416.5 1246.5 Q387 1275 387 1317 Q387 1357 416 1385 Q445 1413 486 1413 Q527 1413 555.5 1385.5 Q584 1358 584 1317 Q584 1276 555.5 1247 Q527 1218 486 1218 Z " />
<glyph glyph-name="Gamma" unicode="&#x393;" horiz-adv-x="966" d="M932 1278 L357 1278 L357 0 L188 0 L188 1434 L932 1434 L932 1278 Z " />
<glyph glyph-name="Theta" unicode="&#x398;" horiz-adv-x="1544" d="M766 -24 Q462 -24 278 175.5 Q94 375 94 700 Q94 1043 280.5 1250.5 Q467 1458 790 1458 Q1087 1458 1268.5 1258 Q1450 1058 1450 735 Q1450 384 1264.5 180 Q1079 -24 766 -24 Z M777 1306 Q552 1306 411.5 1143 Q271 980 271 716 Q271 450 408 288.5 Q545 127 766 127 Q1002 127 1137.5 281 Q1273 435 1273 713 Q1273 993 1141.5 1149.5 Q1010 1306 777 1306 Z M1041 638 L504 638 L504 794 L1041 794 L1041 638 Z " />
<glyph glyph-name="Phi" unicode="&#x3a6;" horiz-adv-x="1544" d="M850 186 L850 -15 L694 -15 L694 186 L651 186 Q402 186 249 344 Q96 502 96 754 Q96 1000 248.5 1149 Q401 1298 653 1298 L694 1298 L694 1447 L850 1447 L850 1298 L892 1298 Q1144 1298 1295.5 1148.5 Q1447 999 1447 754 Q1447 501 1293 343.5 Q1139 186 894 186 L850 186 Z M850 1156 L850 336 L894 336 Q1076 336 1179.5 446 Q1283 556 1283 752 Q1283 937 1177.5 1046.5 Q1072 1156 892 1156 L850 1156 Z M694 336 L694 1156 L653 1156 Q474 1156 367 1047 Q260 938 260 751 Q260 555 363.5 445.5 Q467 336 651 336 L694 336 Z " />
<glyph glyph-name="alpha" unicode="&#x3b1;" horiz-adv-x="1258" d="M1221 5 Q1168 -8 1126 -8 Q972 -8 918 285 L914 285 Q766 -24 500 -24 Q314 -24 202 119.5 Q90 263 90 482 Q90 732 219 890 Q348 1048 568 1048 Q694 1048 793 973 Q892 898 943 762 L947 762 L1032 1024 L1204 1024 L1011 522 Q1045 303 1083 224.5 Q1121 146 1181 146 Q1204 146 1221 151 L1221 5 Z M873 520 Q835 710 757 811 Q679 912 569 912 Q427 912 342.5 791 Q258 670 258 492 Q258 334 329.5 227 Q401 120 522 120 Q628 120 714.5 210.5 Q801 301 859 477 L873 520 Z " />
<glyph glyph-name="delta" unicode="&#x3b4;" horiz-adv-x="1196" d="M999 1470 L999 1287 Q831 1388 659 1388 Q559 1388 498.5 1353.5 Q438 1319 438 1261 Q438 1214 490 1161.5 Q542 1109 662 1036 Q824 937 917 860 Q1010 783 1058.5 687.5 Q1107 592 1107 481 Q1107 248 966 111.5 Q825 -25 586 -25 Q367 -25 229.5 108.5 Q92 242 92 457 Q92 612 198 741 Q304 870 507 958 Q269 1105 269 1268 Q269 1396 373 1465 Q477 1534 659 1534 Q823 1534 999 1470 Z M634 883 Q268 735 268 458 Q268 301 358.5 208.5 Q449 116 599 116 Q756 116 849 212 Q942 308 942 469 Q942 586 870.5 681.5 Q799 777 634 883 Z " />
<glyph glyph-name="epsilon" unicode="&#x3b5;" horiz-adv-x="897" d="M827 22 Q697 -25 502 -25 Q307 -25 194.5 57.5 Q82 140 82 277 Q82 370 151.5 438 Q221 506 335 527 L335 531 Q249 549 185 613.5 Q121 678 121 761 Q121 897 227.5 973 Q334 1049 512 1049 Q655 1049 782 1004 L782 839 Q649 910 502 910 Q287 910 287 763 Q287 688 368 642 Q449 596 574 596 Q647 596 692 600 L692 454 Q619 458 552 458 Q248 458 248 280 Q248 205 318.5 159.5 Q389 114 517 114 Q684 114 827 187 L827 22 Z " />
<glyph glyph-name="sigma" unicode="&#x3c3;" horiz-adv-x="1177" d="M1154 892 L898 892 Q1040 710 1040 489 Q1040 262 914 119 Q788 -24 576 -24 Q357 -24 227 119.5 Q97 263 97 502 Q97 1024 618 1024 L1154 1024 L1154 892 Z M750 892 L632 892 Q266 892 266 495 Q266 323 350.5 219.5 Q435 116 576 116 Q713 116 792.5 220.5 Q872 325 872 500 Q872 720 750 892 Z " />
<glyph glyph-name="tau" unicode="&#x3c4;" horiz-adv-x="998" d="M965 892 L574 892 L574 274 Q574 132 690 132 Q744 132 798 152 L798 10 Q732 -12 660 -12 Q411 -12 411 276 L411 892 L270 892 Q156 892 34 804 L34 952 Q110 1024 274 1024 L965 1024 L965 892 Z " />
<glyph glyph-name="phi" unicode="&#x3c6;" horiz-adv-x="1432" d="M822 -24 Q818 -28 788 -24 L788 -482 L640 -482 L640 -24 Q616 -28 612 -24 Q376 -24 236 120 Q96 264 96 510 Q96 825 306 1024 L500 1024 Q264 808 264 506 Q264 322 359.5 219 Q455 116 610 116 L640 116 L640 777 Q640 1048 914 1048 Q1102 1048 1219 899.5 Q1336 751 1336 500 Q1336 267 1195.5 121.5 Q1055 -24 822 -24 Z M788 116 L822 116 Q974 116 1071 221.5 Q1168 327 1168 508 Q1168 688 1094.5 798 Q1021 908 918 908 Q788 908 788 779 L788 116 Z " />
<glyph glyph-name="underscoredbl" unicode="&#x2017;" horiz-adv-x="850" d="M0 -277 L0 -158 L850 -158 L850 -277 L0 -277 Z M0 -514 L0 -395 L850 -395 L850 -514 L0 -514 Z " />
<glyph glyph-name="exclamdbl" unicode="&#x203c;" horiz-adv-x="983" d="M375 1434 L356 404 L221 404 L203 1434 L375 1434 Z M291 -18 Q245 -18 212.5 14 Q180 46 180 92 Q180 138 212.5 170.5 Q245 203 291 203 Q336 203 369 170.5 Q402 138 402 92 Q402 46 369 14 Q336 -18 291 -18 Z M776 1434 L757 404 L622 404 L604 1434 L776 1434 Z M692 -18 Q646 -18 613.5 14 Q581 46 581 92 Q581 138 613.5 170.5 Q646 203 692 203 Q737 203 770 170.5 Q803 138 803 92 Q803 46 770 14 Q737 -18 692 -18 Z " />
<glyph glyph-name="nsuperior" unicode="&#x207f;" horiz-adv-x="803" d="M238 717 L110 717 L110 1436 L238 1436 L238 1321 L242 1321 Q309 1456 452 1456 Q572 1456 639 1382 Q706 1308 706 1176 L706 717 L576 717 L576 1168 Q576 1344 425 1344 Q351 1344 294.5 1283.5 Q238 1223 238 1138 L238 717 Z " />
<glyph glyph-name="peseta" unicode="&#x20a7;" horiz-adv-x="2274" d="M356 542 L356 0 L188 0 L188 1434 L500 1434 Q962 1434 962 1006 Q962 796 830 669 Q698 542 463 542 L356 542 Z M356 1282 L356 694 L450 694 Q786 694 786 998 Q786 1282 471 1282 L356 1282 Z M1552 10 Q1494 -22 1399 -22 Q1268 -22 1209.5 49 Q1151 120 1151 278 L1151 742 L996 742 L996 880 L1151 880 L1151 1130 L1315 1184 L1315 880 L1552 880 L1552 742 L1315 742 L1315 307 Q1315 116 1446 116 Q1505 116 1552 150 L1552 10 Z M1620 37 L1620 213 Q1741 114 1878 114 Q2040 114 2040 228 Q2040 268 2008 308 Q1976 348 1730 440 Q1622 502 1622 618 Q1622 739 1714 811.5 Q1806 884 1952 884 Q2082 884 2160 838 L2160 678 Q2064 746 1950 746 Q1878 746 1834 714.5 Q1790 683 1790 633 Q1790 576 1898 532 Q1992 493 2062.5 461.5 Q2133 430 2170.5 374 Q2208 318 2208 244 Q2208 119 2120 47.5 Q2032 -24 1878 -24 Q1716 -24 1620 37 Z " />
<glyph glyph-name="IJ" unicode="&#x132;" horiz-adv-x="1276" d="M496 1434 L496 1290 L356 1290 L356 144 L496 144 L496 0 L48 0 L48 144 L188 144 L188 1290 L48 1290 L48 1434 L496 1434 Z M1102 514 Q1102 259 994 117.5 Q886 -24 705 -24 Q621 -24 567 0 L567 166 Q621 127 707 127 Q934 127 934 512 L934 1434 L1102 1434 L1102 514 Z " />
<glyph glyph-name="ij" unicode="&#x133;" horiz-adv-x="1014" d="M250 1284 Q206 1284 175 1314 Q144 1344 144 1390 Q144 1436 175 1466.5 Q206 1497 250 1497 Q295 1497 326.5 1466.5 Q358 1436 358 1390 Q358 1346 326.5 1315 Q295 1284 250 1284 Z M330 0 L166 0 L166 1024 L330 1024 L330 0 Z M848 43 Q848 -209 746.5 -345.5 Q645 -482 456 -482 Q386 -482 320 -450 L320 -297 Q394 -342 460 -342 Q684 -342 684 16 L684 1024 L848 1024 L848 43 Z M768 1284 Q724 1284 693 1314 Q662 1344 662 1390 Q662 1436 693 1466.5 Q724 1497 768 1497 Q813 1497 844.5 1466.5 Q876 1436 876 1390 Q876 1346 844.5 1315 Q813 1284 768 1284 Z " />
<glyph glyph-name="napostrophe" unicode="&#x149;" horiz-adv-x="1241" d="M1098 0 L934 0 L934 584 Q934 910 696 910 Q573 910 492.5 817.5 Q412 725 412 584 L412 0 L248 0 L248 1024 L412 1024 L412 854 L416 854 Q532 1048 752 1048 Q920 1048 1009 939.5 Q1098 831 1098 626 L1098 0 Z M217 1458 L77 1012 L-41 1012 L70 1458 L217 1458 Z " />
<glyph glyph-name="minute" unicode="&#x2032;" horiz-adv-x="469" d="M350 1434 L246 987 L130 987 L216 1434 L350 1434 Z " />
<glyph glyph-name="second" unicode="&#x2033;" horiz-adv-x="772" d="M644 1434 L538 987 L422 987 L508 1434 L644 1434 Z M361 1434 L256 987 L141 987 L226 1434 L361 1434 Z " />
<glyph glyph-name="uni2105" unicode="&#x2105;" horiz-adv-x="1646" d="M759 1271 Q680 1338 590 1338 Q472 1338 400.5 1240.5 Q329 1143 329 1016 Q329 828 483 828 Q569 828 687 907 L656 766 Q554 713 462 713 Q334 713 263 792.5 Q192 872 192 1007 Q192 1198 306 1326 Q420 1454 604 1454 Q718 1454 791 1404 L759 1271 Z M1526 1434 L297 0 L150 0 L1378 1434 L1526 1434 Z M1164 -20 Q1023 -20 948.5 62 Q874 144 874 276 Q874 454 986 587 Q1098 720 1267 720 Q1398 720 1474 642 Q1550 564 1550 428 Q1550 247 1439.5 113.5 Q1329 -20 1164 -20 Z M1264 610 Q1156 610 1082 505 Q1008 400 1008 275 Q1008 91 1168 91 Q1272 91 1343.5 190 Q1415 289 1415 423 Q1415 610 1264 610 Z " />
<glyph glyph-name="uni2113" unicode="&#x2113;" horiz-adv-x="662" d="M14 422 L192 658 L192 1112 Q192 1338 253.5 1414.5 Q315 1491 426 1491 Q526 1491 585.5 1423.5 Q645 1356 645 1252 Q645 1057 360 666 L360 250 Q360 160 374 139.5 Q388 119 418 119 Q466 119 616 226 L616 64 Q504 -24 391 -24 Q192 -24 192 217 L192 442 L112 344 L14 422 Z M360 899 Q469 1086 487.5 1142.5 Q506 1199 506 1252 Q506 1370 430 1370 Q401 1370 380.5 1339 Q360 1308 360 1126 L360 899 Z " />
<glyph glyph-name="uni25A1" unicode="&#x25a1;" horiz-adv-x="1237" d="M146 944 L1090 944 L1090 0 L146 0 L146 944 Z M221 868 L221 76 L1014 76 L1014 868 L221 868 Z " />
<glyph glyph-name="uni25AA" unicode="&#x25aa;" horiz-adv-x="725" d="M594 908 L594 444 L131 444 L131 908 L594 908 Z " />
<glyph glyph-name="uni25AB" unicode="&#x25ab;" horiz-adv-x="725" d="M131 908 L594 908 L594 444 L131 444 L131 908 Z M207 832 L207 520 L518 520 L518 832 L207 832 Z " />
<glyph glyph-name="uni25CF" unicode="&#x25cf;" horiz-adv-x="1237" d="M1059 578 Q1059 394 930.5 265.5 Q802 137 620 137 Q436 137 307 265.5 Q178 394 178 578 Q178 763 309 890.5 Q440 1018 618 1018 Q801 1018 930 888 Q1059 758 1059 578 Z " />
<glyph glyph-name="openbullet" unicode="&#x25e6;" horiz-adv-x="725" d="M614 678 Q614 572 541 499 Q468 426 363 426 Q260 426 186 500 Q112 574 112 678 Q112 780 185 854 Q258 928 363 928 Q466 928 540 854 Q614 780 614 678 Z M188 678 Q188 604 239.5 553 Q291 502 364 502 Q438 502 488 553 Q538 604 538 678 Q538 751 487 801.5 Q436 852 362 852 Q290 852 239 800.5 Q188 749 188 678 Z " />
<glyph glyph-name="Amacron" unicode="&#x100;" horiz-adv-x="1321" d="M1298 0 L1112 0 L960 402 L352 402 L209 0 L22 0 L572 1434 L746 1434 L1298 0 Z M905 553 L680 1164 Q669 1194 658 1260 L654 1260 Q644 1199 631 1164 L408 553 L905 553 Z M912 1567 L404 1567 L404 1676 L912 1676 L912 1567 Z " />
<glyph glyph-name="amacron" unicode="&#x101;" horiz-adv-x="1042" d="M899 0 L735 0 L735 160 L731 160 Q624 -24 416 -24 Q263 -24 176.5 57 Q90 138 90 272 Q90 559 428 606 L735 649 Q735 910 524 910 Q339 910 190 784 L190 952 Q341 1048 538 1048 Q899 1048 899 666 L899 0 Z M735 518 L488 484 Q374 468 316 427.5 Q258 387 258 284 Q258 209 311.5 161.5 Q365 114 454 114 Q576 114 655.5 199.5 Q735 285 735 416 L735 518 Z M800 1218 L292 1218 L292 1327 L800 1327 L800 1218 Z " />
<glyph glyph-name="Ccircumflex" unicode="&#x108;" horiz-adv-x="1268" d="M1164 60 Q1005 -24 768 -24 Q462 -24 278 173 Q94 370 94 690 Q94 1034 301 1246 Q508 1458 826 1458 Q1030 1458 1164 1399 L1164 1220 Q1010 1306 824 1306 Q577 1306 423.5 1141 Q270 976 270 700 Q270 438 413.5 282.5 Q557 127 790 127 Q1006 127 1164 223 L1164 60 Z M1047 1568 L925 1568 L761 1798 L596 1568 L483 1568 L698 1900 L831 1900 L1047 1568 Z " />
<glyph glyph-name="ccircumflex" unicode="&#x109;" horiz-adv-x="946" d="M864 47 Q746 -24 584 -24 Q365 -24 230.5 118.5 Q96 261 96 488 Q96 741 241 894.5 Q386 1048 628 1048 Q763 1048 866 998 L866 830 Q752 910 622 910 Q465 910 364.5 797.5 Q264 685 264 502 Q264 322 358.5 218 Q453 114 612 114 Q746 114 864 203 L864 47 Z M840 1218 L718 1218 L554 1448 L389 1218 L276 1218 L491 1550 L624 1550 L840 1218 Z " />
<glyph glyph-name="Cdotaccent" unicode="&#x10a;" horiz-adv-x="1268" d="M1164 60 Q1005 -24 768 -24 Q462 -24 278 173 Q94 370 94 690 Q94 1034 301 1246 Q508 1458 826 1458 Q1030 1458 1164 1399 L1164 1220 Q1010 1306 824 1306 Q577 1306 423.5 1141 Q270 976 270 700 Q270 438 413.5 282.5 Q557 127 790 127 Q1006 127 1164 223 L1164 60 Z M768 1567 Q728 1567 698.5 1595.5 Q669 1624 669 1666 Q669 1706 698 1734 Q727 1762 768 1762 Q809 1762 837.5 1734.5 Q866 1707 866 1666 Q866 1625 837.5 1596 Q809 1567 768 1567 Z " />
<glyph glyph-name="cdotaccent" unicode="&#x10b;" horiz-adv-x="946" d="M864 47 Q746 -24 584 -24 Q365 -24 230.5 118.5 Q96 261 96 488 Q96 741 241 894.5 Q386 1048 628 1048 Q763 1048 866 998 L866 830 Q752 910 622 910 Q465 910 364.5 797.5 Q264 685 264 502 Q264 322 358.5 218 Q453 114 612 114 Q746 114 864 203 L864 47 Z M595 1218 Q555 1218 525.5 1246.5 Q496 1275 496 1317 Q496 1357 525 1385 Q554 1413 595 1413 Q636 1413 664.5 1385.5 Q693 1358 693 1317 Q693 1276 664.5 1247 Q636 1218 595 1218 Z " />
<glyph glyph-name="Emacron" unicode="&#x112;" horiz-adv-x="1036" d="M948 0 L188 0 L188 1434 L916 1434 L916 1282 L356 1282 L356 805 L874 805 L874 654 L356 654 L356 152 L948 152 L948 0 Z M824 1566 L316 1566 L316 1675 L824 1675 L824 1566 Z " />
<glyph glyph-name="emacron" unicode="&#x113;" horiz-adv-x="1071" d="M989 471 L266 471 Q270 300 358 207 Q446 114 600 114 Q773 114 918 228 L918 74 Q783 -24 561 -24 Q344 -24 220 115.5 Q96 255 96 508 Q96 747 231.5 897.5 Q367 1048 568 1048 Q769 1048 879 918 Q989 788 989 557 L989 471 Z M821 610 Q820 752 752.5 831 Q685 910 565 910 Q449 910 368 827 Q287 744 268 610 L821 610 Z M820 1218 L312 1218 L312 1327 L820 1327 L820 1218 Z " />
<glyph glyph-name="Ebreve" unicode="&#x114;" horiz-adv-x="1036" d="M948 0 L188 0 L188 1434 L916 1434 L916 1282 L356 1282 L356 805 L874 805 L874 654 L356 654 L356 152 L948 152 L948 0 Z M829 1820 Q819 1707 740.5 1637.5 Q662 1568 550 1568 Q433 1568 359 1637 Q285 1706 280 1820 L380 1820 Q392 1665 552 1665 Q620 1665 668.5 1707 Q717 1749 727 1820 L829 1820 Z " />
<glyph glyph-name="ebreve" unicode="&#x115;" horiz-adv-x="1071" d="M989 471 L266 471 Q270 300 358 207 Q446 114 600 114 Q773 114 918 228 L918 74 Q783 -24 561 -24 Q344 -24 220 115.5 Q96 255 96 508 Q96 747 231.5 897.5 Q367 1048 568 1048 Q769 1048 879 918 Q989 788 989 557 L989 471 Z M821 610 Q820 752 752.5 831 Q685 910 565 910 Q449 910 368 827 Q287 744 268 610 L821 610 Z M831 1470 Q821 1357 742.5 1287.5 Q664 1218 552 1218 Q435 1218 361 1287 Q287 1356 282 1470 L382 1470 Q394 1315 554 1315 Q622 1315 670.5 1357 Q719 1399 729 1470 L831 1470 Z " />
<glyph glyph-name="Edotaccent" unicode="&#x116;" horiz-adv-x="1036" d="M948 0 L188 0 L188 1434 L916 1434 L916 1282 L356 1282 L356 805 L874 805 L874 654 L356 654 L356 152 L948 152 L948 0 Z M550 1567 Q510 1567 480.5 1595.5 Q451 1624 451 1666 Q451 1706 480 1734 Q509 1762 550 1762 Q591 1762 619.5 1734.5 Q648 1707 648 1666 Q648 1625 619.5 1596 Q591 1567 550 1567 Z " />
<glyph glyph-name="edotaccent" unicode="&#x117;" horiz-adv-x="1071" d="M989 471 L266 471 Q270 300 358 207 Q446 114 600 114 Q773 114 918 228 L918 74 Q783 -24 561 -24 Q344 -24 220 115.5 Q96 255 96 508 Q96 747 231.5 897.5 Q367 1048 568 1048 Q769 1048 879 918 Q989 788 989 557 L989 471 Z M821 610 Q820 752 752.5 831 Q685 910 565 910 Q449 910 368 827 Q287 744 268 610 L821 610 Z M576 1218 Q536 1218 506.5 1246.5 Q477 1275 477 1317 Q477 1357 506 1385 Q535 1413 576 1413 Q617 1413 645.5 1385.5 Q674 1358 674 1317 Q674 1276 645.5 1247 Q617 1218 576 1218 Z " />
<glyph glyph-name="Gcircumflex" unicode="&#x11c;" horiz-adv-x="1405" d="M1260 98 Q1044 -24 780 -24 Q473 -24 283.5 174 Q94 372 94 698 Q94 1031 304.5 1244.5 Q515 1458 838 1458 Q1072 1458 1231 1382 L1231 1196 Q1057 1306 819 1306 Q578 1306 424 1140 Q270 974 270 710 Q270 438 413 282.5 Q556 127 801 127 Q969 127 1092 194 L1092 596 L778 596 L778 748 L1260 748 L1260 98 Z M1061 1568 L939 1568 L775 1798 L610 1568 L497 1568 L712 1900 L845 1900 L1061 1568 Z " />
<glyph glyph-name="gcircumflex" unicode="&#x11d;" horiz-adv-x="1206" d="M1040 82 Q1040 -482 500 -482 Q310 -482 168 -410 L168 -246 Q341 -342 498 -342 Q876 -342 876 60 L876 172 L872 172 Q755 -24 520 -24 Q329 -24 212.5 112.5 Q96 249 96 479 Q96 740 221.5 894 Q347 1048 565 1048 Q772 1048 872 882 L876 882 L876 1024 L1040 1024 L1040 82 Z M876 463 L876 614 Q876 736 793.5 823 Q711 910 588 910 Q436 910 350 799.5 Q264 689 264 490 Q264 319 346.5 216.5 Q429 114 565 114 Q703 114 789.5 212 Q876 310 876 463 Z M865 1218 L743 1218 L579 1448 L414 1218 L301 1218 L516 1550 L649 1550 L865 1218 Z " />
<glyph glyph-name="Gdotaccent" unicode="&#x120;" horiz-adv-x="1405" d="M1260 98 Q1044 -24 780 -24 Q473 -24 283.5 174 Q94 372 94 698 Q94 1031 304.5 1244.5 Q515 1458 838 1458 Q1072 1458 1231 1382 L1231 1196 Q1057 1306 819 1306 Q578 1306 424 1140 Q270 974 270 710 Q270 438 413 282.5 Q556 127 801 127 Q969 127 1092 194 L1092 596 L778 596 L778 748 L1260 748 L1260 98 Z M798 1567 Q758 1567 728.5 1595.5 Q699 1624 699 1666 Q699 1706 728 1734 Q757 1762 798 1762 Q839 1762 867.5 1734.5 Q896 1707 896 1666 Q896 1625 867.5 1596 Q839 1567 798 1567 Z " />
<glyph glyph-name="gdotaccent" unicode="&#x121;" horiz-adv-x="1206" d="M1040 82 Q1040 -482 500 -482 Q310 -482 168 -410 L168 -246 Q341 -342 498 -342 Q876 -342 876 60 L876 172 L872 172 Q755 -24 520 -24 Q329 -24 212.5 112.5 Q96 249 96 479 Q96 740 221.5 894 Q347 1048 565 1048 Q772 1048 872 882 L876 882 L876 1024 L1040 1024 L1040 82 Z M876 463 L876 614 Q876 736 793.5 823 Q711 910 588 910 Q436 910 350 799.5 Q264 689 264 490 Q264 319 346.5 216.5 Q429 114 565 114 Q703 114 789.5 212 Q876 310 876 463 Z M575 1218 Q535 1218 505.5 1246.5 Q476 1275 476 1317 Q476 1357 505 1385 Q534 1413 575 1413 Q616 1413 644.5 1385.5 Q673 1358 673 1317 Q673 1276 644.5 1247 Q616 1218 575 1218 Z " />
<glyph glyph-name="Gcommaaccent" unicode="&#x122;" horiz-adv-x="1405" d="M1260 98 Q1044 -24 780 -24 Q473 -24 283.5 174 Q94 372 94 698 Q94 1031 304.5 1244.5 Q515 1458 838 1458 Q1072 1458 1231 1382 L1231 1196 Q1057 1306 819 1306 Q578 1306 424 1140 Q270 974 270 710 Q270 438 413 282.5 Q556 127 801 127 Q969 127 1092 194 L1092 596 L778 596 L778 748 L1260 748 L1260 98 Z M885 -119 L719 -379 L596 -379 L713 -119 L885 -119 Z " />
<glyph glyph-name="gcommaaccent" unicode="&#x123;" horiz-adv-x="1206" d="M1040 82 Q1040 -482 500 -482 Q307 -482 168 -410 L168 -246 Q342 -342 498 -342 Q876 -342 876 60 L876 172 L872 172 Q756 -24 520 -24 Q330 -24 213 113.5 Q96 251 96 479 Q96 740 221.5 894 Q347 1048 565 1048 Q774 1048 872 882 L876 882 L876 1024 L1040 1024 L1040 82 Z M876 463 L876 614 Q876 735 794 822.5 Q712 910 588 910 Q434 910 349 799 Q264 688 264 490 Q264 320 347 217 Q430 114 565 114 Q704 114 790 211.5 Q876 309 876 463 Z M471 1218 L637 1478 L760 1478 L643 1218 L471 1218 Z " />
<glyph glyph-name="Hcircumflex" unicode="&#x124;" horiz-adv-x="1454" d="M1266 0 L1098 0 L1098 654 L356 654 L356 0 L188 0 L188 1434 L356 1434 L356 805 L1098 805 L1098 1434 L1266 1434 L1266 0 Z M1006 1566 L884 1566 L720 1796 L555 1566 L442 1566 L657 1898 L790 1898 L1006 1566 Z " />
<glyph glyph-name="hcircumflex" unicode="&#x125;" horiz-adv-x="1159" d="M1016 0 L852 0 L852 590 Q852 910 614 910 Q494 910 412 817.5 Q330 725 330 580 L330 0 L166 0 L166 1516 L330 1516 L330 854 L334 854 Q452 1048 670 1048 Q1016 1048 1016 631 L1016 0 Z M912 1647 L790 1647 L626 1877 L461 1647 L348 1647 L563 1979 L696 1979 L912 1647 Z " />
<glyph glyph-name="Hbar" unicode="&#x126;" horiz-adv-x="1454" d="M1266 0 L1098 0 L1098 654 L356 654 L356 0 L188 0 L188 1028 L28 1028 L28 1180 L188 1180 L188 1434 L356 1434 L356 1180 L1098 1180 L1098 1434 L1266 1434 L1266 1180 L1426 1180 L1426 1028 L1266 1028 L1266 0 Z M356 1028 L356 805 L1098 805 L1098 1028 L356 1028 Z " />
<glyph glyph-name="hbar" unicode="&#x127;" horiz-adv-x="1159" d="M1016 0 L852 0 L852 590 Q852 910 614 910 Q494 910 412 817.5 Q330 725 330 580 L330 0 L166 0 L166 1202 L30 1202 L30 1336 L166 1336 L166 1516 L330 1516 L330 1336 L662 1336 L662 1202 L330 1202 L330 854 L334 854 Q454 1048 670 1048 Q838 1048 927 941 Q1016 834 1016 631 L1016 0 Z " />
<glyph glyph-name="Itilde" unicode="&#x128;" horiz-adv-x="545" d="M496 1434 L496 1290 L356 1290 L356 144 L496 144 L496 0 L48 0 L48 144 L188 144 L188 1290 L48 1290 L48 1434 L496 1434 Z M593 1804 Q593 1699 545 1632.5 Q497 1566 415 1566 Q344 1566 253 1618 Q176 1661 134 1661 Q46 1661 46 1548 L-48 1548 Q-48 1655 0 1719.5 Q48 1784 134 1784 Q199 1784 283 1732 Q357 1688 411 1688 Q495 1688 495 1804 L593 1804 Z " />
<glyph glyph-name="itilde" unicode="&#x129;" horiz-adv-x="496" d="M330 0 L166 0 L166 1024 L330 1024 L330 0 Z M558 1458 Q558 1353 510 1286.5 Q462 1220 380 1220 Q309 1220 218 1272 Q141 1315 99 1315 Q11 1315 11 1202 L-83 1202 Q-83 1309 -35 1373.5 Q13 1438 99 1438 Q164 1438 248 1386 Q322 1342 376 1342 Q460 1342 460 1458 L558 1458 Z " />
<glyph glyph-name="Imacron" unicode="&#x12a;" horiz-adv-x="545" d="M496 1434 L496 1290 L356 1290 L356 144 L496 144 L496 0 L48 0 L48 144 L188 144 L188 1290 L48 1290 L48 1434 L496 1434 Z M527 1566 L19 1566 L19 1675 L527 1675 L527 1566 Z " />
<glyph glyph-name="imacron" unicode="&#x12b;" horiz-adv-x="496" d="M330 0 L166 0 L166 1024 L330 1024 L330 0 Z M491 1218 L-17 1218 L-17 1327 L491 1327 L491 1218 Z " />
<glyph glyph-name="Ibreve" unicode="&#x12c;" horiz-adv-x="545" d="M496 1434 L496 1290 L356 1290 L356 144 L496 144 L496 0 L48 0 L48 144 L188 144 L188 1290 L48 1290 L48 1434 L496 1434 Z M547 1818 Q537 1705 458.5 1635.5 Q380 1566 268 1566 Q151 1566 77 1635 Q3 1704 -2 1818 L98 1818 Q110 1663 270 1663 Q338 1663 386.5 1705 Q435 1747 445 1818 L547 1818 Z " />
<glyph glyph-name="ibreve" unicode="&#x12d;" horiz-adv-x="496" d="M330 0 L166 0 L166 1024 L330 1024 L330 0 Z M512 1470 Q502 1357 423.5 1287.5 Q345 1218 233 1218 Q116 1218 42 1287 Q-32 1356 -37 1470 L63 1470 Q75 1315 235 1315 Q303 1315 351.5 1357 Q400 1399 410 1470 L512 1470 Z " />
<glyph glyph-name="Iogonek" unicode="&#x12e;" horiz-adv-x="545" d="M496 1434 L496 1290 L356 1290 L356 144 L496 144 L496 0 L48 0 L48 144 L188 144 L188 1290 L48 1290 L48 1434 L496 1434 Z M427 0 Q277 -141 277 -223 Q277 -293 345 -293 Q375 -293 401 -280 L401 -387 Q371 -400 319 -400 Q243 -400 197 -360 Q151 -320 151 -250 Q151 -128 308 0 L427 0 Z " />
<glyph glyph-name="iogonek" unicode="&#x12f;" horiz-adv-x="496" d="M250 1284 Q206 1284 175 1314 Q144 1344 144 1390 Q144 1436 175 1466.5 Q206 1497 250 1497 Q295 1497 326.5 1466.5 Q358 1436 358 1390 Q358 1346 326.5 1315 Q295 1284 250 1284 Z M330 0 L166 0 L166 1024 L330 1024 L330 0 Z M331 0 Q181 -141 181 -223 Q181 -293 249 -293 Q279 -293 305 -280 L305 -387 Q275 -400 223 -400 Q147 -400 101 -360 Q55 -320 55 -250 Q55 -128 212 0 L331 0 Z " />
<glyph glyph-name="Jcircumflex" unicode="&#x134;" horiz-adv-x="731" d="M555 514 Q555 259 447 117.5 Q339 -24 158 -24 Q74 -24 20 0 L20 166 Q74 127 160 127 Q387 127 387 512 L387 1434 L555 1434 L555 514 Z M754 1566 L632 1566 L468 1796 L303 1566 L190 1566 L405 1898 L538 1898 L754 1566 Z " />
<glyph glyph-name="jcircumflex" unicode="&#x135;" horiz-adv-x="496" d="M330 43 Q330 -209 228.5 -345.5 Q127 -482 -62 -482 Q-132 -482 -198 -450 L-198 -297 Q-124 -342 -58 -342 Q166 -342 166 16 L166 1024 L330 1024 L330 43 Z M527 1218 L405 1218 L241 1448 L76 1218 L-37 1218 L178 1550 L311 1550 L527 1218 Z " />
<glyph glyph-name="Kcommaaccent" unicode="&#x136;" horiz-adv-x="1188" d="M1186 0 L952 0 L398 656 Q367 693 360 706 L356 706 L356 0 L188 0 L188 1434 L356 1434 L356 760 L360 760 Q374 782 398 809 L934 1434 L1143 1434 L528 746 L1186 0 Z M742 -119 L576 -379 L453 -379 L570 -119 L742 -119 Z " />
<glyph glyph-name="kcommaaccent" unicode="&#x137;" horiz-adv-x="1018" d="M1016 0 L786 0 L334 492 L330 492 L330 0 L166 0 L166 1516 L330 1516 L330 555 L334 555 L764 1024 L979 1024 L504 530 L1016 0 Z M643 -119 L477 -379 L354 -379 L471 -119 L643 -119 Z " />
<glyph glyph-name="kgreenlandic" unicode="&#x138;" horiz-adv-x="1018" d="M1016 0 L786 0 L334 492 L330 492 L330 0 L166 0 L166 1024 L330 1024 L330 555 L334 555 L764 1024 L979 1024 L504 530 L1016 0 Z " />
<glyph glyph-name="Lcommaaccent" unicode="&#x13b;" horiz-adv-x="964" d="M932 0 L188 0 L188 1434 L356 1434 L356 152 L932 152 L932 0 Z M766 -256 Q766 -432 491 -432 Q453 -432 426 -430 L426 -340 Q469 -346 496 -346 Q637 -346 637 -256 Q637 -178 508 -178 Q498 -178 467 -182 L467 0 L575 0 L575 -104 Q663 -104 714.5 -144 Q766 -184 766 -256 Z " />
<glyph glyph-name="lcommaaccent" unicode="&#x13c;" horiz-adv-x="496" d="M330 0 L166 0 L166 1516 L330 1516 L330 0 Z M477 -256 Q477 -432 202 -432 Q164 -432 137 -430 L137 -340 Q180 -346 207 -346 Q348 -346 348 -256 Q348 -178 219 -178 Q209 -178 178 -182 L178 0 L286 0 L286 -104 Q374 -104 425.5 -144 Q477 -184 477 -256 Z " />
<glyph glyph-name="Ncommaaccent" unicode="&#x145;" horiz-adv-x="1532" d="M1344 0 L1138 0 L400 1143 Q372 1186 354 1233 L348 1233 Q356 1187 356 1036 L356 0 L188 0 L188 1434 L406 1434 L1124 309 Q1169 239 1182 213 L1186 213 Q1176 275 1176 424 L1176 1434 L1344 1434 L1344 0 Z M870 -119 L704 -379 L581 -379 L698 -119 L870 -119 Z " />
<glyph glyph-name="ncommaaccent" unicode="&#x146;" horiz-adv-x="1159" d="M1016 0 L852 0 L852 584 Q852 910 614 910 Q491 910 410.5 817.5 Q330 725 330 584 L330 0 L166 0 L166 1024 L330 1024 L330 854 L334 854 Q450 1048 670 1048 Q838 1048 927 939.5 Q1016 831 1016 626 L1016 0 Z M693 -119 L527 -379 L404 -379 L521 -119 L693 -119 Z " />
<glyph glyph-name="Eng" unicode="&#x14a;" horiz-adv-x="1532" d="M400 1143 Q378 1175 354 1233 L348 1233 Q356 1180 356 1036 L356 0 L188 0 L188 1434 L406 1434 L1124 368 Q1126 366 1182 264 L1186 264 Q1176 336 1176 484 L1176 1434 L1344 1434 L1344 64 Q1344 -422 979 -422 Q903 -422 842 -391 L842 -226 Q920 -270 983 -270 Q1172 -270 1172 0 L400 1143 Z " />
<glyph glyph-name="eng" unicode="&#x14b;" horiz-adv-x="1159" d="M1016 26 Q1016 -422 658 -422 Q582 -422 520 -391 L520 -226 Q598 -270 662 -270 Q852 -270 852 0 L852 584 Q852 910 614 910 Q492 910 411 817.5 Q330 725 330 584 L330 0 L166 0 L166 1024 L330 1024 L330 854 L334 854 Q451 1048 670 1048 Q1016 1048 1016 626 L1016 26 Z " />
<glyph glyph-name="Omacron" unicode="&#x14c;" horiz-adv-x="1544" d="M766 -24 Q461 -24 277.5 177 Q94 378 94 700 Q94 1046 281 1252 Q468 1458 790 1458 Q1087 1458 1268.5 1258 Q1450 1058 1450 735 Q1450 384 1264 180 Q1078 -24 766 -24 Z M778 1306 Q552 1306 411 1143 Q270 980 270 715 Q270 450 407.5 288.5 Q545 127 766 127 Q1002 127 1138 281 Q1274 435 1274 712 Q1274 996 1142 1151 Q1010 1306 778 1306 Z M1032 1566 L524 1566 L524 1675 L1032 1675 L1032 1566 Z " />
<glyph glyph-name="omacron" unicode="&#x14d;" horiz-adv-x="1200" d="M594 -24 Q367 -24 231.5 119.5 Q96 263 96 500 Q96 758 237 903 Q378 1048 618 1048 Q847 1048 975.5 907 Q1104 766 1104 516 Q1104 271 965.5 123.5 Q827 -24 594 -24 Z M606 910 Q448 910 356 802.5 Q264 695 264 506 Q264 324 357 219 Q450 114 606 114 Q765 114 850.5 217 Q936 320 936 510 Q936 702 850.5 806 Q765 910 606 910 Z M864 1218 L356 1218 L356 1327 L864 1327 L864 1218 Z " />
<glyph glyph-name="Obreve" unicode="&#x14e;" horiz-adv-x="1544" d="M766 -24 Q461 -24 277.5 177 Q94 378 94 700 Q94 1046 281 1252 Q468 1458 790 1458 Q1087 1458 1268.5 1258 Q1450 1058 1450 735 Q1450 384 1264 180 Q1078 -24 766 -24 Z M778 1306 Q552 1306 411 1143 Q270 980 270 715 Q270 450 407.5 288.5 Q545 127 766 127 Q1002 127 1138 281 Q1274 435 1274 712 Q1274 996 1142 1151 Q1010 1306 778 1306 Z M1057 1820 Q1047 1707 968.5 1637.5 Q890 1568 778 1568 Q661 1568 587 1637 Q513 1706 508 1820 L608 1820 Q620 1665 780 1665 Q848 1665 896.5 1707 Q945 1749 955 1820 L1057 1820 Z " />
<glyph glyph-name="obreve" unicode="&#x14f;" horiz-adv-x="1200" d="M594 -24 Q367 -24 231.5 119.5 Q96 263 96 500 Q96 758 237 903 Q378 1048 618 1048 Q847 1048 975.5 907 Q1104 766 1104 516 Q1104 271 965.5 123.5 Q827 -24 594 -24 Z M606 910 Q448 910 356 802.5 Q264 695 264 506 Q264 324 357 219 Q450 114 606 114 Q765 114 850.5 217 Q936 320 936 510 Q936 702 850.5 806 Q765 910 606 910 Z M895 1470 Q885 1357 806.5 1287.5 Q728 1218 616 1218 Q499 1218 425 1287 Q351 1356 346 1470 L446 1470 Q458 1315 618 1315 Q686 1315 734.5 1357 Q783 1399 793 1470 L895 1470 Z " />
<glyph glyph-name="Rcommaaccent" unicode="&#x156;" horiz-adv-x="1225" d="M1216 0 L1016 0 L776 402 Q743 458 712 497.5 Q681 537 648.5 562 Q616 587 578.5 598.5 Q541 610 494 610 L356 610 L356 0 L188 0 L188 1434 L616 1434 Q710 1434 789.5 1410.5 Q869 1387 927.5 1339 Q986 1291 1019 1219.5 Q1052 1148 1052 1052 Q1052 977 1029.5 914.5 Q1007 852 965.5 803 Q924 754 865.5 719.5 Q807 685 734 666 L734 662 Q770 646 796.5 625.5 Q823 605 847 577 Q871 549 894.5 513.5 Q918 478 947 431 L1216 0 Z M356 1282 L356 762 L584 762 Q647 762 700.5 781 Q754 800 793 835.5 Q832 871 854 922.5 Q876 974 876 1038 Q876 1153 801.5 1217.5 Q727 1282 586 1282 L356 1282 Z M736 -119 L570 -379 L447 -379 L564 -119 L736 -119 Z " />
<glyph glyph-name="rcommaaccent" unicode="&#x157;" horiz-adv-x="712" d="M700 858 Q657 891 576 891 Q471 891 400.5 792 Q330 693 330 522 L330 0 L166 0 L166 1024 L330 1024 L330 813 L334 813 Q369 921 441 981.5 Q513 1042 602 1042 Q666 1042 700 1028 L700 858 Z M533 -119 L367 -379 L244 -379 L361 -119 L533 -119 Z " />
<glyph glyph-name="Scircumflex" unicode="&#x15c;" horiz-adv-x="1088" d="M121 58 L121 256 Q155 226 202.5 202 Q250 178 302.5 161.5 Q355 145 408 136 Q461 127 506 127 Q661 127 737.5 184.5 Q814 242 814 350 Q814 408 788.5 451 Q763 494 718 529.5 Q673 565 611.5 597.5 Q550 630 479 666 Q404 704 339 743 Q274 782 226 829 Q178 876 150.5 935.5 Q123 995 123 1075 Q123 1173 166 1245.5 Q209 1318 279 1365 Q349 1412 438.5 1435 Q528 1458 621 1458 Q833 1458 930 1407 L930 1218 Q803 1306 604 1306 Q549 1306 494 1294.5 Q439 1283 396 1257 Q353 1231 326 1190 Q299 1149 299 1090 Q299 1035 319.5 995 Q340 955 380 922 Q420 889 477.5 858 Q535 827 610 790 Q687 752 756 710 Q825 668 877 617 Q929 566 959.5 504 Q990 442 990 362 Q990 256 948.5 182.5 Q907 109 836.5 63 Q766 17 674 -3.5 Q582 -24 480 -24 Q446 -24 396 -18.5 Q346 -13 294 -2.5 Q242 8 195.5 23.5 Q149 39 121 58 Z M833 1566 L711 1566 L547 1796 L382 1566 L269 1566 L484 1898 L617 1898 L833 1566 Z " />
<glyph glyph-name="scircumflex" unicode="&#x15d;" horiz-adv-x="869" d="M104 37 L104 213 Q238 114 399 114 Q615 114 615 258 Q615 299 596.5 327.5 Q578 356 546.5 378 Q515 400 472.5 417.5 Q430 435 381 454 Q313 481 261.5 508.5 Q210 536 175.5 570.5 Q141 605 123.5 649 Q106 693 106 752 Q106 824 139 879.5 Q172 935 227 972.5 Q282 1010 352.5 1029 Q423 1048 498 1048 Q631 1048 736 1002 L736 836 Q623 910 476 910 Q430 910 393 899.5 Q356 889 329.5 870 Q303 851 288.5 824.5 Q274 798 274 766 Q274 726 288.5 699 Q303 672 331 651 Q359 630 399 613 Q439 596 490 576 Q558 550 612 522.5 Q666 495 704 460.5 Q742 426 762.5 381 Q783 336 783 274 Q783 198 749.5 142 Q716 86 660 49 Q604 12 531 -6 Q458 -24 378 -24 Q220 -24 104 37 Z M711 1218 L589 1218 L425 1448 L260 1218 L147 1218 L362 1550 L495 1550 L711 1218 Z " />
<glyph glyph-name="Tbar" unicode="&#x166;" horiz-adv-x="1073" d="M1036 1282 L622 1282 L622 796 L868 796 L868 641 L622 641 L622 0 L454 0 L454 641 L205 641 L205 796 L454 796 L454 1282 L41 1282 L41 1434 L1036 1434 L1036 1282 Z " />
<glyph glyph-name="tbar" unicode="&#x167;" horiz-adv-x="694" d="M631 547 L383 547 L383 307 Q383 204 417.5 160 Q452 116 534 116 Q594 116 641 150 L641 10 Q583 -22 488 -22 Q219 -22 219 278 L219 547 L56 547 L56 680 L219 680 L219 884 L43 884 L43 1024 L219 1024 L219 1274 Q223 1276 301 1301 L383 1327 L383 1024 L641 1024 L641 884 L383 884 L383 680 L631 680 L631 547 Z " />
<glyph glyph-name="Utilde" unicode="&#x168;" horiz-adv-x="1407" d="M1237 580 Q1237 -24 692 -24 Q170 -24 170 557 L170 1434 L338 1434 L338 568 Q338 127 710 127 Q1069 127 1069 553 L1069 1434 L1237 1434 L1237 580 Z M1027 1806 Q1027 1701 979 1634.5 Q931 1568 849 1568 Q778 1568 687 1620 Q610 1663 568 1663 Q480 1663 480 1550 L386 1550 Q386 1657 434 1721.5 Q482 1786 568 1786 Q633 1786 717 1734 Q791 1690 845 1690 Q929 1690 929 1806 L1027 1806 Z " />
<glyph glyph-name="utilde" unicode="&#x169;" horiz-adv-x="1159" d="M994 0 L830 0 L830 162 L826 162 Q724 -24 510 -24 Q144 -24 144 412 L144 1024 L307 1024 L307 438 Q307 114 555 114 Q675 114 752.5 202.5 Q830 291 830 434 L830 1024 L994 1024 L994 0 Z M890 1458 Q890 1353 842 1286.5 Q794 1220 712 1220 Q641 1220 550 1272 Q473 1315 431 1315 Q343 1315 343 1202 L249 1202 Q249 1309 297 1373.5 Q345 1438 431 1438 Q496 1438 580 1386 Q654 1342 708 1342 Q792 1342 792 1458 L890 1458 Z " />
<glyph glyph-name="Umacron" unicode="&#x16a;" horiz-adv-x="1407" d="M1237 580 Q1237 -24 692 -24 Q170 -24 170 557 L170 1434 L338 1434 L338 568 Q338 127 710 127 Q1069 127 1069 553 L1069 1434 L1237 1434 L1237 580 Z M955 1566 L447 1566 L447 1675 L955 1675 L955 1566 Z " />
<glyph glyph-name="umacron" unicode="&#x16b;" horiz-adv-x="1159" d="M994 0 L830 0 L830 162 L826 162 Q724 -24 510 -24 Q144 -24 144 412 L144 1024 L307 1024 L307 438 Q307 114 555 114 Q675 114 752.5 202.5 Q830 291 830 434 L830 1024 L994 1024 L994 0 Z M819 1218 L311 1218 L311 1327 L819 1327 L819 1218 Z " />
<glyph glyph-name="Ubreve" unicode="&#x16c;" horiz-adv-x="1407" d="M1237 580 Q1237 -24 692 -24 Q170 -24 170 557 L170 1434 L338 1434 L338 568 Q338 127 710 127 Q1069 127 1069 553 L1069 1434 L1237 1434 L1237 580 Z M974 1818 Q964 1705 885.5 1635.5 Q807 1566 695 1566 Q578 1566 504 1635 Q430 1704 425 1818 L525 1818 Q537 1663 697 1663 Q765 1663 813.5 1705 Q862 1747 872 1818 L974 1818 Z " />
<glyph glyph-name="ubreve" unicode="&#x16d;" horiz-adv-x="1159" d="M994 0 L830 0 L830 162 L826 162 Q724 -24 510 -24 Q144 -24 144 412 L144 1024 L307 1024 L307 438 Q307 114 555 114 Q675 114 752.5 202.5 Q830 291 830 434 L830 1024 L994 1024 L994 0 Z M839 1470 Q829 1357 750.5 1287.5 Q672 1218 560 1218 Q443 1218 369 1287 Q295 1356 290 1470 L390 1470 Q402 1315 562 1315 Q630 1315 678.5 1357 Q727 1399 737 1470 L839 1470 Z " />
<glyph glyph-name="Uogonek" unicode="&#x172;" horiz-adv-x="1407" d="M1237 580 Q1237 -24 692 -24 Q170 -24 170 557 L170 1434 L338 1434 L338 568 Q338 127 710 127 Q1069 127 1069 553 L1069 1434 L1237 1434 L1237 580 Z M866 0 Q716 -141 716 -223 Q716 -293 784 -293 Q814 -293 840 -280 L840 -387 Q810 -400 758 -400 Q682 -400 636 -360 Q590 -320 590 -250 Q590 -128 747 0 L866 0 Z " />
<glyph glyph-name="uogonek" unicode="&#x173;" horiz-adv-x="1159" d="M994 0 L830 0 L830 162 L826 162 Q724 -24 510 -24 Q144 -24 144 412 L144 1024 L307 1024 L307 438 Q307 114 555 114 Q675 114 752.5 202.5 Q830 291 830 434 L830 1024 L994 1024 L994 0 Z M994 0 Q844 -141 844 -223 Q844 -293 912 -293 Q942 -293 968 -280 L968 -387 Q938 -400 886 -400 Q810 -400 764 -360 Q718 -320 718 -250 Q718 -128 875 0 L994 0 Z " />
<glyph glyph-name="Wcircumflex" unicode="&#x174;" horiz-adv-x="1913" d="M1888 1434 L1483 0 L1286 0 L991 1048 Q972 1115 968 1194 L964 1194 Q958 1120 938 1050 L641 0 L446 0 L26 1434 L211 1434 L516 334 Q535 265 540 190 L545 190 Q550 243 576 334 L893 1434 L1054 1434 L1358 326 Q1374 269 1382 192 L1386 192 Q1390 244 1413 330 L1706 1434 L1888 1434 Z M1259 1566 L1137 1566 L973 1796 L808 1566 L695 1566 L910 1898 L1043 1898 L1259 1566 Z " />
<glyph glyph-name="wcircumflex" unicode="&#x175;" horiz-adv-x="1480" d="M1456 1024 L1149 0 L979 0 L768 733 Q756 775 752 828 L748 828 Q745 792 727 735 L498 0 L334 0 L24 1024 L196 1024 L408 254 Q418 219 422 162 L430 162 Q433 206 448 256 L684 1024 L834 1024 L1046 252 Q1056 215 1061 160 L1069 160 Q1071 199 1086 252 L1294 1024 L1456 1024 Z M1040 1218 L918 1218 L754 1448 L589 1218 L476 1218 L691 1550 L824 1550 L1040 1218 Z " />
<glyph glyph-name="Ycircumflex" unicode="&#x176;" horiz-adv-x="1132" d="M1120 1434 L647 530 L647 0 L479 0 L479 526 L18 1434 L209 1434 L530 786 Q536 774 565 698 L568 698 Q578 732 606 786 L942 1434 L1120 1434 Z M853 1565 L731 1565 L567 1795 L402 1565 L289 1565 L504 1897 L637 1897 L853 1565 Z " />
<glyph glyph-name="ycircumflex" unicode="&#x177;" horiz-adv-x="991" d="M981 1024 L510 -164 Q384 -482 156 -482 Q92 -482 49 -469 L49 -322 Q102 -340 146 -340 Q270 -340 332 -192 L414 2 L14 1024 L196 1024 L473 236 Q478 221 494 158 L500 158 Q505 182 520 234 L811 1024 L981 1024 Z M796 1218 L674 1218 L510 1448 L345 1218 L232 1218 L447 1550 L580 1550 L796 1218 Z " />
<glyph glyph-name="longs" unicode="&#x17f;" horiz-adv-x="494" d="M610 1372 Q564 1399 502 1399 Q330 1399 330 1182 L330 0 L166 0 L166 1190 Q166 1351 260.5 1444.5 Q355 1538 492 1538 Q566 1538 610 1520 L610 1372 Z " />
<glyph glyph-name="Aringacute" unicode="&#x1fa;" horiz-adv-x="1321" d="M1298 0 L1112 0 L960 402 L352 402 L209 0 L22 0 L551 1378 Q450 1430 450 1542 Q450 1631 510 1686 Q570 1741 662 1741 Q750 1741 806 1686.5 Q862 1632 862 1548 Q862 1436 766 1382 L1298 0 Z M656 1659 Q606 1659 574 1627.5 Q542 1596 542 1548 Q542 1434 656 1434 Q704 1434 737 1467 Q770 1500 770 1548 Q770 1597 737 1628 Q704 1659 656 1659 Z M905 553 L680 1164 Q669 1194 658 1260 L654 1260 Q644 1199 631 1164 L408 553 L905 553 Z M924 2130 L662 1802 L535 1802 L758 2130 L924 2130 Z " />
<glyph glyph-name="aringacute" unicode="&#x1fb;" horiz-adv-x="1042" d="M899 0 L735 0 L735 160 L731 160 Q624 -24 416 -24 Q263 -24 176.5 57 Q90 138 90 272 Q90 559 428 606 L735 649 Q735 910 524 910 Q339 910 190 784 L190 952 Q341 1048 538 1048 Q899 1048 899 666 L899 0 Z M735 518 L488 484 Q374 468 316 427.5 Q258 387 258 284 Q258 209 311.5 161.5 Q365 114 454 114 Q576 114 655.5 199.5 Q735 285 735 416 L735 518 Z M517 1114 Q430 1114 372.5 1166.5 Q315 1219 315 1304 Q315 1394 374 1448 Q433 1502 524 1502 Q613 1502 670 1448 Q727 1394 727 1310 Q727 1226 666 1170 Q605 1114 517 1114 Z M517 1421 Q469 1421 437 1388.5 Q405 1356 405 1308 Q405 1196 517 1196 Q567 1196 600 1228 Q633 1260 633 1308 Q633 1357 600 1389 Q567 1421 517 1421 Z M792 1894 L530 1566 L403 1566 L626 1894 L792 1894 Z " />
<glyph glyph-name="AEacute" unicode="&#x1fc;" horiz-adv-x="1762" d="M1667 0 L908 0 L908 402 L398 402 L205 0 L10 0 L710 1434 L1634 1434 L1634 1282 L1075 1282 L1075 805 L1594 805 L1594 654 L1075 654 L1075 152 L1667 152 L1667 0 Z M908 553 L908 1282 L813 1282 L467 553 L908 553 Z M1340 1894 L1078 1566 L951 1566 L1174 1894 L1340 1894 Z " />
<glyph glyph-name="aeacute" unicode="&#x1fd;" horiz-adv-x="1704" d="M1622 471 L897 471 Q900 300 988 207 Q1076 114 1229 114 Q1406 114 1550 228 L1550 74 Q1418 -24 1192 -24 Q922 -24 809 205 L805 205 Q660 -24 418 -24 Q265 -24 177.5 56.5 Q90 137 90 272 Q90 572 473 596 L735 612 Q735 910 520 910 Q345 910 190 788 L190 952 Q338 1048 538 1048 Q770 1048 838 848 L842 848 Q958 1048 1198 1048 Q1400 1048 1511 917.5 Q1622 787 1622 555 L1622 471 Z M1454 610 Q1452 754 1385.5 832 Q1319 910 1200 910 Q1084 910 1001 828 Q918 746 899 610 L1454 610 Z M735 410 L735 473 L532 461 Q393 453 324.5 412 Q256 371 256 276 Q256 203 309 158.5 Q362 114 452 114 Q571 114 653 198.5 Q735 283 735 410 Z M1121 1546 L859 1218 L732 1218 L955 1546 L1121 1546 Z " />
<glyph glyph-name="Oslashacute" unicode="&#x1fe;" horiz-adv-x="1544" d="M324 131 L172 -51 L94 14 L252 205 Q94 400 94 700 Q94 1043 280.5 1250.5 Q467 1458 790 1458 Q1024 1458 1192 1329 L1327 1491 L1405 1428 L1266 1262 Q1450 1062 1450 735 Q1450 384 1264 180 Q1078 -24 766 -24 Q500 -24 324 131 Z M1090 1204 Q964 1306 778 1306 Q551 1306 410.5 1142 Q270 978 270 715 Q270 492 368 342 L1090 1204 Z M1157 1130 L432 264 Q563 127 766 127 Q1002 127 1138 281.5 Q1274 436 1274 712 Q1274 972 1157 1130 Z M1030 1894 L768 1566 L641 1566 L864 1894 L1030 1894 Z " />
<glyph glyph-name="oslashacute" unicode="&#x1ff;" horiz-adv-x="1200" d="M1174 1048 L1006 868 Q1104 730 1104 522 Q1104 270 965 123 Q826 -24 594 -24 Q402 -24 276 78 L131 -82 L49 -4 L198 160 Q96 297 96 500 Q96 758 238 903 Q380 1048 620 1048 Q804 1048 928 950 L1090 1126 L1174 1048 Z M821 836 Q742 910 606 910 Q447 910 355.5 802.5 Q264 695 264 506 Q264 374 314 282 L821 836 Z M891 742 L383 190 Q470 114 604 114 Q767 114 852.5 218 Q938 322 938 512 Q938 646 891 742 Z M868 1546 L606 1218 L479 1218 L702 1546 L868 1546 Z " />
<glyph glyph-name="anoteleia" unicode="&#x387;" horiz-adv-x="444" d="M223 510 Q177 510 144.5 543 Q112 576 112 622 Q112 669 144.5 702 Q177 735 223 735 Q270 735 303 702 Q336 669 336 622 Q336 576 303 543 Q270 510 223 510 Z " />
<glyph glyph-name="Wgrave" unicode="&#x1e80;" horiz-adv-x="1913" d="M1888 1434 L1483 0 L1286 0 L991 1048 Q972 1115 968 1194 L964 1194 Q958 1120 938 1050 L641 0 L446 0 L26 1434 L211 1434 L516 334 Q535 265 540 190 L545 190 Q550 243 576 334 L893 1434 L1054 1434 L1358 326 Q1374 269 1382 192 L1386 192 Q1390 244 1413 330 L1706 1434 L1888 1434 Z M1143 1566 L1016 1566 L754 1894 L922 1894 L1143 1566 Z " />
<glyph glyph-name="wgrave" unicode="&#x1e81;" horiz-adv-x="1480" d="M1456 1024 L1149 0 L979 0 L768 733 Q756 775 752 828 L748 828 Q745 792 727 735 L498 0 L334 0 L24 1024 L196 1024 L408 254 Q418 219 422 162 L430 162 Q433 206 448 256 L684 1024 L834 1024 L1046 252 Q1056 215 1061 160 L1069 160 Q1071 199 1086 252 L1294 1024 L1456 1024 Z M908 1218 L781 1218 L519 1546 L687 1546 L908 1218 Z " />
<glyph glyph-name="Wacute" unicode="&#x1e82;" horiz-adv-x="1913" d="M1888 1434 L1483 0 L1286 0 L991 1048 Q972 1115 968 1194 L964 1194 Q958 1120 938 1050 L641 0 L446 0 L26 1434 L211 1434 L516 334 Q535 265 540 190 L545 190 Q550 243 576 334 L893 1434 L1054 1434 L1358 326 Q1374 269 1382 192 L1386 192 Q1390 244 1413 330 L1706 1434 L1888 1434 Z M1186 1894 L924 1566 L797 1566 L1020 1894 L1186 1894 Z " />
<glyph glyph-name="wacute" unicode="&#x1e83;" horiz-adv-x="1480" d="M1456 1024 L1149 0 L979 0 L768 733 Q756 775 752 828 L748 828 Q745 792 727 735 L498 0 L334 0 L24 1024 L196 1024 L408 254 Q418 219 422 162 L430 162 Q433 206 448 256 L684 1024 L834 1024 L1046 252 Q1056 215 1061 160 L1069 160 Q1071 199 1086 252 L1294 1024 L1456 1024 Z M976 1546 L714 1218 L587 1218 L810 1546 L976 1546 Z " />
<glyph glyph-name="Wdieresis" unicode="&#x1e84;" horiz-adv-x="1913" d="M1888 1434 L1483 0 L1286 0 L991 1048 Q972 1115 968 1194 L964 1194 Q958 1120 938 1050 L641 0 L446 0 L26 1434 L211 1434 L516 334 Q535 265 540 190 L545 190 Q550 243 576 334 L893 1434 L1054 1434 L1358 326 Q1374 269 1382 192 L1386 192 Q1390 244 1413 330 L1706 1434 L1888 1434 Z M1150 1567 Q1110 1567 1081 1595 Q1052 1623 1052 1666 Q1052 1708 1080 1736 Q1108 1764 1148 1764 Q1190 1764 1219 1735.5 Q1248 1707 1248 1666 Q1248 1625 1220 1596 Q1192 1567 1150 1567 Z M766 1567 Q724 1567 694.5 1596.5 Q665 1626 665 1666 Q665 1708 693.5 1736 Q722 1764 763 1764 Q804 1764 834 1735.5 Q864 1707 864 1666 Q864 1625 835 1596 Q806 1567 766 1567 Z " />
<glyph glyph-name="wdieresis" unicode="&#x1e85;" horiz-adv-x="1480" d="M1456 1024 L1149 0 L979 0 L768 733 Q756 775 752 828 L748 828 Q745 792 727 735 L498 0 L334 0 L24 1024 L196 1024 L408 254 Q418 219 422 162 L430 162 Q433 206 448 256 L684 1024 L834 1024 L1046 252 Q1056 215 1061 160 L1069 160 Q1071 199 1086 252 L1294 1024 L1456 1024 Z M934 1218 Q894 1218 865 1246 Q836 1274 836 1317 Q836 1359 864 1387 Q892 1415 932 1415 Q974 1415 1003 1386.5 Q1032 1358 1032 1317 Q1032 1276 1004 1247 Q976 1218 934 1218 Z M550 1218 Q508 1218 478.5 1247.5 Q449 1277 449 1317 Q449 1359 477.5 1387 Q506 1415 547 1415 Q588 1415 618 1386.5 Q648 1358 648 1317 Q648 1276 619 1247 Q590 1218 550 1218 Z " />
<glyph glyph-name="Ygrave" unicode="&#x1ef2;" horiz-adv-x="1132" d="M1120 1434 L647 530 L647 0 L479 0 L479 526 L18 1434 L209 1434 L530 786 Q536 774 565 698 L568 698 Q578 732 606 786 L942 1434 L1120 1434 Z M717 1566 L590 1566 L328 1894 L496 1894 L717 1566 Z " />
<glyph glyph-name="ygrave" unicode="&#x1ef3;" horiz-adv-x="991" d="M981 1024 L510 -164 Q384 -482 156 -482 Q92 -482 49 -469 L49 -322 Q102 -340 146 -340 Q270 -340 332 -192 L414 2 L14 1024 L196 1024 L473 236 Q478 221 494 158 L500 158 Q505 182 520 234 L811 1024 L981 1024 Z M629 1218 L502 1218 L240 1546 L408 1546 L629 1218 Z " />
<glyph glyph-name="quotereversed" unicode="&#x201b;" horiz-adv-x="469" d="M368 1012 L252 1012 L110 1458 L258 1458 L368 1012 Z " />
<glyph glyph-name="radicalex" unicode="&#x203e;" horiz-adv-x="850" d="M850 1396 L0 1396 L0 1516 L850 1516 L850 1396 Z " />
<glyph glyph-name="lira" unicode="&#x20a4;" horiz-adv-x="1104" d="M784 488 L488 488 L488 479 Q488 236 295 140 L1006 140 L1006 0 L106 0 L106 135 Q324 206 324 448 L324 488 L127 488 L127 628 L324 628 L324 764 L127 764 L127 905 L324 905 L324 1030 Q324 1218 433 1338 Q542 1458 715 1458 Q833 1458 928 1417 L928 1262 Q829 1319 717 1319 Q488 1319 488 1012 L488 905 L784 905 L784 764 L488 764 L488 628 L784 628 L784 488 Z " />
<glyph glyph-name="estimated" unicode="&#x212e;" horiz-adv-x="1229" d="M1144 530 L316 530 L317 160 Q437 39 613 39 Q868 39 1008 284 L1080 242 Q976 90 866.5 27.5 Q757 -35 614 -35 Q376 -35 230.5 126.5 Q85 288 85 530 Q85 784 233.5 940 Q382 1096 610 1096 Q826 1096 978 954 Q1130 812 1144 530 Z M912 604 L912 901 Q782 1024 609 1024 Q434 1024 316 901 L316 604 L912 604 Z " />
<glyph glyph-name="oneeighth" unicode="&#x215b;" horiz-adv-x="1888" d="M639 584 L135 584 L135 696 L320 696 L320 1290 L127 1235 L127 1360 L450 1456 L450 696 L639 696 L639 584 Z M1393 1434 L535 0 L391 0 L1250 1434 L1393 1434 Z M1591 448 Q1754 376 1754 223 Q1754 110 1672 45 Q1590 -20 1441 -20 Q1316 -20 1232.5 44.5 Q1149 109 1149 215 Q1149 368 1311 448 Q1180 522 1180 648 Q1180 748 1256.5 809 Q1333 870 1464 870 Q1581 870 1653.5 812 Q1726 754 1726 660 Q1726 526 1591 448 Z M1452 509 Q1588 566 1588 648 Q1588 751 1455 751 Q1395 751 1356.5 722.5 Q1318 694 1318 650 Q1318 565 1452 509 Z M1446 389 Q1287 335 1287 220 Q1287 169 1334 134.5 Q1381 100 1454 100 Q1525 100 1571 134 Q1617 168 1617 216 Q1617 330 1446 389 Z " />
<glyph glyph-name="threeeighths" unicode="&#x215c;" horiz-adv-x="1888" d="M129 616 L129 758 Q232 682 346 682 Q426 682 472 719.5 Q518 757 518 821 Q518 962 299 962 L215 962 L215 1080 L295 1080 Q492 1080 492 1214 Q492 1333 348 1333 Q254 1333 162 1264 L162 1403 Q249 1454 375 1454 Q488 1454 555 1394.5 Q622 1335 622 1239 Q622 1088 477 1034 L477 1030 Q654 988 654 828 Q654 711 569 637 Q484 563 342 563 Q205 563 129 616 Z M1465 1434 L607 0 L463 0 L1322 1434 L1465 1434 Z M1663 448 Q1826 376 1826 223 Q1826 110 1744 45 Q1662 -20 1513 -20 Q1388 -20 1304.5 44.5 Q1221 109 1221 215 Q1221 368 1383 448 Q1252 522 1252 648 Q1252 748 1328.5 809 Q1405 870 1536 870 Q1653 870 1725.5 812 Q1798 754 1798 660 Q1798 526 1663 448 Z M1524 509 Q1660 566 1660 648 Q1660 751 1527 751 Q1467 751 1428.5 722.5 Q1390 694 1390 650 Q1390 565 1524 509 Z M1518 389 Q1359 335 1359 220 Q1359 169 1406 134.5 Q1453 100 1526 100 Q1597 100 1643 134 Q1689 168 1689 216 Q1689 330 1518 389 Z " />
<glyph glyph-name="fiveeighths" unicode="&#x215d;" horiz-adv-x="1902" d="M143 606 L143 752 Q257 682 343 682 Q428 682 478.5 727 Q529 772 529 842 Q529 994 325 994 L170 986 L170 1438 L627 1438 L627 1314 L298 1314 L298 1114 Q480 1127 573.5 1051.5 Q667 976 667 848 Q667 722 579.5 642.5 Q492 563 341 563 Q217 563 143 606 Z M1467 1434 L609 0 L465 0 L1324 1434 L1467 1434 Z M1665 448 Q1828 376 1828 223 Q1828 110 1746 45 Q1664 -20 1515 -20 Q1390 -20 1306.5 44.5 Q1223 109 1223 215 Q1223 368 1385 448 Q1254 522 1254 648 Q1254 748 1330.5 809 Q1407 870 1538 870 Q1655 870 1727.5 812 Q1800 754 1800 660 Q1800 526 1665 448 Z M1526 509 Q1662 566 1662 648 Q1662 751 1529 751 Q1469 751 1430.5 722.5 Q1392 694 1392 650 Q1392 565 1526 509 Z M1520 389 Q1361 335 1361 220 Q1361 169 1408 134.5 Q1455 100 1528 100 Q1599 100 1645 134 Q1691 168 1691 216 Q1691 330 1520 389 Z " />
<glyph glyph-name="seveneighths" unicode="&#x215e;" horiz-adv-x="1827" d="M410 584 L264 584 L585 1326 L162 1326 L162 1444 L757 1444 L757 1391 L410 584 Z M1332 1434 L474 0 L330 0 L1189 1434 L1332 1434 Z M1530 448 Q1693 376 1693 223 Q1693 110 1611 45 Q1529 -20 1380 -20 Q1255 -20 1171.5 44.5 Q1088 109 1088 215 Q1088 368 1250 448 Q1119 522 1119 648 Q1119 748 1195.5 809 Q1272 870 1403 870 Q1520 870 1592.5 812 Q1665 754 1665 660 Q1665 526 1530 448 Z M1391 509 Q1527 566 1527 648 Q1527 751 1394 751 Q1334 751 1295.5 722.5 Q1257 694 1257 650 Q1257 565 1391 509 Z M1385 389 Q1226 335 1226 220 Q1226 169 1273 134.5 Q1320 100 1393 100 Q1464 100 1510 134 Q1556 168 1556 216 Q1556 330 1385 389 Z " />
<glyph glyph-name="uni037E" unicode="&#x37e;" horiz-adv-x="444" d="M226 824 Q179 824 146.5 857 Q114 890 114 936 Q114 982 146.5 1014 Q179 1046 226 1046 Q272 1046 305 1014 Q338 982 338 936 Q338 890 305 857 Q272 824 226 824 Z M316 228 L156 -264 L39 -264 L156 228 L316 228 Z " />
<glyph glyph-name="tonos" unicode="&#x384;" horiz-adv-x="558" d="M475 1537 L300 1174 L206 1174 L308 1537 L475 1537 Z " />
<glyph glyph-name="dieresistonos" unicode="&#x385;" horiz-adv-x="558" d="M470 1551 L295 1188 L202 1188 L303 1551 L470 1551 Z M545 1224 Q505 1224 476.5 1252 Q448 1280 448 1322 Q448 1364 476.5 1392 Q505 1420 544 1420 Q586 1420 615 1391.5 Q644 1363 644 1322 Q644 1280 615 1252 Q586 1224 545 1224 Z M60 1224 Q20 1224 -9 1252 Q-38 1280 -38 1322 Q-38 1364 -9 1392 Q20 1420 60 1420 Q101 1420 130.5 1391.5 Q160 1363 160 1322 Q160 1280 131 1252 Q102 1224 60 1224 Z " />
<glyph glyph-name="Alphatonos" unicode="&#x386;" horiz-adv-x="1321" d="M1298 0 L1112 0 L960 402 L352 402 L209 0 L22 0 L572 1434 L746 1434 L1298 0 Z M905 553 L680 1164 Q669 1194 658 1260 L654 1260 Q644 1199 631 1164 L408 553 L905 553 Z M314 1434 L139 1071 L45 1071 L147 1434 L314 1434 Z " />
<glyph glyph-name="Epsilontonos" unicode="&#x388;" horiz-adv-x="1168" d="M1078 0 L318 0 L318 1434 L1046 1434 L1046 1282 L486 1282 L486 805 L1004 805 L1004 654 L486 654 L486 152 L1078 152 L1078 0 Z M210 1434 L35 1071 L-59 1071 L43 1434 L210 1434 Z " />
<glyph glyph-name="Etatonos" unicode="&#x389;" horiz-adv-x="1585" d="M1396 0 L1228 0 L1228 654 L486 654 L486 0 L318 0 L318 1434 L486 1434 L486 805 L1228 805 L1228 1434 L1396 1434 L1396 0 Z M210 1434 L35 1071 L-59 1071 L43 1434 L210 1434 Z " />
<glyph glyph-name="Iotatonos" unicode="&#x38a;" horiz-adv-x="775" d="M726 1434 L726 1290 L586 1290 L586 144 L726 144 L726 0 L278 0 L278 144 L418 144 L418 1290 L278 1290 L278 1434 L726 1434 Z M211 1434 L36 1071 L-58 1071 L44 1434 L211 1434 Z " />
<glyph glyph-name="Omicrontonos" unicode="&#x38c;" horiz-adv-x="1640" d="M868 -24 Q563 -24 379.5 177 Q196 378 196 700 Q196 1046 383 1252 Q570 1458 892 1458 Q1189 1458 1370.5 1258 Q1552 1058 1552 735 Q1552 384 1366 180 Q1180 -24 868 -24 Z M880 1306 Q654 1306 513 1143 Q372 980 372 715 Q372 450 509.5 288.5 Q647 127 868 127 Q1104 127 1240 281 Q1376 435 1376 712 Q1376 996 1244 1151 Q1112 1306 880 1306 Z M222 1434 L47 1071 L-47 1071 L55 1434 L222 1434 Z " />
<glyph glyph-name="Upsilontonos" unicode="&#x38e;" horiz-adv-x="1366" d="M1352 1434 L879 530 L879 0 L711 0 L711 526 L250 1434 L441 1434 L762 786 Q768 774 797 698 L800 698 Q810 732 838 786 L1174 1434 L1352 1434 Z M192 1434 L17 1071 L-77 1071 L25 1434 L192 1434 Z " />
<glyph glyph-name="Omegatonos" unicode="&#x38f;" horiz-adv-x="1692" d="M1595 0 L1076 0 L1076 147 Q1421 402 1421 780 Q1421 1025 1282 1167.5 Q1143 1310 924 1310 Q702 1310 561 1168 Q420 1026 420 781 Q420 403 766 147 L766 0 L246 0 L246 148 L594 147 Q246 382 246 785 Q246 1098 431 1278 Q616 1458 918 1458 Q1227 1458 1411 1279.5 Q1595 1101 1595 786 Q1595 384 1248 147 L1595 148 L1595 0 Z M222 1434 L47 1071 L-47 1071 L55 1434 L222 1434 Z " />
<glyph glyph-name="iotadieresistonos" unicode="&#x390;" horiz-adv-x="546" d="M520 10 Q458 -12 399 -12 Q166 -12 166 265 L166 1024 L329 1024 L329 270 Q329 132 430 132 Q472 132 520 150 L520 10 Z M430 1551 L255 1188 L162 1188 L263 1551 L430 1551 Z M505 1224 Q465 1224 436.5 1252 Q408 1280 408 1322 Q408 1364 436.5 1392 Q465 1420 504 1420 Q546 1420 575 1391.5 Q604 1363 604 1322 Q604 1280 575 1252 Q546 1224 505 1224 Z M20 1224 Q-20 1224 -49 1252 Q-78 1280 -78 1322 Q-78 1364 -49 1392 Q-20 1420 20 1420 Q61 1420 90.5 1391.5 Q120 1363 120 1322 Q120 1280 91 1252 Q62 1224 20 1224 Z " />
<glyph glyph-name="Alpha" unicode="&#x391;" horiz-adv-x="1321" d="M1298 0 L1112 0 L960 402 L352 402 L209 0 L22 0 L572 1434 L746 1434 L1298 0 Z M905 553 L680 1164 Q669 1194 658 1260 L654 1260 Q644 1199 631 1164 L408 553 L905 553 Z " />
<glyph glyph-name="Beta" unicode="&#x392;" horiz-adv-x="1174" d="M188 0 L188 1434 L596 1434 Q782 1434 891 1343 Q1000 1252 1000 1106 Q1000 984 934 894 Q868 804 752 766 L752 762 Q897 745 984 652.5 Q1071 560 1071 412 Q1071 228 939 114 Q807 0 606 0 L188 0 Z M356 1282 L356 819 L528 819 Q666 819 745 885.5 Q824 952 824 1073 Q824 1282 549 1282 L356 1282 Z M356 668 L356 152 L584 152 Q732 152 813.5 222 Q895 292 895 414 Q895 668 549 668 L356 668 Z " />
<glyph glyph-name="Epsilon" unicode="&#x395;" horiz-adv-x="1036" d="M948 0 L188 0 L188 1434 L916 1434 L916 1282 L356 1282 L356 805 L874 805 L874 654 L356 654 L356 152 L948 152 L948 0 Z " />
<glyph glyph-name="Zeta" unicode="&#x396;" horiz-adv-x="1168" d="M1124 1394 L284 152 L1104 152 L1104 0 L33 0 L33 47 L866 1282 L100 1282 L100 1434 L1124 1434 L1124 1394 Z " />
<glyph glyph-name="Eta" unicode="&#x397;" horiz-adv-x="1454" d="M1266 0 L1098 0 L1098 654 L356 654 L356 0 L188 0 L188 1434 L356 1434 L356 805 L1098 805 L1098 1434 L1266 1434 L1266 0 Z " />
<glyph glyph-name="Iota" unicode="&#x399;" horiz-adv-x="545" d="M496 1434 L496 1290 L356 1290 L356 144 L496 144 L496 0 L48 0 L48 144 L188 144 L188 1290 L48 1290 L48 1434 L496 1434 Z " />
<glyph glyph-name="Kappa" unicode="&#x39a;" horiz-adv-x="1188" d="M1186 0 L952 0 L398 656 Q367 693 360 706 L356 706 L356 0 L188 0 L188 1434 L356 1434 L356 760 L360 760 Q374 782 398 809 L934 1434 L1143 1434 L528 746 L1186 0 Z " />
<glyph glyph-name="Lambda" unicode="&#x39b;" horiz-adv-x="1288" d="M1263 0 L1076 0 L672 1150 Q656 1197 644 1268 L640 1268 Q630 1206 610 1149 L204 0 L24 0 L550 1434 L740 1434 L1263 0 Z " />
<glyph glyph-name="Mu" unicode="&#x39c;" horiz-adv-x="1839" d="M1650 0 L1483 0 L1483 962 Q1483 1076 1497 1241 L1493 1241 Q1469 1144 1450 1102 L960 0 L878 0 L389 1094 Q368 1142 346 1241 L342 1241 Q350 1155 350 960 L350 0 L188 0 L188 1434 L410 1434 L850 434 Q901 319 916 262 L922 262 Q965 380 991 438 L1440 1434 L1650 1434 L1650 0 Z " />
<glyph glyph-name="Nu" unicode="&#x39d;" horiz-adv-x="1532" d="M1344 0 L1138 0 L400 1143 Q372 1186 354 1233 L348 1233 Q356 1187 356 1036 L356 0 L188 0 L188 1434 L406 1434 L1124 309 Q1169 239 1182 213 L1186 213 Q1176 275 1176 424 L1176 1434 L1344 1434 L1344 0 Z " />
<glyph glyph-name="Xi" unicode="&#x39e;" horiz-adv-x="1044" d="M960 1274 L84 1274 L84 1434 L960 1434 L960 1274 Z M822 648 L223 648 L223 801 L822 801 L822 648 Z M987 0 L58 0 L58 162 L987 162 L987 0 Z " />
<glyph glyph-name="Omicron" unicode="&#x39f;" horiz-adv-x="1544" d="M766 -24 Q461 -24 277.5 177 Q94 378 94 700 Q94 1046 281 1252 Q468 1458 790 1458 Q1087 1458 1268.5 1258 Q1450 1058 1450 735 Q1450 384 1264 180 Q1078 -24 766 -24 Z M778 1306 Q552 1306 411 1143 Q270 980 270 715 Q270 450 407.5 288.5 Q545 127 766 127 Q1002 127 1138 281 Q1274 435 1274 712 Q1274 996 1142 1151 Q1010 1306 778 1306 Z " />
<glyph glyph-name="Pi" unicode="&#x3a0;" horiz-adv-x="1460" d="M1276 0 L1106 0 L1106 1278 L357 1278 L357 0 L188 0 L188 1434 L1276 1434 L1276 0 Z " />
<glyph glyph-name="Rho" unicode="&#x3a1;" horiz-adv-x="1147" d="M356 542 L356 0 L188 0 L188 1434 L582 1434 Q812 1434 938.5 1322 Q1065 1210 1065 1006 Q1065 802 924.5 672 Q784 542 545 542 L356 542 Z M356 1282 L356 694 L532 694 Q706 694 797.5 773.5 Q889 853 889 998 Q889 1282 553 1282 L356 1282 Z " />
<glyph glyph-name="Sigma" unicode="&#x3a3;" horiz-adv-x="1057" d="M1008 0 L46 0 L46 78 L511 738 L88 1344 L88 1434 L946 1434 L946 1279 L333 1279 L712 744 L292 148 L1008 148 L1008 0 Z " />
<glyph glyph-name="Tau" unicode="&#x3a4;" horiz-adv-x="1073" d="M1036 1282 L622 1282 L622 0 L454 0 L454 1282 L41 1282 L41 1434 L1036 1434 L1036 1282 Z " />
<glyph glyph-name="Upsilon" unicode="&#x3a5;" horiz-adv-x="1132" d="M1120 1434 L647 530 L647 0 L479 0 L479 526 L18 1434 L209 1434 L530 786 Q536 774 565 698 L568 698 Q578 732 606 786 L942 1434 L1120 1434 Z " />
<glyph glyph-name="Chi" unicode="&#x3a7;" horiz-adv-x="1208" d="M1178 0 L973 0 L643 549 Q628 574 610 620 L606 620 Q596 597 572 549 L232 0 L26 0 L506 721 L64 1434 L270 1434 L563 930 Q592 880 614 830 L618 830 Q650 896 674 934 L979 1434 L1172 1434 L721 723 L1178 0 Z " />
<glyph glyph-name="Psi" unicode="&#x3a8;" horiz-adv-x="1589" d="M872 1434 L872 538 L929 538 Q1291 538 1291 904 L1291 1434 L1454 1434 L1454 904 Q1454 677 1311 533.5 Q1168 390 929 390 L872 390 L872 0 L717 0 L717 390 L660 390 Q420 390 278 533.5 Q136 677 136 904 L136 1434 L298 1434 L298 904 Q298 538 660 538 L717 538 L717 1434 L872 1434 Z " />
<glyph glyph-name="Omega" unicode="&#x3a9;" horiz-adv-x="1546" d="M1449 0 L930 0 L930 147 Q1275 402 1275 780 Q1275 1025 1136 1167.5 Q997 1310 778 1310 Q556 1310 415 1168 Q274 1026 274 781 Q274 403 620 147 L620 0 L100 0 L100 148 L448 147 Q100 382 100 785 Q100 1098 285 1278 Q470 1458 772 1458 Q1081 1458 1265 1279.5 Q1449 1101 1449 786 Q1449 384 1102 147 L1449 148 L1449 0 Z " />
<glyph glyph-name="Iotadieresis" unicode="&#x3aa;" horiz-adv-x="545" d="M496 1434 L496 1290 L356 1290 L356 144 L496 144 L496 0 L48 0 L48 144 L188 144 L188 1290 L48 1290 L48 1434 L496 1434 Z M470 1566 Q430 1566 401 1594 Q372 1622 372 1665 Q372 1707 400 1735 Q428 1763 468 1763 Q510 1763 539 1734.5 Q568 1706 568 1665 Q568 1624 540 1595 Q512 1566 470 1566 Z M86 1566 Q44 1566 14.5 1595.5 Q-15 1625 -15 1665 Q-15 1707 13.5 1735 Q42 1763 83 1763 Q124 1763 154 1734.5 Q184 1706 184 1665 Q184 1624 155 1595 Q126 1566 86 1566 Z " />
<glyph glyph-name="Upsilondieresis" unicode="&#x3ab;" horiz-adv-x="1132" d="M1120 1434 L647 530 L647 0 L479 0 L479 526 L18 1434 L209 1434 L530 786 Q536 774 565 698 L568 698 Q578 732 606 786 L942 1434 L1120 1434 Z M759 1565 Q719 1565 690 1593 Q661 1621 661 1664 Q661 1706 689 1734 Q717 1762 757 1762 Q799 1762 828 1733.5 Q857 1705 857 1664 Q857 1623 829 1594 Q801 1565 759 1565 Z M375 1565 Q333 1565 303.5 1594.5 Q274 1624 274 1664 Q274 1706 302.5 1734 Q331 1762 372 1762 Q413 1762 443 1733.5 Q473 1705 473 1664 Q473 1623 444 1594 Q415 1565 375 1565 Z " />
<glyph glyph-name="alphatonos" unicode="&#x3ac;" horiz-adv-x="1258" d="M1221 5 Q1168 -8 1126 -8 Q972 -8 918 285 L914 285 Q766 -24 500 -24 Q314 -24 202 119.5 Q90 263 90 482 Q90 732 219 890 Q348 1048 568 1048 Q694 1048 793 973 Q892 898 943 762 L947 762 L1032 1024 L1204 1024 L1011 522 Q1045 303 1083 224.5 Q1121 146 1181 146 Q1204 146 1221 151 L1221 5 Z M873 520 Q835 710 757 811 Q679 912 569 912 Q427 912 342.5 791 Q258 670 258 492 Q258 334 329.5 227 Q401 120 522 120 Q628 120 714.5 210.5 Q801 301 859 477 L873 520 Z M796 1537 L621 1174 L527 1174 L629 1537 L796 1537 Z " />
<glyph glyph-name="epsilontonos" unicode="&#x3ad;" horiz-adv-x="897" d="M827 22 Q697 -25 502 -25 Q307 -25 194.5 57.5 Q82 140 82 277 Q82 370 151.5 438 Q221 506 335 527 L335 531 Q249 549 185 613.5 Q121 678 121 761 Q121 897 227.5 973 Q334 1049 512 1049 Q655 1049 782 1004 L782 839 Q649 910 502 910 Q287 910 287 763 Q287 688 368 642 Q449 596 574 596 Q647 596 692 600 L692 454 Q619 458 552 458 Q248 458 248 280 Q248 205 318.5 159.5 Q389 114 517 114 Q684 114 827 187 L827 22 Z M705 1537 L530 1174 L436 1174 L538 1537 L705 1537 Z " />
<glyph glyph-name="etatonos" unicode="&#x3ae;" horiz-adv-x="1178" d="M1016 -404 L850 -404 L850 572 Q850 899 614 899 Q490 899 409.5 810.5 Q329 722 329 587 L329 0 L166 0 L166 694 Q166 928 130 1024 L298 1024 Q326 950 326 851 L330 851 Q441 1048 670 1048 Q1016 1048 1016 630 L1016 -404 Z M799 1537 L624 1174 L530 1174 L632 1537 L799 1537 Z " />
<glyph glyph-name="iotatonos" unicode="&#x3af;" horiz-adv-x="546" d="M520 10 Q458 -12 399 -12 Q166 -12 166 265 L166 1024 L329 1024 L329 270 Q329 132 430 132 Q472 132 520 150 L520 10 Z M444 1537 L269 1174 L175 1174 L277 1537 L444 1537 Z " />
<glyph glyph-name="upsilondieresistonos" unicode="&#x3b0;" horiz-adv-x="1132" d="M174 711 Q174 802 153.5 844.5 Q133 887 77 887 Q51 887 20 880 L20 1018 Q68 1031 115 1031 Q239 1031 287.5 957 Q336 883 336 718 L336 461 Q336 120 605 120 Q732 120 802.5 208.5 Q873 297 873 458 Q873 757 726 1024 L909 1024 Q1038 774 1038 465 Q1038 238 922 106 Q806 -26 605 -26 Q397 -26 285.5 92 Q174 210 174 432 L174 711 Z M733 1551 L558 1188 L465 1188 L566 1551 L733 1551 Z M808 1224 Q768 1224 739.5 1252 Q711 1280 711 1322 Q711 1364 739.5 1392 Q768 1420 807 1420 Q849 1420 878 1391.5 Q907 1363 907 1322 Q907 1280 878 1252 Q849 1224 808 1224 Z M323 1224 Q283 1224 254 1252 Q225 1280 225 1322 Q225 1364 254 1392 Q283 1420 323 1420 Q364 1420 393.5 1391.5 Q423 1363 423 1322 Q423 1280 394 1252 Q365 1224 323 1224 Z " />
<glyph glyph-name="beta" unicode="&#x3b2;" horiz-adv-x="1122" d="M329 46 L329 -481 L167 -481 L167 1115 Q167 1306 277 1419 Q387 1532 572 1532 Q745 1532 844.5 1441.5 Q944 1351 944 1191 Q944 1071 867.5 966.5 Q791 862 669 823 L669 819 Q850 790 947.5 682.5 Q1045 575 1045 409 Q1045 216 924 95.5 Q803 -25 606 -25 Q454 -25 329 46 Z M497 741 L497 872 Q620 889 699.5 975.5 Q779 1062 779 1171 Q779 1392 569 1392 Q453 1392 391 1315 Q329 1238 329 1098 L329 202 Q469 115 603 115 Q732 115 804.5 189.5 Q877 264 877 398 Q877 701 497 741 Z " />
<glyph glyph-name="gamma" unicode="&#x3b3;" horiz-adv-x="1063" d="M567 -69 Q567 -389 563 -481 L388 -481 Q403 -312 403 14 Q363 229 245 529.5 Q127 830 5 1024 L193 1024 Q442 580 536 143 L540 143 Q706 387 768.5 558.5 Q831 730 831 894 Q831 956 821 1024 L992 1024 Q998 971 998 939 Q998 805 968 676 Q938 547 874.5 420.5 Q811 294 762 223 L567 -69 Z " />
<glyph glyph-name="zeta" unicode="&#x3b6;" horiz-adv-x="905" d="M825 -309 L646 -309 Q744 -230 744 -153 Q744 -85 681.5 -53.5 Q619 -22 481 -4 Q76 46 76 451 Q76 885 672 1379 L672 1383 L236 1383 L236 1516 L839 1516 L839 1381 Q246 864 246 454 Q246 204 534 157 Q745 122 820 52.5 Q895 -17 895 -128 Q895 -228 825 -309 Z " />
<glyph glyph-name="eta" unicode="&#x3b7;" horiz-adv-x="1178" d="M1016 -404 L850 -404 L850 572 Q850 899 614 899 Q490 899 409.5 810.5 Q329 722 329 587 L329 0 L166 0 L166 694 Q166 928 130 1024 L298 1024 Q326 950 326 851 L330 851 Q441 1048 670 1048 Q1016 1048 1016 630 L1016 -404 Z " />
<glyph glyph-name="theta" unicode="&#x3b8;" horiz-adv-x="1201" d="M590 -24 Q357 -24 227 177 Q97 378 97 742 Q97 1125 232.5 1329.5 Q368 1534 622 1534 Q1104 1534 1104 767 Q1104 389 969.5 182.5 Q835 -24 590 -24 Z M934 836 Q916 1394 605 1394 Q455 1394 365 1242.5 Q275 1091 265 836 L934 836 Z M935 704 L264 704 Q269 417 358 266.5 Q447 116 604 116 Q757 116 843.5 268.5 Q930 421 935 704 Z " />
<glyph glyph-name="iota" unicode="&#x3b9;" horiz-adv-x="546" d="M520 10 Q458 -12 399 -12 Q166 -12 166 265 L166 1024 L329 1024 L329 270 Q329 132 430 132 Q472 132 520 150 L520 10 Z " />
<glyph glyph-name="kappa" unicode="&#x3ba;" horiz-adv-x="1073" d="M1043 0 L840 0 L470 500 L329 348 L329 0 L166 0 L166 1024 L329 1024 L329 526 L604 838 Q721 971 777.5 1004.5 Q834 1038 880 1038 Q952 1038 986 1031 L986 886 Q956 894 906 894 Q840 894 696 738 L581 613 L1043 0 Z " />
<glyph glyph-name="lambda" unicode="&#x3bb;" horiz-adv-x="1020" d="M991 0 L814 0 L535 827 L179 0 L-2 0 L461 1016 L394 1213 Q341 1368 238 1368 Q184 1368 116 1349 L116 1506 Q180 1518 246 1518 Q358 1518 427.5 1454.5 Q497 1391 559 1213 L991 0 Z " />
<glyph glyph-name="mu" unicode="&#x3bc;" horiz-adv-x="1182" d="M840 174 Q752 -24 553 -24 Q398 -24 334 100 L330 100 L330 -481 L167 -481 L167 1024 L330 1024 L330 400 Q330 278 395.5 201 Q461 124 569 124 Q685 124 752 212 Q819 300 819 440 L819 1024 L982 1024 L982 303 Q982 137 1104 137 Q1127 137 1144 142 L1144 5 Q1091 -8 1049 -8 Q964 -8 916 36 Q868 80 846 174 L840 174 Z " />
<glyph glyph-name="nu" unicode="&#x3bd;" horiz-adv-x="1077" d="M584 0 L420 0 L12 1024 L193 1024 L528 156 Q800 499 800 814 Q800 936 766 1024 L943 1024 Q966 954 966 838 Q966 460 584 0 Z " />
<glyph glyph-name="xi" unicode="&#x3be;" horiz-adv-x="911" d="M816 -316 L637 -316 Q734 -238 734 -155 Q734 -96 687.5 -59.5 Q641 -23 479 -3 Q286 22 181.5 129.5 Q77 237 77 410 Q77 542 158.5 645 Q240 748 390 803 Q283 832 225.5 897.5 Q168 963 168 1052 Q168 1164 264 1253 Q360 1342 524 1381 L524 1388 Q204 1383 166 1383 L166 1517 L772 1517 L772 1380 Q573 1349 454 1266.5 Q335 1184 335 1069 Q335 998 379 949 Q423 900 491.5 880 Q560 860 605 860 Q628 860 678 863 Q727 866 756 866 L756 716 Q708 719 643 719 Q473 719 359.5 638.5 Q246 558 246 423 Q246 204 530 159 Q731 127 808.5 57.5 Q886 -12 886 -130 Q886 -235 816 -316 Z " />
<glyph glyph-name="omicron" unicode="&#x3bf;" horiz-adv-x="1200" d="M594 -24 Q367 -24 231.5 119.5 Q96 263 96 500 Q96 758 237 903 Q378 1048 618 1048 Q847 1048 975.5 907 Q1104 766 1104 516 Q1104 271 965.5 123.5 Q827 -24 594 -24 Z M606 910 Q448 910 356 802.5 Q264 695 264 506 Q264 324 357 219 Q450 114 606 114 Q765 114 850.5 217 Q936 320 936 510 Q936 702 850.5 806 Q765 910 606 910 Z " />
<glyph glyph-name="rho" unicode="&#x3c1;" horiz-adv-x="1200" d="M328 99 L324 99 L324 -396 L161 -396 L161 526 Q161 773 276 910.5 Q391 1048 613 1048 Q836 1048 970 901 Q1104 754 1104 529 Q1104 268 980.5 122 Q857 -24 636 -24 Q443 -24 328 99 Z M324 259 Q363 197 445 156.5 Q527 116 616 116 Q934 116 934 520 Q934 690 845 799 Q756 908 616 908 Q473 908 398.5 809 Q324 710 324 524 L324 259 Z " />
<glyph glyph-name="sigma1" unicode="&#x3c2;" horiz-adv-x="943" d="M827 -316 L646 -316 Q744 -240 744 -152 Q744 -82 682.5 -50.5 Q621 -19 489 -2 Q295 23 191 138 Q87 253 87 431 Q87 711 238.5 880 Q390 1049 626 1049 Q753 1049 854 997 L854 830 Q740 909 611 909 Q458 909 357.5 778 Q257 647 257 450 Q257 379 280 325 Q303 271 347 236.5 Q391 202 420.5 193 Q450 184 731 109 Q897 47 897 -130 Q897 -235 827 -316 Z " />
<glyph glyph-name="upsilon" unicode="&#x3c5;" horiz-adv-x="1132" d="M174 711 Q174 802 153.5 844.5 Q133 887 77 887 Q51 887 20 880 L20 1018 Q68 1031 115 1031 Q239 1031 287.5 957 Q336 883 336 718 L336 461 Q336 120 605 120 Q732 120 802.5 208.5 Q873 297 873 458 Q873 757 726 1024 L909 1024 Q1038 774 1038 465 Q1038 238 922 106 Q806 -26 605 -26 Q397 -26 285.5 92 Q174 210 174 432 L174 711 Z " />
<glyph glyph-name="chi" unicode="&#x3c7;" horiz-adv-x="1102" d="M1094 -470 Q1051 -479 1002 -479 Q912 -479 847 -412 Q782 -345 707 -173 L548 190 L197 -467 L12 -467 L466 357 L292 750 Q226 898 154 898 Q106 898 66 884 L66 1038 Q100 1048 173 1048 Q259 1048 312.5 1002 Q366 956 417 836 L557 506 L830 1024 L1015 1024 L640 344 L876 -180 Q944 -330 1016 -330 Q1053 -330 1094 -314 L1094 -470 Z " />
<glyph glyph-name="psi" unicode="&#x3c8;" horiz-adv-x="1536" d="M1384 556 Q1384 288 1241.5 132.5 Q1099 -23 866 -23 L842 -23 L842 -482 L694 -482 L694 -23 L670 -23 Q435 -23 293.5 132 Q152 287 152 556 L152 1024 L318 1024 L318 556 Q318 360 418 240.5 Q518 121 670 121 L694 121 L694 1331 L842 1331 L842 121 L866 121 Q1016 121 1117 240 Q1218 359 1218 556 L1218 1024 L1384 1024 L1384 556 Z " />
<glyph glyph-name="omega" unicode="&#x3c9;" horiz-adv-x="1655" d="M829 168 L825 168 Q722 -23 520 -23 Q331 -23 225 104.5 Q119 232 119 456 Q119 714 245 1024 L428 1024 Q285 705 285 450 Q285 291 346 206 Q407 121 516 121 Q746 121 746 467 L746 750 L910 750 L910 467 Q910 121 1139 121 Q1246 121 1307.5 206 Q1369 291 1369 450 Q1369 705 1227 1024 L1409 1024 Q1536 713 1536 456 Q1536 231 1429.5 104 Q1323 -23 1132 -23 Q930 -23 829 168 Z " />
<glyph glyph-name="iotadieresis" unicode="&#x3ca;" horiz-adv-x="546" d="M520 10 Q458 -12 399 -12 Q166 -12 166 265 L166 1024 L329 1024 L329 270 Q329 132 430 132 Q472 132 520 150 L520 10 Z M466 1202 Q426 1202 397 1230 Q368 1258 368 1301 Q368 1343 396 1371 Q424 1399 464 1399 Q506 1399 535 1370.5 Q564 1342 564 1301 Q564 1260 536 1231 Q508 1202 466 1202 Z M82 1202 Q40 1202 10.5 1231.5 Q-19 1261 -19 1301 Q-19 1343 9.5 1371 Q38 1399 79 1399 Q120 1399 150 1370.5 Q180 1342 180 1301 Q180 1260 151 1231 Q122 1202 82 1202 Z " />
<glyph glyph-name="upsilondieresis" unicode="&#x3cb;" horiz-adv-x="1132" d="M174 711 Q174 802 153.5 844.5 Q133 887 77 887 Q51 887 20 880 L20 1018 Q68 1031 115 1031 Q239 1031 287.5 957 Q336 883 336 718 L336 461 Q336 120 605 120 Q732 120 802.5 208.5 Q873 297 873 458 Q873 757 726 1024 L909 1024 Q1038 774 1038 465 Q1038 238 922 106 Q806 -26 605 -26 Q397 -26 285.5 92 Q174 210 174 432 L174 711 Z M760 1202 Q720 1202 691 1230 Q662 1258 662 1301 Q662 1343 690 1371 Q718 1399 758 1399 Q800 1399 829 1370.5 Q858 1342 858 1301 Q858 1260 830 1231 Q802 1202 760 1202 Z M376 1202 Q334 1202 304.5 1231.5 Q275 1261 275 1301 Q275 1343 303.5 1371 Q332 1399 373 1399 Q414 1399 444 1370.5 Q474 1342 474 1301 Q474 1260 445 1231 Q416 1202 376 1202 Z " />
<glyph glyph-name="omicrontonos" unicode="&#x3cc;" horiz-adv-x="1200" d="M594 -24 Q367 -24 231.5 119.5 Q96 263 96 500 Q96 758 237 903 Q378 1048 618 1048 Q847 1048 975.5 907 Q1104 766 1104 516 Q1104 271 965.5 123.5 Q827 -24 594 -24 Z M606 910 Q448 910 356 802.5 Q264 695 264 506 Q264 324 357 219 Q450 114 606 114 Q765 114 850.5 217 Q936 320 936 510 Q936 702 850.5 806 Q765 910 606 910 Z M771 1537 L596 1174 L502 1174 L604 1537 L771 1537 Z " />
<glyph glyph-name="upsilontonos" unicode="&#x3cd;" horiz-adv-x="1132" d="M174 711 Q174 802 153.5 844.5 Q133 887 77 887 Q51 887 20 880 L20 1018 Q68 1031 115 1031 Q239 1031 287.5 957 Q336 883 336 718 L336 461 Q336 120 605 120 Q732 120 802.5 208.5 Q873 297 873 458 Q873 757 726 1024 L909 1024 Q1038 774 1038 465 Q1038 238 922 106 Q806 -26 605 -26 Q397 -26 285.5 92 Q174 210 174 432 L174 711 Z M746 1537 L571 1174 L477 1174 L579 1537 L746 1537 Z " />
<glyph glyph-name="omegatonos" unicode="&#x3ce;" horiz-adv-x="1655" d="M829 168 L825 168 Q722 -23 520 -23 Q331 -23 225 104.5 Q119 232 119 456 Q119 714 245 1024 L428 1024 Q285 705 285 450 Q285 291 346 206 Q407 121 516 121 Q746 121 746 467 L746 750 L910 750 L910 467 Q910 121 1139 121 Q1246 121 1307.5 206 Q1369 291 1369 450 Q1369 705 1227 1024 L1409 1024 Q1536 713 1536 456 Q1536 231 1429.5 104 Q1323 -23 1132 -23 Q930 -23 829 168 Z M989 1537 L814 1174 L720 1174 L822 1537 L989 1537 Z " />
<glyph glyph-name="uni0401" unicode="&#x401;" horiz-adv-x="1036" d="M948 0 L188 0 L188 1434 L916 1434 L916 1282 L356 1282 L356 805 L874 805 L874 654 L356 654 L356 152 L948 152 L948 0 Z M749 1566 Q709 1566 680 1594 Q651 1622 651 1665 Q651 1707 679 1735 Q707 1763 747 1763 Q789 1763 818 1734.5 Q847 1706 847 1665 Q847 1624 819 1595 Q791 1566 749 1566 Z M365 1566 Q323 1566 293.5 1595.5 Q264 1625 264 1665 Q264 1707 292.5 1735 Q321 1763 362 1763 Q403 1763 433 1734.5 Q463 1706 463 1665 Q463 1624 434 1595 Q405 1566 365 1566 Z " />
<glyph glyph-name="uni0402" unicode="&#x402;" horiz-adv-x="1434" d="M766 6 L766 160 Q832 127 926 127 Q1023 127 1080.5 196.5 Q1138 266 1138 385 Q1138 524 1053.5 601 Q969 678 817 678 L568 678 L568 0 L400 0 L400 1282 L41 1282 L41 1434 L1036 1434 L1036 1282 L568 1282 L568 826 L821 826 Q1047 826 1178.5 711 Q1310 596 1310 387 Q1310 195 1210.5 88.5 Q1111 -18 930 -18 Q838 -18 766 6 Z " />
<glyph glyph-name="uni0403" unicode="&#x403;" horiz-adv-x="966" d="M932 1278 L357 1278 L357 0 L188 0 L188 1434 L932 1434 L932 1278 Z M860 1894 L598 1566 L471 1566 L694 1894 L860 1894 Z " />
<glyph glyph-name="uni0404" unicode="&#x404;" horiz-adv-x="1264" d="M1157 60 Q999 -24 764 -24 Q461 -24 277.5 173.5 Q94 371 94 690 Q94 1037 288.5 1247.5 Q483 1458 792 1458 Q1006 1458 1157 1399 L1157 1220 Q994 1306 790 1306 Q575 1306 436.5 1168.5 Q298 1031 274 790 L908 790 L908 639 L272 639 Q288 400 424.5 263.5 Q561 127 776 127 Q1000 127 1157 223 L1157 60 Z " />
<glyph glyph-name="uni0405" unicode="&#x405;" horiz-adv-x="1088" d="M121 58 L121 256 Q155 226 202.5 202 Q250 178 302.5 161.5 Q355 145 408 136 Q461 127 506 127 Q661 127 737.5 184.5 Q814 242 814 350 Q814 408 788.5 451 Q763 494 718 529.5 Q673 565 611.5 597.5 Q550 630 479 666 Q404 704 339 743 Q274 782 226 829 Q178 876 150.5 935.5 Q123 995 123 1075 Q123 1173 166 1245.5 Q209 1318 279 1365 Q349 1412 438.5 1435 Q528 1458 621 1458 Q833 1458 930 1407 L930 1218 Q803 1306 604 1306 Q549 1306 494 1294.5 Q439 1283 396 1257 Q353 1231 326 1190 Q299 1149 299 1090 Q299 1035 319.5 995 Q340 955 380 922 Q420 889 477.5 858 Q535 827 610 790 Q687 752 756 710 Q825 668 877 617 Q929 566 959.5 504 Q990 442 990 362 Q990 256 948.5 182.5 Q907 109 836.5 63 Q766 17 674 -3.5 Q582 -24 480 -24 Q446 -24 396 -18.5 Q346 -13 294 -2.5 Q242 8 195.5 23.5 Q149 39 121 58 Z " />
<glyph glyph-name="uni0407" unicode="&#x407;" horiz-adv-x="545" d="M496 1434 L496 1290 L356 1290 L356 144 L496 144 L496 0 L48 0 L48 144 L188 144 L188 1290 L48 1290 L48 1434 L496 1434 Z M470 1566 Q430 1566 401 1594 Q372 1622 372 1665 Q372 1707 400 1735 Q428 1763 468 1763 Q510 1763 539 1734.5 Q568 1706 568 1665 Q568 1624 540 1595 Q512 1566 470 1566 Z M86 1566 Q44 1566 14.5 1595.5 Q-15 1625 -15 1665 Q-15 1707 13.5 1735 Q42 1763 83 1763 Q124 1763 154 1734.5 Q184 1706 184 1665 Q184 1624 155 1595 Q126 1566 86 1566 Z " />
<glyph glyph-name="uni0409" unicode="&#x409;" horiz-adv-x="2009" d="M1188 825 L1460 825 Q1675 825 1793 722 Q1911 619 1911 428 Q1911 232 1787 116 Q1663 0 1446 0 L1020 0 L1020 1282 L622 1282 Q553 740 513 516 Q473 292 432 186 Q391 80 321 28.5 Q251 -23 153 -23 Q74 -23 16 -2 L16 156 Q67 127 129 127 Q191 127 245.5 201 Q300 275 356.5 586 Q413 897 482 1434 L1188 1434 L1188 825 Z M1188 674 L1188 152 L1423 152 Q1573 152 1654 222.5 Q1735 293 1735 418 Q1735 674 1423 674 L1188 674 Z " />
<glyph glyph-name="uni040A" unicode="&#x40a;" horiz-adv-x="2014" d="M1026 0 L1026 672 L356 672 L356 0 L188 0 L188 1434 L356 1434 L356 824 L1026 824 L1026 1434 L1194 1434 L1194 826 L1466 826 Q1679 826 1798 723 Q1917 620 1917 428 Q1917 230 1792.5 115 Q1668 0 1452 0 L1026 0 Z M1194 674 L1194 152 L1430 152 Q1579 152 1660 222.5 Q1741 293 1741 418 Q1741 674 1430 674 L1194 674 Z " />
<glyph glyph-name="uni040B" unicode="&#x40b;" horiz-adv-x="1480" d="M1354 0 L1186 0 L1186 389 Q1186 684 901 684 L622 684 L622 0 L454 0 L454 1282 L41 1282 L41 1434 L1036 1434 L1036 1282 L622 1282 L622 832 L903 832 Q1354 832 1354 389 L1354 0 Z " />
<glyph glyph-name="uni040C" unicode="&#x40c;" horiz-adv-x="1188" d="M1186 0 L952 0 L398 656 Q367 693 360 706 L356 706 L356 0 L188 0 L188 1434 L356 1434 L356 760 L360 760 Q374 782 398 809 L934 1434 L1143 1434 L528 746 L1186 0 Z M922 1894 L660 1566 L533 1566 L756 1894 L922 1894 Z " />
<glyph glyph-name="uni040E" unicode="&#x40e;" horiz-adv-x="1162" d="M1174 1434 L731 433 Q613 167 503 71 Q393 -25 263 -25 Q156 -25 84 6 L84 176 Q170 125 250 125 Q331 125 399 187.5 Q467 250 546 408 L60 1434 L251 1434 L595 668 Q604 649 632 575 L634 575 Q637 584 675 672 L994 1434 L1174 1434 Z M986 1871 Q971 1730 872.5 1648.5 Q774 1567 626 1567 Q474 1567 378.5 1648.5 Q283 1730 274 1871 L436 1871 Q450 1683 628 1683 Q708 1683 760 1732.5 Q812 1782 824 1871 L986 1871 Z " />
<glyph glyph-name="uni040F" unicode="&#x40f;" horiz-adv-x="1451" d="M1266 0 L802 0 L802 -384 L648 -384 L648 0 L188 0 L188 1434 L356 1434 L356 152 L1098 152 L1098 1434 L1266 1434 L1266 0 Z " />
<glyph glyph-name="uni0410" unicode="&#x410;" horiz-adv-x="1321" d="M1298 0 L1112 0 L960 402 L352 402 L209 0 L22 0 L572 1434 L746 1434 L1298 0 Z M905 553 L680 1164 Q669 1194 658 1260 L654 1260 Q644 1199 631 1164 L408 553 L905 553 Z " />
<glyph glyph-name="uni0411" unicode="&#x411;" horiz-adv-x="1171" d="M188 0 L188 1434 L954 1434 L954 1282 L356 1282 L356 826 L628 826 Q842 826 961 722.5 Q1080 619 1080 428 Q1080 230 955 115 Q830 0 614 0 L188 0 Z M356 674 L356 152 L592 152 Q741 152 822 222 Q903 292 903 418 Q903 674 592 674 L356 674 Z " />
<glyph glyph-name="uni0412" unicode="&#x412;" horiz-adv-x="1174" d="M188 0 L188 1434 L596 1434 Q782 1434 891 1343 Q1000 1252 1000 1106 Q1000 984 934 894 Q868 804 752 766 L752 762 Q897 745 984 652.5 Q1071 560 1071 412 Q1071 228 939 114 Q807 0 606 0 L188 0 Z M356 1282 L356 819 L528 819 Q666 819 745 885.5 Q824 952 824 1073 Q824 1282 549 1282 L356 1282 Z M356 668 L356 152 L584 152 Q732 152 813.5 222 Q895 292 895 414 Q895 668 549 668 L356 668 Z " />
<glyph glyph-name="uni0413" unicode="&#x413;" horiz-adv-x="966" d="M932 1278 L357 1278 L357 0 L188 0 L188 1434 L932 1434 L932 1278 Z " />
<glyph glyph-name="uni0414" unicode="&#x414;" horiz-adv-x="1420" d="M1352 -385 L1197 -385 L1197 0 L170 0 L170 -385 L15 -385 L15 152 L126 152 Q270 415 370.5 766.5 Q471 1118 484 1434 L1159 1434 L1159 152 L1352 152 L1352 -385 Z M991 152 L991 1282 L627 1282 Q611 1035 517 704 Q423 373 308 152 L991 152 Z " />
<glyph glyph-name="uni0415" unicode="&#x415;" horiz-adv-x="1036" d="M948 0 L188 0 L188 1434 L916 1434 L916 1282 L356 1282 L356 805 L874 805 L874 654 L356 654 L356 152 L948 152 L948 0 Z " />
<glyph glyph-name="uni0416" unicode="&#x416;" horiz-adv-x="1775" d="M1794 0 L1569 0 L1008 656 Q984 684 971 706 L966 706 L966 0 L807 0 L807 706 L803 706 Q788 681 766 656 L205 0 L-22 0 L635 744 L22 1434 L228 1434 L766 813 Q788 788 803 764 L807 764 L807 1434 L966 1434 L966 764 L971 764 Q984 786 1008 813 L1546 1434 L1751 1434 L1138 744 L1794 0 Z " />
<glyph glyph-name="uni0417" unicode="&#x417;" horiz-adv-x="1106" d="M96 60 L96 242 Q264 119 477 119 Q632 119 723.5 194 Q815 269 815 396 Q815 672 442 672 L293 672 L293 811 L430 811 Q589 811 676.5 880 Q764 949 764 1075 Q764 1183 691.5 1248 Q619 1313 492 1313 Q312 1313 142 1200 L142 1370 Q300 1458 506 1458 Q710 1458 827 1361 Q944 1264 944 1106 Q944 827 672 754 L672 750 Q820 733 907 639 Q994 545 994 406 Q994 209 854 92.5 Q714 -24 471 -24 Q228 -24 96 60 Z " />
<glyph glyph-name="uni0418" unicode="&#x418;" horiz-adv-x="1534" d="M1344 0 L1176 0 L1176 1036 Q1176 1176 1186 1233 L1180 1233 Q1161 1184 1134 1143 L396 0 L188 0 L188 1434 L356 1434 L356 424 Q356 262 348 213 L352 213 Q374 257 408 309 L1128 1434 L1344 1434 L1344 0 Z " />
<glyph glyph-name="uni0419" unicode="&#x419;" horiz-adv-x="1534" d="M1344 0 L1176 0 L1176 1036 Q1176 1176 1186 1233 L1180 1233 Q1161 1184 1134 1143 L396 0 L188 0 L188 1434 L356 1434 L356 424 Q356 262 348 213 L352 213 Q374 257 408 309 L1128 1434 L1344 1434 L1344 0 Z M1132 1870 Q1117 1729 1018.5 1647.5 Q920 1566 772 1566 Q620 1566 524.5 1647.5 Q429 1729 420 1870 L582 1870 Q596 1682 774 1682 Q854 1682 906 1731.5 Q958 1781 970 1870 L1132 1870 Z " />
<glyph glyph-name="uni041A" unicode="&#x41a;" horiz-adv-x="1188" d="M1186 0 L952 0 L398 656 Q367 693 360 706 L356 706 L356 0 L188 0 L188 1434 L356 1434 L356 760 L360 760 Q374 782 398 809 L934 1434 L1143 1434 L528 746 L1186 0 Z " />
<glyph glyph-name="uni041B" unicode="&#x41b;" horiz-adv-x="1378" d="M1188 0 L1020 0 L1020 1282 L622 1282 Q553 740 513 516 Q473 292 432 186 Q391 80 321 28.5 Q251 -23 153 -23 Q74 -23 16 -2 L16 156 Q67 127 129 127 Q191 127 245.5 201 Q300 275 356.5 586 Q413 897 482 1434 L1188 1434 L1188 0 Z " />
<glyph glyph-name="uni041C" unicode="&#x41c;" horiz-adv-x="1839" d="M1650 0 L1483 0 L1483 962 Q1483 1076 1497 1241 L1493 1241 Q1469 1144 1450 1102 L960 0 L878 0 L389 1094 Q368 1142 346 1241 L342 1241 Q350 1155 350 960 L350 0 L188 0 L188 1434 L410 1434 L850 434 Q901 319 916 262 L922 262 Q965 380 991 438 L1440 1434 L1650 1434 L1650 0 Z " />
<glyph glyph-name="uni041D" unicode="&#x41d;" horiz-adv-x="1454" d="M1266 0 L1098 0 L1098 654 L356 654 L356 0 L188 0 L188 1434 L356 1434 L356 805 L1098 805 L1098 1434 L1266 1434 L1266 0 Z " />
<glyph glyph-name="uni041E" unicode="&#x41e;" horiz-adv-x="1544" d="M766 -24 Q461 -24 277.5 177 Q94 378 94 700 Q94 1046 281 1252 Q468 1458 790 1458 Q1087 1458 1268.5 1258 Q1450 1058 1450 735 Q1450 384 1264 180 Q1078 -24 766 -24 Z M778 1306 Q552 1306 411 1143 Q270 980 270 715 Q270 450 407.5 288.5 Q545 127 766 127 Q1002 127 1138 281 Q1274 435 1274 712 Q1274 996 1142 1151 Q1010 1306 778 1306 Z " />
<glyph glyph-name="uni041F" unicode="&#x41f;" horiz-adv-x="1460" d="M1276 0 L1106 0 L1106 1278 L357 1278 L357 0 L188 0 L188 1434 L1276 1434 L1276 0 Z " />
<glyph glyph-name="uni0420" unicode="&#x420;" horiz-adv-x="1147" d="M356 542 L356 0 L188 0 L188 1434 L582 1434 Q812 1434 938.5 1322 Q1065 1210 1065 1006 Q1065 802 924.5 672 Q784 542 545 542 L356 542 Z M356 1282 L356 694 L532 694 Q706 694 797.5 773.5 Q889 853 889 998 Q889 1282 553 1282 L356 1282 Z " />
<glyph glyph-name="uni0421" unicode="&#x421;" horiz-adv-x="1268" d="M1164 60 Q1005 -24 768 -24 Q462 -24 278 173 Q94 370 94 690 Q94 1034 301 1246 Q508 1458 826 1458 Q1030 1458 1164 1399 L1164 1220 Q1010 1306 824 1306 Q577 1306 423.5 1141 Q270 976 270 700 Q270 438 413.5 282.5 Q557 127 790 127 Q1006 127 1164 223 L1164 60 Z " />
<glyph glyph-name="uni0422" unicode="&#x422;" horiz-adv-x="1073" d="M1036 1282 L622 1282 L622 0 L454 0 L454 1282 L41 1282 L41 1434 L1036 1434 L1036 1282 Z " />
<glyph glyph-name="uni0423" unicode="&#x423;" horiz-adv-x="1162" d="M1174 1434 L731 433 Q613 167 503 71 Q393 -25 263 -25 Q156 -25 84 6 L84 176 Q170 125 250 125 Q331 125 399 187.5 Q467 250 546 408 L60 1434 L251 1434 L595 668 Q604 649 632 575 L634 575 Q637 584 675 672 L994 1434 L1174 1434 Z " />
<glyph glyph-name="uni0424" unicode="&#x424;" horiz-adv-x="1488" d="M830 188 L830 0 L674 0 L674 188 L647 188 Q407 188 250.5 351.5 Q94 515 94 754 Q94 982 250 1138 Q406 1294 649 1294 L674 1294 L674 1474 L830 1474 L830 1294 L854 1294 Q1100 1294 1254.5 1140.5 Q1409 987 1409 754 Q1409 518 1252.5 353 Q1096 188 856 188 L830 188 Z M830 1153 L830 336 L856 336 Q1027 336 1130 449.5 Q1233 563 1233 752 Q1233 932 1130 1042.5 Q1027 1153 854 1153 L830 1153 Z M674 336 L674 1153 L649 1153 Q479 1153 374.5 1041 Q270 929 270 752 Q270 562 373 449 Q476 336 647 336 L674 336 Z " />
<glyph glyph-name="uni0425" unicode="&#x425;" horiz-adv-x="1208" d="M1178 0 L973 0 L643 549 Q628 574 610 620 L606 620 Q596 597 572 549 L232 0 L26 0 L506 721 L64 1434 L270 1434 L563 930 Q592 880 614 830 L618 830 Q650 896 674 934 L979 1434 L1172 1434 L721 723 L1178 0 Z " />
<glyph glyph-name="uni0426" unicode="&#x426;" horiz-adv-x="1520" d="M1458 -385 L1303 -385 L1303 0 L188 0 L188 1434 L356 1434 L356 152 L1098 152 L1098 1434 L1266 1434 L1266 152 L1458 152 L1458 -385 Z " />
<glyph glyph-name="uni0427" unicode="&#x427;" horiz-adv-x="1354" d="M1153 0 L985 0 L985 645 Q756 524 559 524 Q371 524 268.5 621.5 Q166 719 166 895 L166 1434 L334 1434 L334 903 Q334 672 580 672 Q758 672 985 782 L985 1434 L1153 1434 L1153 0 Z " />
<glyph glyph-name="uni0428" unicode="&#x428;" horiz-adv-x="1944" d="M1753 0 L188 0 L188 1434 L356 1434 L356 152 L887 152 L887 1434 L1054 1434 L1054 152 L1585 152 L1585 1434 L1753 1434 L1753 0 Z " />
<glyph glyph-name="uni0429" unicode="&#x429;" horiz-adv-x="2007" d="M1946 -385 L1791 -385 L1791 0 L188 0 L188 1434 L356 1434 L356 152 L887 152 L887 1434 L1055 1434 L1055 152 L1585 152 L1585 1434 L1753 1434 L1753 152 L1946 152 L1946 -385 Z " />
<glyph glyph-name="uni042A" unicode="&#x42a;" horiz-adv-x="1445" d="M454 0 L454 1280 L41 1280 L41 1434 L622 1434 L622 826 L895 826 Q1108 826 1227 723 Q1346 620 1346 428 Q1346 230 1221 115 Q1096 0 880 0 L454 0 Z M622 674 L622 152 L858 152 Q1007 152 1088.5 222.5 Q1170 293 1170 418 Q1170 674 858 674 L622 674 Z " />
<glyph glyph-name="uni042B" unicode="&#x42b;" horiz-adv-x="1604" d="M1415 0 L1247 0 L1247 1434 L1415 1434 L1415 0 Z M188 0 L188 1434 L356 1434 L356 826 L628 826 Q842 826 961 722.5 Q1080 619 1080 428 Q1080 230 955 115 Q830 0 614 0 L188 0 Z M356 674 L356 152 L592 152 Q741 152 822 222 Q903 292 903 418 Q903 674 592 674 L356 674 Z " />
<glyph glyph-name="uni042C" unicode="&#x42c;" horiz-adv-x="1180" d="M188 0 L188 1434 L356 1434 L356 826 L628 826 Q842 826 961 722.5 Q1080 619 1080 428 Q1080 230 955 115 Q830 0 614 0 L188 0 Z M356 674 L356 152 L592 152 Q741 152 822 222 Q903 292 903 418 Q903 674 592 674 L356 674 Z " />
<glyph glyph-name="uni042D" unicode="&#x42d;" horiz-adv-x="1262" d="M104 60 L104 223 Q261 127 486 127 Q700 127 836.5 262.5 Q973 398 989 639 L354 639 L354 790 L987 790 Q961 1035 825.5 1170.5 Q690 1306 473 1306 Q270 1306 104 1220 L104 1396 Q258 1458 473 1458 Q782 1458 975 1250.5 Q1168 1043 1168 696 Q1168 377 982.5 176.5 Q797 -24 494 -24 Q263 -24 104 60 Z " />
<glyph glyph-name="uni042E" unicode="&#x42e;" horiz-adv-x="2086" d="M690 670 L356 670 L356 0 L188 0 L188 1434 L356 1434 L356 821 L696 821 Q726 1121 901 1289.5 Q1076 1458 1356 1458 Q1645 1458 1817.5 1260.5 Q1990 1063 1990 735 Q1990 380 1813 178 Q1636 -24 1331 -24 Q1045 -24 871.5 166 Q698 356 690 670 Z M1350 1306 Q1123 1306 994.5 1150 Q866 994 866 721 Q866 438 988 282.5 Q1110 127 1331 127 Q1561 127 1687.5 280 Q1814 433 1814 712 Q1814 1000 1692.5 1153 Q1571 1306 1350 1306 Z " />
<glyph glyph-name="uni042F" unicode="&#x42f;" horiz-adv-x="1210" d="M1021 0 L853 0 L853 610 L644 610 Q584 610 538.5 577.5 Q493 545 441 432 L261 0 L61 0 L279 479 Q300 526 343.5 578.5 Q387 631 445 653 L445 657 Q302 688 222.5 788 Q143 888 143 1030 Q143 1213 270.5 1323.5 Q398 1434 605 1434 L1021 1434 L1021 0 Z M853 762 L853 1282 L620 1282 Q478 1282 399.5 1215 Q321 1148 321 1026 Q321 904 401 833 Q481 762 616 762 L853 762 Z " />
<glyph glyph-name="uni0430" unicode="&#x430;" horiz-adv-x="1042" d="M899 0 L735 0 L735 160 L731 160 Q624 -24 416 -24 Q263 -24 176.5 57 Q90 138 90 272 Q90 559 428 606 L735 649 Q735 910 524 910 Q339 910 190 784 L190 952 Q341 1048 538 1048 Q899 1048 899 666 L899 0 Z M735 518 L488 484 Q374 468 316 427.5 Q258 387 258 284 Q258 209 311.5 161.5 Q365 114 454 114 Q576 114 655.5 199.5 Q735 285 735 416 L735 518 Z " />
<glyph glyph-name="uni0431" unicode="&#x431;" horiz-adv-x="1186" d="M958 1528 L958 1374 Q917 1344 826 1329 Q601 1295 511.5 1263.5 Q422 1232 364.5 1129 Q307 1026 291 828 L295 828 Q415 1002 637 1002 Q840 1002 964 863 Q1088 724 1088 496 Q1088 261 958.5 118.5 Q829 -24 610 -24 Q374 -24 246.5 143.5 Q119 311 119 622 Q119 864 165 1032.5 Q211 1201 292.5 1286 Q374 1371 473.5 1403 Q573 1435 815 1478 Q911 1500 958 1528 Z M289 666 L289 524 Q290 444 313 367 Q336 290 379 231 Q422 172 480.5 143 Q539 114 614 114 Q751 114 835.5 216.5 Q920 319 920 479 Q920 655 833.5 758.5 Q747 862 600 862 Q394 862 289 666 Z " />
<glyph glyph-name="uni0432" unicode="&#x432;" horiz-adv-x="1085" d="M166 0 L166 1024 L612 1024 Q763 1024 850.5 957 Q938 890 938 774 Q938 575 742 532 Q977 502 977 295 Q977 170 880.5 85 Q784 0 641 0 L166 0 Z M330 884 L330 596 L576 596 Q774 596 774 750 Q774 884 596 884 L330 884 Z M330 456 L330 140 L614 140 Q813 140 813 301 Q813 456 590 456 L330 456 Z " />
<glyph glyph-name="uni0433" unicode="&#x433;" horiz-adv-x="784" d="M735 884 L330 884 L330 0 L166 0 L166 1024 L735 1024 L735 884 Z " />
<glyph glyph-name="uni0434" unicode="&#x434;" horiz-adv-x="1120" d="M1059 -373 L920 -373 L920 0 L158 0 L158 -373 L18 -373 L18 139 L109 139 Q371 517 375 1024 L907 1024 L907 139 L1059 139 L1059 -373 Z M743 139 L743 885 L516 885 Q489 471 283 139 L743 139 Z " />
<glyph glyph-name="uni0435" unicode="&#x435;" horiz-adv-x="1071" d="M989 471 L266 471 Q270 300 358 207 Q446 114 600 114 Q773 114 918 228 L918 74 Q783 -24 561 -24 Q344 -24 220 115.5 Q96 255 96 508 Q96 747 231.5 897.5 Q367 1048 568 1048 Q769 1048 879 918 Q989 788 989 557 L989 471 Z M821 610 Q820 752 752.5 831 Q685 910 565 910 Q449 910 368 827 Q287 744 268 610 L821 610 Z " />
<glyph glyph-name="uni0436" unicode="&#x436;" horiz-adv-x="1528" d="M1526 0 L1304 0 L846 506 L842 506 L842 0 L686 0 L686 506 L682 506 L223 0 L4 0 L512 528 L35 1024 L244 1024 L682 545 L686 545 L686 1024 L842 1024 L842 545 L846 545 L1284 1024 L1495 1024 L1016 528 L1526 0 Z " />
<glyph glyph-name="uni0437" unicode="&#x437;" horiz-adv-x="913" d="M80 29 L80 190 Q214 115 393 115 Q664 115 664 287 Q664 457 367 457 L266 457 L266 596 L362 596 Q623 596 623 758 Q623 827 563 868 Q503 909 399 909 Q250 909 100 834 L100 987 Q270 1049 412 1049 Q786 1049 786 774 Q786 685 730.5 620.5 Q675 556 575 535 L575 530 Q689 521 758 453 Q827 385 827 281 Q827 141 714 58 Q601 -25 403 -25 Q192 -25 80 29 Z " />
<glyph glyph-name="uni0438" unicode="&#x438;" horiz-adv-x="1190" d="M1024 0 L876 0 L876 817 Q854 774 809 696 L336 0 L166 0 L166 1024 L316 1024 L316 217 Q328 246 368 316 L854 1024 L1024 1024 L1024 0 Z " />
<glyph glyph-name="uni0439" unicode="&#x439;" horiz-adv-x="1190" d="M1024 0 L876 0 L876 817 Q854 774 809 696 L336 0 L166 0 L166 1024 L316 1024 L316 217 Q328 246 368 316 L854 1024 L1024 1024 L1024 0 Z M964 1522 Q949 1381 850.5 1299.5 Q752 1218 604 1218 Q452 1218 356.5 1299.5 Q261 1381 252 1522 L414 1522 Q428 1334 606 1334 Q686 1334 738 1383.5 Q790 1433 802 1522 L964 1522 Z " />
<glyph glyph-name="uni043A" unicode="&#x43a;" horiz-adv-x="1018" d="M1016 0 L786 0 L334 492 L330 492 L330 0 L166 0 L166 1024 L330 1024 L330 555 L334 555 L764 1024 L979 1024 L504 530 L1016 0 Z " />
<glyph glyph-name="uni043B" unicode="&#x43b;" horiz-adv-x="1079" d="M913 0 L750 0 L750 885 L512 885 Q471 388 371.5 187 Q272 -14 104 -14 Q53 -14 16 0 L16 141 Q51 123 92 123 Q312 123 375 1024 L913 1024 L913 0 Z " />
<glyph glyph-name="uni043C" unicode="&#x43c;" horiz-adv-x="1438" d="M1272 0 L1110 0 L1110 844 Q1088 780 1042 656 L786 0 L639 0 L375 656 Q354 709 307 844 L307 0 L166 0 L166 1024 L375 1024 L645 356 Q674 283 719 154 L792 352 L1054 1024 L1272 1024 L1272 0 Z " />
<glyph glyph-name="uni043D" unicode="&#x43d;" horiz-adv-x="1182" d="M1016 0 L852 0 L852 465 L330 465 L330 0 L166 0 L166 1024 L330 1024 L330 604 L852 604 L852 1024 L1016 1024 L1016 0 Z " />
<glyph glyph-name="uni043E" unicode="&#x43e;" horiz-adv-x="1200" d="M594 -24 Q367 -24 231.5 119.5 Q96 263 96 500 Q96 758 237 903 Q378 1048 618 1048 Q847 1048 975.5 907 Q1104 766 1104 516 Q1104 271 965.5 123.5 Q827 -24 594 -24 Z M606 910 Q448 910 356 802.5 Q264 695 264 506 Q264 324 357 219 Q450 114 606 114 Q765 114 850.5 217 Q936 320 936 510 Q936 702 850.5 806 Q765 910 606 910 Z " />
<glyph glyph-name="uni043F" unicode="&#x43f;" horiz-adv-x="1182" d="M1016 0 L852 0 L852 884 L330 884 L330 0 L166 0 L166 1024 L1016 1024 L1016 0 Z " />
<glyph glyph-name="uni0440" unicode="&#x440;" horiz-adv-x="1204" d="M334 148 L330 148 L330 -471 L166 -471 L166 1024 L330 1024 L330 844 L334 844 Q455 1048 688 1048 Q886 1048 997 910.5 Q1108 773 1108 542 Q1108 285 983 130.5 Q858 -24 641 -24 Q442 -24 334 148 Z M330 561 L330 418 Q330 291 412.5 202.5 Q495 114 622 114 Q771 114 855.5 228 Q940 342 940 545 Q940 716 861 813 Q782 910 647 910 Q504 910 417 810.5 Q330 711 330 561 Z " />
<glyph glyph-name="uni0441" unicode="&#x441;" horiz-adv-x="946" d="M864 47 Q746 -24 584 -24 Q365 -24 230.5 118.5 Q96 261 96 488 Q96 741 241 894.5 Q386 1048 628 1048 Q763 1048 866 998 L866 830 Q752 910 622 910 Q465 910 364.5 797.5 Q264 685 264 502 Q264 322 358.5 218 Q453 114 612 114 Q746 114 864 203 L864 47 Z " />
<glyph glyph-name="uni0442" unicode="&#x442;" horiz-adv-x="840" d="M809 884 L502 884 L502 0 L338 0 L338 884 L30 884 L30 1024 L809 1024 L809 884 Z " />
<glyph glyph-name="uni0443" unicode="&#x443;" horiz-adv-x="991" d="M981 1024 L510 -164 Q384 -482 156 -482 Q92 -482 49 -469 L49 -322 Q102 -340 146 -340 Q270 -340 332 -192 L414 2 L14 1024 L196 1024 L473 236 Q478 221 494 158 L500 158 Q505 182 520 234 L811 1024 L981 1024 Z " />
<glyph glyph-name="uni0444" unicode="&#x444;" horiz-adv-x="1405" d="M776 -24 L776 -482 L628 -482 L628 -24 L596 -24 Q372 -24 234 121 Q96 266 96 500 Q96 749 235.5 898.5 Q375 1048 604 1048 L628 1048 L628 1458 L776 1458 L776 1048 L798 1048 Q1029 1048 1168.5 899.5 Q1308 751 1308 500 Q1308 266 1171 121 Q1034 -24 811 -24 L776 -24 Z M776 910 L776 114 L798 114 Q954 114 1047 219.5 Q1140 325 1140 506 Q1140 696 1048.5 803 Q957 910 803 910 L776 910 Z M628 114 L628 910 L604 910 Q450 910 357 802.5 Q264 695 264 506 Q264 327 357.5 220.5 Q451 114 608 114 L628 114 Z " />
<glyph glyph-name="uni0445" unicode="&#x445;" horiz-adv-x="940" d="M914 1024 L570 506 L908 0 L717 0 L516 332 Q497 363 471 410 L467 410 Q462 401 420 332 L215 0 L26 0 L375 502 L41 1024 L232 1024 L430 674 Q452 635 473 594 L477 594 L733 1024 L914 1024 Z " />
<glyph glyph-name="uni0446" unicode="&#x446;" horiz-adv-x="1229" d="M1167 -373 L1026 -373 L1026 0 L166 0 L166 1024 L330 1024 L330 139 L852 139 L852 1024 L1016 1024 L1016 139 L1167 139 L1167 -373 Z " />
<glyph glyph-name="uni0447" unicode="&#x447;" horiz-adv-x="1157" d="M991 0 L828 0 L828 412 Q648 314 496 314 Q152 314 152 678 L152 1024 L316 1024 L316 686 Q316 461 510 461 Q658 461 828 547 L828 1024 L991 1024 L991 0 Z " />
<glyph glyph-name="uni0448" unicode="&#x448;" horiz-adv-x="1638" d="M1472 0 L166 0 L166 1024 L330 1024 L330 140 L738 140 L738 1024 L901 1024 L901 140 L1308 140 L1308 1024 L1472 1024 L1472 0 Z " />
<glyph glyph-name="uni0449" unicode="&#x449;" horiz-adv-x="1688" d="M1626 -373 L1483 -373 L1483 0 L166 0 L166 1024 L330 1024 L330 139 L737 139 L737 1024 L901 1024 L901 139 L1309 139 L1309 1024 L1473 1024 L1473 139 L1626 139 L1626 -373 Z " />
<glyph glyph-name="uni044A" unicode="&#x44a;" horiz-adv-x="1210" d="M342 0 L342 884 L30 884 L30 1024 L506 1024 L506 631 L782 631 Q939 631 1031.5 549.5 Q1124 468 1124 320 Q1124 172 1031 86 Q938 0 796 0 L342 0 Z M506 490 L506 140 L752 140 Q956 140 956 320 Q956 490 750 490 L506 490 Z " />
<glyph glyph-name="uni044B" unicode="&#x44b;" horiz-adv-x="1453" d="M1286 0 L1124 0 L1124 1024 L1286 1024 L1286 0 Z M166 0 L166 1024 L330 1024 L330 631 L606 631 Q763 631 855.5 549 Q948 467 948 320 Q948 172 855 86 Q762 0 620 0 L166 0 Z M330 490 L330 140 L576 140 Q780 140 780 320 Q780 490 574 490 L330 490 Z " />
<glyph glyph-name="uni044C" unicode="&#x44c;" horiz-adv-x="1032" d="M166 0 L166 1024 L330 1024 L330 631 L606 631 Q763 631 855.5 549 Q948 467 948 320 Q948 172 855 86 Q762 0 620 0 L166 0 Z M330 490 L330 140 L576 140 Q780 140 780 320 Q780 490 574 490 L330 490 Z " />
<glyph glyph-name="uni044D" unicode="&#x44d;" horiz-adv-x="946" d="M90 45 L90 200 Q206 114 356 114 Q501 114 590.5 203.5 Q680 293 688 446 L252 446 L252 586 L688 586 Q676 738 587 824 Q498 910 350 910 Q207 910 102 832 L102 994 Q208 1048 352 1048 Q596 1048 727 905.5 Q858 763 858 504 Q858 263 723.5 119.5 Q589 -24 362 -24 Q205 -24 90 45 Z " />
<glyph glyph-name="uni044E" unicode="&#x44e;" horiz-adv-x="1665" d="M620 465 L330 465 L330 0 L166 0 L166 1024 L330 1024 L330 604 L622 604 Q648 814 776.5 931 Q905 1048 1106 1048 Q1325 1048 1445.5 910 Q1566 772 1566 516 Q1566 267 1437 121.5 Q1308 -24 1082 -24 Q869 -24 749.5 104.5 Q630 233 620 465 Z M1092 910 Q786 910 786 510 Q786 114 1096 114 Q1399 114 1399 510 Q1399 910 1092 910 Z " />
<glyph glyph-name="uni044F" unicode="&#x44f;" horiz-adv-x="1030" d="M866 0 L702 0 L702 424 L565 424 Q466 424 385 264 L252 0 L62 0 L234 316 Q294 426 379 461 Q259 477 196 549 Q133 621 133 729 Q133 865 231.5 944.5 Q330 1024 508 1024 L866 1024 L866 0 Z M702 561 L702 884 L508 884 Q301 884 301 727 Q301 561 502 561 L702 561 Z " />
<glyph glyph-name="uni0451" unicode="&#x451;" horiz-adv-x="1071" d="M989 471 L266 471 Q270 300 358 207 Q446 114 600 114 Q773 114 918 228 L918 74 Q783 -24 561 -24 Q344 -24 220 115.5 Q96 255 96 508 Q96 747 231.5 897.5 Q367 1048 568 1048 Q769 1048 879 918 Q989 788 989 557 L989 471 Z M821 610 Q820 752 752.5 831 Q685 910 565 910 Q449 910 368 827 Q287 744 268 610 L821 610 Z M737 1218 Q697 1218 668 1246 Q639 1274 639 1317 Q639 1359 667 1387 Q695 1415 735 1415 Q777 1415 806 1386.5 Q835 1358 835 1317 Q835 1276 807 1247 Q779 1218 737 1218 Z M353 1218 Q311 1218 281.5 1247.5 Q252 1277 252 1317 Q252 1359 280.5 1387 Q309 1415 350 1415 Q391 1415 421 1386.5 Q451 1358 451 1317 Q451 1276 422 1247 Q393 1218 353 1218 Z " />
</font>
</svg>
