<?xml version="1.0" encoding="UTF-8"?>
<svg xmlns="http://www.w3.org/2000/svg" xmlns:xlink="http://www.w3.org/1999/xlink" version="1.2" >
<font id="Segoe UI Semibold">
<font-face  font-family="Segoe UI" units-per-em="2048" ascent="1491" descent="-431" font-style="normal" font-weight="600" font-stretch="normal" cap-height="1434" x-height="1024" underline-position="-178" underline-thickness="119" />
<missing-glyph  horiz-adv-x="1322" d="M166 0 L166 1398 L1156 1398 L1156 0 L166 0 Z M314 148 L1008 148 L1008 1250 L314 1250 L314 148 Z " />
<glyph glyph-name="null" unicode="&#xd;" d="" />
<glyph glyph-name="space" unicode="&#x20;" horiz-adv-x="563" d="" />
<glyph glyph-name="exclam" unicode="&#x21;" horiz-adv-x="622" d="M422 1434 L403 422 L213 422 L187 1434 L422 1434 Z M311 -20 Q251 -20 209 18.5 Q167 57 167 112 Q167 169 209 209 Q251 249 311 249 Q369 249 411.5 209 Q454 169 454 112 Q454 57 411.5 18.5 Q369 -20 311 -20 Z " />
<glyph glyph-name="quotedbl" unicode="&#x22;" horiz-adv-x="896" d="M374 1442 L344 995 L192 995 L162 1442 L374 1442 Z M735 1442 L705 995 L552 995 L522 1442 L735 1442 Z " />
<glyph glyph-name="numbersign" unicode="&#x23;" horiz-adv-x="1211" d="M1170 1049 L1139 909 L912 909 L854 633 L1102 633 L1067 493 L825 493 L743 123 L584 123 L664 493 L422 493 L344 123 L185 123 L263 493 L34 493 L62 633 L294 633 L349 909 L105 909 L134 1049 L378 1049 L458 1434 L619 1434 L540 1049 L782 1049 L864 1434 L1022 1434 L942 1049 L1170 1049 Z M754 909 L510 909 L450 633 L695 633 L754 909 Z " />
<glyph glyph-name="dollar" unicode="&#x24;" horiz-adv-x="1137" d="M642 8 L642 -209 L519 -209 L519 0 Q297 0 158 86 L158 309 Q219 256 323.5 220 Q428 184 519 184 L519 629 Q283 738 213.5 830 Q144 922 144 1048 Q144 1197 250 1305.5 Q356 1414 519 1436 L519 1616 L642 1616 L642 1440 Q852 1434 932 1384 L932 1170 Q823 1250 642 1256 L642 795 Q862 693 943 597 Q1024 501 1024 380 Q1024 233 923 134 Q822 35 642 8 Z M519 852 L519 1251 Q444 1236 400 1187 Q356 1138 356 1068 Q356 994 392 947 Q428 900 519 852 Z M642 575 L642 190 Q812 226 812 367 Q812 485 642 575 Z " />
<glyph glyph-name="percent" unicode="&#x25;" horiz-adv-x="1721" d="M416 714 Q264 714 174 811.5 Q84 909 84 1072 Q84 1250 179.5 1352.5 Q275 1455 437 1455 Q594 1455 680.5 1360 Q767 1265 767 1093 Q767 921 670 817.5 Q573 714 416 714 Z M430 1315 Q348 1315 300.5 1252 Q253 1189 253 1079 Q253 971 299.5 911 Q346 851 427 851 Q508 851 554 913.5 Q600 976 600 1087 Q600 1195 554.5 1255 Q509 1315 430 1315 Z M1387 1434 L467 -10 L324 -10 L1243 1434 L1387 1434 Z M1258 -22 Q1106 -22 1016 75.5 Q926 173 926 336 Q926 514 1021.5 616.5 Q1117 719 1279 719 Q1436 719 1522.5 624 Q1609 529 1609 357 Q1609 185 1512 81.5 Q1415 -22 1258 -22 Z M1272 579 Q1190 579 1142.5 516 Q1095 453 1095 343 Q1095 235 1141.5 175 Q1188 115 1269 115 Q1350 115 1396 177.5 Q1442 240 1442 351 Q1442 459 1396.5 519 Q1351 579 1272 579 Z " />
<glyph glyph-name="ampersand" unicode="&#x26;" horiz-adv-x="1684" d="M1479 -23 Q1416 -23 1368 -9 Q1320 5 1279.5 31 Q1239 57 1201 94 Q1163 131 1121 179 Q1080 140 1026.5 104 Q973 68 907.5 39.5 Q842 11 764.5 -5.5 Q687 -22 596 -22 Q486 -22 394 5 Q302 32 236.5 84.5 Q171 137 135 214 Q99 291 99 390 Q99 543 187 651.5 Q275 760 434 829 Q404 851 374 880.5 Q344 910 320.5 947.5 Q297 985 282.5 1030.5 Q268 1076 268 1130 Q268 1209 298.5 1270 Q329 1331 383 1373 Q437 1415 510.5 1436.5 Q584 1458 669 1458 Q753 1458 823 1436.5 Q893 1415 943 1375 Q993 1335 1021 1279 Q1049 1223 1049 1155 Q1049 1034 980.5 955 Q912 876 775 820 Q844 795 900 759.5 Q956 724 1003.5 680 Q1051 636 1088.5 585.5 Q1126 535 1162 481 Q1237 589 1275 718.5 Q1313 848 1313 990 Q1313 1026 1308.5 1058 Q1304 1090 1296 1121 L1504 1121 Q1514 1089 1516 1061 Q1518 1033 1521 993 Q1521 906 1500 818 Q1479 730 1444 647 Q1409 564 1362 481 Q1315 398 1264 321 Q1299 283 1328 254.5 Q1357 226 1387.5 207 Q1418 188 1449.5 179 Q1481 170 1521 170 Q1552 170 1583 178 Q1614 186 1647 198 L1647 13 Q1607 -5 1563.5 -14 Q1520 -23 1479 -23 Z M629 163 Q699 163 757.5 178 Q816 193 865.5 217.5 Q915 242 955.5 274.5 Q996 307 1029 343 Q971 428 922 488.5 Q873 549 823.5 592.5 Q774 636 717.5 667.5 Q661 699 587 726 Q532 704 486 676.5 Q440 649 406.5 612 Q373 575 354 525.5 Q335 476 335 410 Q335 349 358 302.5 Q381 256 421 225 Q461 194 514 178.5 Q567 163 629 163 Z M838 1129 Q838 1172 822 1202.5 Q806 1233 781.5 1253 Q757 1273 727 1282 Q697 1291 668 1291 Q583 1291 533 1245 Q483 1199 482 1120 Q482 1085 492.5 1053.5 Q503 1022 522.5 995 Q542 968 568 947.5 Q594 927 623 912 Q731 950 784.5 1001 Q838 1052 838 1129 Z " />
<glyph glyph-name="quotesingle" unicode="&#x27;" horiz-adv-x="529" d="M371 1442 L341 995 L188 995 L158 1442 L371 1442 Z " />
<glyph glyph-name="parenleft" unicode="&#x28;" horiz-adv-x="680" d="M660 -326 L464 -326 Q148 28 148 547 Q148 1068 464 1434 L661 1434 Q351 1054 351 549 Q351 48 660 -326 Z " />
<glyph glyph-name="parenright" unicode="&#x29;" horiz-adv-x="680" d="M217 -326 L21 -326 Q331 48 331 549 Q331 1054 20 1434 L218 1434 Q535 1068 535 547 Q535 28 217 -326 Z " />
<glyph glyph-name="asterisk" unicode="&#x2a;" horiz-adv-x="889" d="M818 1081 L544 1034 L736 805 L594 707 L446 967 L298 707 L155 805 L348 1034 L73 1081 L130 1241 L387 1138 L355 1434 L537 1434 L505 1138 L762 1241 L818 1081 Z " />
<glyph glyph-name="plus" unicode="&#x2b;" horiz-adv-x="1422" d="M1190 510 L795 510 L795 115 L630 115 L630 510 L235 510 L235 675 L630 675 L630 1071 L795 1071 L795 675 L1190 675 L1190 510 Z " />
<glyph glyph-name="comma" unicode="&#x2c;" horiz-adv-x="494" d="M368 239 L213 -260 L39 -260 L149 239 L368 239 Z " />
<glyph glyph-name="hyphen" unicode="&#x2d;" horiz-adv-x="823" d="M690 474 L144 474 L144 645 L690 645 L690 474 Z " />
<glyph glyph-name="period" unicode="&#x2e;" horiz-adv-x="494" d="M247 -22 Q187 -22 145 17.5 Q103 57 103 112 Q103 168 145 208 Q187 248 247 248 Q308 248 350.5 208 Q393 168 393 112 Q393 57 350.5 17.5 Q308 -22 247 -22 Z " />
<glyph glyph-name="slash" unicode="&#x2f;" horiz-adv-x="847" d="M867 1434 L174 -238 L-37 -238 L653 1434 L867 1434 Z " />
<glyph glyph-name="zero" unicode="0" horiz-adv-x="1137" d="M553 -24 Q329 -24 203.5 159 Q78 342 78 688 Q78 1068 209 1263 Q340 1458 587 1458 Q1060 1458 1060 723 Q1060 359 926.5 167.5 Q793 -24 553 -24 Z M576 1273 Q315 1273 315 698 Q315 160 571 160 Q823 160 823 707 Q823 1273 576 1273 Z " />
<glyph glyph-name="one" unicode="1" horiz-adv-x="1137" d="M1027 0 L173 0 L173 192 L485 192 L485 1206 L165 1121 L165 1323 L717 1461 L717 192 L1027 192 L1027 0 Z " />
<glyph glyph-name="two" unicode="2" horiz-adv-x="1137" d="M1001 0 L101 0 L101 191 L498 576 Q650 723 715 820.5 Q780 918 780 1029 Q780 1143 712.5 1205.5 Q645 1268 520 1268 Q337 1268 170 1104 L170 1327 Q347 1458 581 1458 Q783 1458 899 1356.5 Q1015 1255 1015 1063 Q1015 934 943 810.5 Q871 687 666 487 L371 204 L371 199 L1001 199 L1001 0 Z " />
<glyph glyph-name="three" unicode="3" horiz-adv-x="1137" d="M138 53 L138 271 Q278 160 454 160 Q597 160 682.5 225 Q768 290 768 401 Q768 645 395 645 L284 645 L284 831 L390 831 Q721 831 721 1061 Q721 1273 463 1273 Q319 1273 192 1170 L192 1376 Q338 1458 537 1458 Q728 1458 843 1362 Q958 1266 958 1116 Q958 833 670 752 L670 748 Q825 733 915 639.5 Q1005 546 1005 406 Q1005 213 860 94.5 Q715 -24 478 -24 Q265 -24 138 53 Z " />
<glyph glyph-name="four" unicode="4" horiz-adv-x="1137" d="M1074 346 L895 346 L895 0 L677 0 L677 346 L25 346 L25 496 L647 1434 L895 1434 L895 521 L1074 521 L1074 346 Z M677 521 L677 1076 Q677 1135 681 1208 L677 1208 Q665 1176 628 1110 L238 521 L677 521 Z " />
<glyph glyph-name="five" unicode="5" horiz-adv-x="1137" d="M164 33 L164 256 Q305 161 450 161 Q596 161 685 235.5 Q774 310 774 434 Q774 556 683.5 624 Q593 692 424 692 Q366 692 209 680 L209 1434 L946 1434 L946 1236 L413 1236 L413 877 Q478 881 534 881 Q762 881 886.5 764 Q1011 647 1011 444 Q1011 231 868.5 102.5 Q726 -26 477 -26 Q267 -26 164 33 Z " />
<glyph glyph-name="six" unicode="6" horiz-adv-x="1137" d="M967 1417 L967 1216 Q860 1273 742 1273 Q559 1273 449 1125 Q339 977 339 728 L343 728 Q440 908 663 908 Q846 908 954 786 Q1062 664 1062 460 Q1062 246 928.5 111 Q795 -24 590 -24 Q363 -24 234 148 Q105 320 105 631 Q105 1008 273.5 1233 Q442 1458 720 1458 Q876 1458 967 1417 Z M593 726 Q485 726 417.5 650.5 Q350 575 350 472 Q350 343 417 251.5 Q484 160 595 160 Q700 160 765 239.5 Q830 319 830 441 Q830 575 768 650.5 Q706 726 593 726 Z " />
<glyph glyph-name="seven" unicode="7" horiz-adv-x="1137" d="M1048 1340 L508 0 L264 0 L789 1236 L90 1236 L90 1434 L1048 1434 L1048 1340 Z " />
<glyph glyph-name="eight" unicode="8" horiz-adv-x="1137" d="M392 752 L392 756 Q139 876 139 1103 Q139 1259 266 1358.5 Q393 1458 593 1458 Q774 1458 890 1365 Q1006 1272 1006 1126 Q1006 888 740 756 L740 752 Q1048 640 1048 364 Q1048 186 913 81 Q778 -24 537 -24 Q342 -24 216.5 80 Q91 184 91 350 Q91 626 392 752 Z M780 1091 Q780 1178 725.5 1228.5 Q671 1279 577 1279 Q489 1279 428 1226.5 Q367 1174 367 1093 Q367 928 572 844 Q780 930 780 1091 Z M560 651 Q318 554 318 371 Q318 276 388.5 215 Q459 154 574 154 Q683 154 752.5 214 Q822 274 822 365 Q822 557 560 651 Z " />
<glyph glyph-name="nine" unicode="9" horiz-adv-x="1137" d="M166 27 L166 228 Q282 160 412 160 Q601 160 706 297.5 Q811 435 811 688 Q809 687 807 688 Q718 522 497 522 Q318 522 202.5 648.5 Q87 775 87 974 Q87 1186 223 1322 Q359 1458 570 1458 Q792 1458 916.5 1290.5 Q1041 1123 1041 802 Q1041 406 879 191 Q717 -24 429 -24 Q277 -24 166 27 Z M554 1273 Q453 1273 385 1194 Q317 1115 317 994 Q317 860 383.5 784 Q450 708 564 708 Q663 708 731.5 777.5 Q800 847 800 948 Q800 1091 731.5 1182 Q663 1273 554 1273 Z " />
<glyph glyph-name="colon" unicode="&#x3a;" horiz-adv-x="494" d="M247 -22 Q187 -22 145 17.5 Q103 57 103 112 Q103 168 145 208 Q187 248 247 248 Q308 248 350.5 208 Q393 168 393 112 Q393 57 350.5 17.5 Q308 -22 247 -22 Z M247 769 Q187 769 145 808.5 Q103 848 103 903 Q103 959 145 999 Q187 1039 247 1039 Q308 1039 350.5 999 Q393 959 393 903 Q393 848 350.5 808.5 Q308 769 247 769 Z " />
<glyph glyph-name="semicolon" unicode="&#x3b;" horiz-adv-x="494" d="M247 771 Q188 771 147.5 811.5 Q107 852 107 908 Q107 964 147.5 1003 Q188 1042 247 1042 Q304 1042 345 1003 Q386 964 386 908 Q386 852 345 811.5 Q304 771 247 771 Z M368 239 L216 -264 L39 -264 L148 239 L368 239 Z " />
<glyph glyph-name="less" unicode="&#x3c;" horiz-adv-x="1422" d="M1159 98 L266 527 L266 633 L1159 1099 L1159 909 L506 585 L506 581 L1159 287 L1159 98 Z " />
<glyph glyph-name="equal" unicode="&#x3d;" horiz-adv-x="1422" d="M1190 724 L235 724 L235 889 L1190 889 L1190 724 Z M1190 295 L235 295 L235 459 L1190 459 L1190 295 Z " />
<glyph glyph-name="greater" unicode="&#x3e;" horiz-adv-x="1422" d="M1159 533 L266 104 L266 293 L920 584 L920 590 L266 914 L266 1104 L1159 639 L1159 533 Z " />
<glyph glyph-name="question" unicode="&#x3f;" horiz-adv-x="909" d="M303 405 Q294 430 287 470 Q280 510 280 549 Q280 610 304.5 659.5 Q329 709 365.5 752 Q402 795 444.5 835 Q487 875 523.5 913 Q560 951 584.5 993 Q609 1035 609 1085 Q609 1130 591 1163.5 Q573 1197 541.5 1219.5 Q510 1242 469.5 1253 Q429 1264 383 1264 Q234 1264 99 1131 L99 1362 Q263 1458 439 1458 Q520 1458 592 1437 Q664 1416 718 1375 Q772 1334 803 1273 Q834 1212 834 1131 Q834 1054 808 994 Q782 934 742.5 883.5 Q703 833 657.5 794 Q612 755 572.5 716 Q533 677 507 635 Q481 593 481 542 Q481 499 492 464 Q503 429 514 405 L303 405 Z M417 -18 Q360 -18 316 21 Q274 59 274 115 Q274 172 316 209 Q359 249 417 249 Q474 249 517 209 Q559 172 559 115 Q559 59 517 21 Q473 -18 417 -18 Z " />
<glyph glyph-name="at" unicode="&#x40;" horiz-adv-x="1955" d="M1147 397 L1142 397 Q1070 182 860 182 Q726 182 644 282.5 Q562 383 562 553 Q562 778 674.5 927 Q787 1076 971 1076 Q1041 1076 1096 1037.5 Q1151 999 1167 945 L1170 945 Q1173 973 1185 1060 L1351 1060 Q1304 532 1304 522 Q1304 324 1407 324 Q1501 324 1563 434.5 Q1625 545 1625 721 Q1625 981 1457.5 1145.5 Q1290 1310 993 1310 Q708 1310 521 1111 Q334 912 334 613 Q334 318 514 137 Q694 -44 999 -44 Q1239 -44 1410 38 L1410 -116 Q1235 -190 973 -190 Q605 -190 380 30 Q155 250 155 606 Q155 972 393 1213 Q631 1454 1001 1454 Q1348 1454 1575.5 1252 Q1803 1050 1803 725 Q1803 487 1679.5 334.5 Q1556 182 1378 182 Q1148 182 1147 397 Z M988 934 Q878 934 810.5 826 Q743 718 743 557 Q743 449 788.5 386.5 Q834 324 910 324 Q1020 324 1084 437.5 Q1148 551 1148 738 Q1148 934 988 934 Z " />
<glyph glyph-name="A" unicode="A" horiz-adv-x="1375" d="M1355 0 L1094 0 L965 365 L401 365 L277 0 L17 0 L554 1434 L822 1434 L1355 0 Z M902 559 L703 1131 Q694 1159 684 1221 L680 1221 Q671 1164 660 1131 L463 559 L902 559 Z " />
<glyph glyph-name="B" unicode="B" horiz-adv-x="1237" d="M177 0 L177 1434 L632 1434 Q840 1434 961.5 1343 Q1083 1252 1083 1106 Q1083 984 1014 894 Q945 804 823 766 L823 762 Q971 745 1059.5 652.5 Q1148 560 1148 412 Q1148 228 1003 114 Q858 0 637 0 L177 0 Z M414 1243 L414 835 L568 835 Q692 835 762.5 893.5 Q833 952 833 1059 Q833 1243 587 1243 L414 1243 Z M414 644 L414 190 L617 190 Q750 190 822.5 251.5 Q895 313 895 421 Q895 644 586 644 L414 644 Z " />
<glyph glyph-name="C" unicode="C" horiz-adv-x="1272" d="M1177 60 Q1015 -24 774 -24 Q462 -24 274 173 Q86 370 86 690 Q86 1034 297.5 1246 Q509 1458 832 1458 Q1040 1458 1177 1399 L1177 1163 Q1032 1249 857 1249 Q624 1249 479.5 1100 Q335 951 335 702 Q335 465 470 324.5 Q605 184 825 184 Q1028 184 1177 280 L1177 60 Z " />
<glyph glyph-name="D" unicode="D" horiz-adv-x="1469" d="M177 0 L177 1434 L591 1434 Q1384 1434 1384 735 Q1384 403 1164 201.5 Q944 0 574 0 L177 0 Z M414 1232 L414 201 L604 201 Q855 201 994.5 339 Q1134 477 1134 729 Q1134 1232 613 1232 L414 1232 Z " />
<glyph glyph-name="E" unicode="E" horiz-adv-x="1060" d="M982 0 L177 0 L177 1434 L950 1434 L950 1232 L415 1232 L415 826 L908 826 L908 625 L415 625 L415 201 L982 201 L982 0 Z " />
<glyph glyph-name="F" unicode="F" horiz-adv-x="1029" d="M951 1232 L415 1232 L415 801 L909 801 L909 600 L415 600 L415 0 L177 0 L177 1434 L951 1434 L951 1232 Z " />
<glyph glyph-name="G" unicode="G" horiz-adv-x="1428" d="M1296 98 Q1072 -24 797 -24 Q479 -24 282 174 Q85 372 85 698 Q85 1031 300.5 1244.5 Q516 1458 848 1458 Q1087 1458 1250 1388 L1250 1143 Q1085 1253 857 1253 Q628 1253 481.5 1102 Q335 951 335 711 Q335 464 461 322.5 Q587 181 803 181 Q951 181 1059 238 L1059 579 L757 579 L757 779 L1296 779 L1296 98 Z " />
<glyph glyph-name="H" unicode="H" horiz-adv-x="1506" d="M1329 0 L1090 0 L1090 622 L415 622 L415 0 L177 0 L177 1434 L415 1434 L415 831 L1090 831 L1090 1434 L1329 1434 L1329 0 Z " />
<glyph glyph-name="I" unicode="I" horiz-adv-x="592" d="M546 1434 L546 1242 L415 1242 L415 192 L546 192 L546 0 L46 0 L46 192 L177 192 L177 1242 L46 1242 L46 1434 L546 1434 Z " />
<glyph glyph-name="J" unicode="J" horiz-adv-x="812" d="M648 514 Q648 259 522 117.5 Q396 -24 186 -24 Q88 -24 25 -1 L25 223 Q82 184 172 184 Q410 184 410 552 L410 1434 L648 1434 L648 514 Z " />
<glyph glyph-name="K" unicode="K" horiz-adv-x="1251" d="M1262 0 L952 0 L453 656 Q425 693 419 706 L415 706 L415 0 L177 0 L177 1434 L415 1434 L415 760 L419 760 Q431 782 453 809 L934 1434 L1219 1434 L656 746 L1262 0 Z " />
<glyph glyph-name="L" unicode="L" horiz-adv-x="1001" d="M971 0 L177 0 L177 1434 L415 1434 L415 201 L971 201 L971 0 Z " />
<glyph glyph-name="M" unicode="M" horiz-adv-x="1893" d="M1717 0 L1481 0 L1481 928 Q1481 1042 1495 1207 L1491 1207 Q1469 1113 1452 1072 L1024 0 L860 0 L431 1064 Q413 1111 393 1207 L389 1207 Q397 1121 397 926 L397 0 L177 0 L177 1434 L512 1434 L889 479 Q932 369 945 315 L950 315 Q987 428 1010 483 L1394 1434 L1717 1434 L1717 0 Z " />
<glyph glyph-name="N" unicode="N" horiz-adv-x="1571" d="M1393 0 L1133 0 L448 1054 Q422 1094 405 1137 L399 1137 Q407 1091 407 940 L407 0 L177 0 L177 1434 L454 1434 L1116 405 Q1158 341 1170 317 L1174 317 Q1164 374 1164 510 L1164 1434 L1393 1434 L1393 0 Z " />
<glyph glyph-name="O" unicode="O" horiz-adv-x="1548" d="M768 -24 Q458 -24 271.5 177 Q85 378 85 700 Q85 1046 275 1252 Q465 1458 791 1458 Q1093 1458 1277.5 1258 Q1462 1058 1462 735 Q1462 384 1273 180 Q1084 -24 768 -24 Z M779 1249 Q582 1249 458.5 1102 Q335 955 335 715 Q335 476 455 330 Q575 184 769 184 Q975 184 1094 323 Q1213 462 1213 712 Q1213 969 1097.5 1109 Q982 1249 779 1249 Z " />
<glyph glyph-name="P" unicode="P" horiz-adv-x="1197" d="M414 520 L414 0 L177 0 L177 1434 L612 1434 Q859 1434 995 1319 Q1131 1204 1131 995 Q1131 786 989 653 Q847 520 605 520 L414 520 Z M414 1238 L414 714 L568 714 Q721 714 801 785 Q881 856 881 985 Q881 1238 587 1238 L414 1238 Z " />
<glyph glyph-name="Q" unicode="Q" horiz-adv-x="1548" d="M741 -23 Q678 -23 612.5 -10.5 Q547 2 485.5 27.5 Q424 53 368 91 Q312 129 266 179 Q85 380 85 704 Q85 1050 274 1255 Q465 1461 796 1461 Q1093 1461 1278 1261 Q1463 1061 1463 738 Q1463 604 1434 485 Q1405 366 1346.5 270 Q1288 174 1199.5 107.5 Q1111 41 989 12 Q1042 -39 1088.5 -78 Q1135 -117 1181 -143.5 Q1227 -170 1277 -184 Q1327 -198 1387 -198 Q1403 -198 1422 -196.5 Q1441 -195 1460 -191.5 Q1479 -188 1496.5 -183.5 Q1514 -179 1529 -173 L1529 -385 Q1512 -391 1490 -395 Q1468 -399 1446 -402 Q1424 -405 1402.5 -406.5 Q1381 -408 1362 -408 Q1258 -408 1175.5 -378 Q1093 -348 1021 -295.5 Q949 -243 882 -173 Q815 -103 741 -23 Z M779 1249 Q581 1249 457 1102 Q334 955 334 715 Q334 477 454 329 Q575 184 768 184 Q975 184 1094 323 Q1213 462 1213 712 Q1213 970 1097 1109 Q982 1249 779 1249 Z " />
<glyph glyph-name="R" unicode="R" horiz-adv-x="1275" d="M1285 0 L1007 0 L778 384 Q747 437 717.5 474.5 Q688 512 657.5 536 Q627 560 591 571 Q555 582 510 582 L414 582 L414 0 L177 0 L177 1434 L649 1434 Q750 1434 835 1410 Q920 1386 983 1337.5 Q1046 1289 1081.5 1216.5 Q1117 1144 1117 1047 Q1117 971 1094.5 907.5 Q1072 844 1030.5 794.5 Q989 745 930.5 710 Q872 675 799 656 L799 652 Q838 630 867 603.5 Q896 577 922 549 Q948 521 973.5 485.5 Q999 450 1030 403 L1285 0 Z M414 1241 L414 775 L612 775 Q667 775 713.5 792 Q760 809 794 841 Q828 873 847 919 Q866 965 866 1022 Q866 1125 801 1183 Q736 1241 614 1241 L414 1241 Z " />
<glyph glyph-name="S" unicode="S" horiz-adv-x="1115" d="M111 57 L111 302 Q144 272 189.5 248 Q235 224 286 207.5 Q337 191 388 182 Q439 173 482 173 Q632 173 705.5 223 Q779 273 779 368 Q779 419 754.5 456.5 Q730 494 686 525 Q642 556 582.5 584.5 Q523 613 455 644 Q382 683 319 723 Q256 763 209.5 811.5 Q163 860 136.5 921 Q110 982 110 1064 Q110 1165 155.5 1239.5 Q201 1314 275.5 1362.5 Q350 1411 445 1434.5 Q540 1458 639 1458 Q864 1458 967 1407 L967 1172 Q845 1260 653 1260 Q600 1260 547.5 1250 Q495 1240 453.5 1217 Q412 1194 386 1158 Q360 1122 360 1071 Q360 1023 380 988 Q400 953 438.5 924 Q477 895 532.5 867.5 Q588 840 661 808 Q736 769 802.5 726 Q869 683 919.5 631 Q970 579 999.5 515.5 Q1029 452 1029 371 Q1029 262 985 187 Q941 112 866.5 65 Q792 18 695 -3 Q598 -24 490 -24 Q454 -24 401.5 -18.5 Q349 -13 294 -2.5 Q239 8 190 23 Q141 38 111 57 Z " />
<glyph glyph-name="T" unicode="T" horiz-adv-x="1130" d="M1097 1232 L685 1232 L685 0 L447 0 L447 1232 L36 1232 L36 1434 L1097 1434 L1097 1232 Z " />
<glyph glyph-name="U" unicode="U" horiz-adv-x="1440" d="M1280 580 Q1280 -24 708 -24 Q160 -24 160 557 L160 1434 L398 1434 L398 606 Q398 184 726 184 Q1042 184 1042 591 L1042 1434 L1280 1434 L1280 580 Z " />
<glyph glyph-name="V" unicode="V" horiz-adv-x="1314" d="M1301 1434 L786 0 L520 0 L14 1434 L274 1434 L628 346 Q645 294 654 225 L658 225 Q665 282 687 348 L1049 1434 L1301 1434 Z " />
<glyph glyph-name="W" unicode="W" horiz-adv-x="1978" d="M1956 1434 L1563 0 L1294 0 L1021 1003 Q1004 1067 1000 1143 L996 1143 Q991 1072 972 1005 L698 0 L423 0 L22 1434 L283 1434 L543 384 Q559 318 563 246 L568 246 Q572 297 596 384 L890 1434 L1135 1434 L1407 376 Q1421 322 1428 248 L1432 248 Q1435 298 1455 380 L1710 1434 L1956 1434 Z " />
<glyph glyph-name="X" unicode="X" horiz-adv-x="1268" d="M1249 0 L964 0 L670 526 Q657 550 641 594 L637 594 Q628 572 607 526 L304 0 L17 0 L487 721 L55 1434 L346 1434 L605 950 Q630 902 650 854 L653 854 Q682 917 703 954 L972 1434 L1240 1434 L798 723 L1249 0 Z " />
<glyph glyph-name="Y" unicode="Y" horiz-adv-x="1182" d="M1176 1434 L706 521 L706 0 L468 0 L468 516 L10 1434 L281 1434 L563 819 Q568 808 593 736 L596 736 Q605 768 629 819 L924 1434 L1176 1434 Z " />
<glyph glyph-name="Z" unicode="Z" horiz-adv-x="1202" d="M1155 1330 L369 201 L1145 201 L1145 0 L36 0 L36 109 L825 1232 L97 1232 L97 1434 L1155 1434 L1155 1330 Z " />
<glyph glyph-name="bracketleft" unicode="&#x5b;" horiz-adv-x="680" d="M621 -326 L208 -326 L208 1434 L621 1434 L621 1278 L405 1278 L405 -170 L621 -170 L621 -326 Z " />
<glyph glyph-name="backslash" unicode="&#x5c;" horiz-adv-x="829" d="M869 -240 L663 -240 L-13 1434 L197 1434 L869 -240 Z " />
<glyph glyph-name="bracketright" unicode="&#x5d;" horiz-adv-x="680" d="M474 -326 L61 -326 L61 -170 L277 -170 L277 1278 L61 1278 L61 1434 L474 1434 L474 -326 Z " />
<glyph glyph-name="asciicircum" unicode="&#x5e;" horiz-adv-x="1422" d="M1208 618 L1016 618 L704 1222 L698 1222 L407 618 L218 618 L643 1458 L752 1458 L1208 618 Z " />
<glyph glyph-name="underscore" unicode="&#x5f;" horiz-adv-x="850" d="M850 -297 L0 -297 L0 -178 L850 -178 L850 -297 Z " />
<glyph glyph-name="grave" unicode="&#x60;" horiz-adv-x="591" d="M527 1204 L354 1204 L92 1532 L306 1532 L527 1204 Z " />
<glyph glyph-name="a" unicode="a" horiz-adv-x="1069" d="M937 0 L712 0 L712 160 L708 160 Q602 -24 397 -24 Q246 -24 160.5 58 Q75 140 75 275 Q75 565 409 613 L713 656 Q713 875 505 875 Q322 875 175 749 L175 952 Q337 1048 549 1048 Q937 1048 937 666 L937 0 Z M713 503 L498 473 Q398 460 347.5 424.5 Q297 389 297 300 Q297 235 343.5 193.5 Q390 152 468 152 Q574 152 643.5 226.5 Q713 301 713 414 L713 503 Z " />
<glyph glyph-name="b" unicode="b" horiz-adv-x="1234" d="M387 148 L383 148 L383 0 L151 0 L151 1516 L383 1516 L383 844 L387 844 Q506 1048 735 1048 Q929 1048 1038.5 910.5 Q1148 773 1148 542 Q1148 285 1025 130.5 Q902 -24 689 -24 Q489 -24 387 148 Z M381 555 L381 428 Q381 316 452.5 238 Q524 160 634 160 Q763 160 836.5 260.5 Q910 361 910 541 Q910 692 841.5 777.5 Q773 863 656 863 Q532 863 456.5 775 Q381 687 381 555 Z " />
<glyph glyph-name="c" unicode="c" horiz-adv-x="963" d="M884 47 Q761 -24 593 -24 Q365 -24 225 118.5 Q85 261 85 488 Q85 741 235.5 894.5 Q386 1048 638 1048 Q778 1048 885 999 L885 783 Q778 863 657 863 Q510 863 416 763.5 Q322 664 322 503 Q322 344 410.5 252 Q499 160 648 160 Q773 160 884 249 L884 47 Z " />
<glyph glyph-name="d" unicode="d" horiz-adv-x="1234" d="M1082 0 L850 0 L850 174 L846 174 Q734 -24 501 -24 Q312 -24 198.5 113.5 Q85 251 85 488 Q85 742 210.5 895 Q336 1048 545 1048 Q752 1048 846 882 L850 882 L850 1516 L1082 1516 L1082 0 Z M853 468 L853 602 Q853 711 782 787 Q711 863 601 863 Q471 863 396.5 766 Q322 669 322 497 Q322 341 393.5 250.5 Q465 160 586 160 Q705 160 779 247.5 Q853 335 853 468 Z " />
<glyph glyph-name="e" unicode="e" horiz-adv-x="1088" d="M1018 449 L320 449 Q324 307 407.5 230 Q491 153 637 153 Q801 153 938 251 L938 64 Q798 -24 568 -24 Q342 -24 213.5 115.5 Q85 255 85 508 Q85 747 226.5 897.5 Q368 1048 578 1048 Q788 1048 903 913 Q1018 778 1018 538 L1018 449 Z M794 613 Q793 738 735 807.5 Q677 877 575 877 Q475 877 405.5 804 Q336 731 320 613 L794 613 Z " />
<glyph glyph-name="f" unicode="f" horiz-adv-x="706" d="M730 1327 Q683 1354 623 1354 Q454 1354 454 1163 L454 1024 L692 1024 L692 842 L455 842 L455 0 L223 0 L223 842 L48 842 L48 1024 L223 1024 L223 1190 Q223 1352 329 1445.5 Q435 1539 594 1539 Q680 1539 730 1520 L730 1327 Z " />
<glyph glyph-name="g" unicode="g" horiz-adv-x="1234" d="M1083 82 Q1083 -482 516 -482 Q316 -482 167 -415 L167 -203 Q335 -299 486 -299 Q851 -299 851 60 L851 172 L847 172 Q732 -24 501 -24 Q314 -24 199.5 112.5 Q85 249 85 479 Q85 740 208 894 Q331 1048 546 1048 Q749 1048 847 882 L851 882 L851 1024 L1083 1024 L1083 82 Z M853 469 L853 602 Q853 710 781.5 786.5 Q710 863 603 863 Q471 863 396.5 765.5 Q322 668 322 493 Q322 342 393.5 251.5 Q465 161 583 161 Q703 161 778 247.5 Q853 334 853 469 Z " />
<glyph glyph-name="h" unicode="h" horiz-adv-x="1192" d="M1061 0 L829 0 L829 560 Q829 864 626 864 Q524 864 454 776 Q384 688 384 551 L384 0 L151 0 L151 1516 L384 1516 L384 854 L388 854 Q504 1048 720 1048 Q1061 1048 1061 631 L1061 0 Z " />
<glyph glyph-name="i" unicode="i" horiz-adv-x="535" d="M268 1239 Q211 1239 170.5 1276 Q130 1313 130 1370 Q130 1427 170.5 1465 Q211 1503 268 1503 Q327 1503 368 1465 Q409 1427 409 1370 Q409 1316 368 1277.5 Q327 1239 268 1239 Z M383 0 L151 0 L151 1024 L383 1024 L383 0 Z " />
<glyph glyph-name="j" unicode="j" horiz-adv-x="535" d="M383 43 Q383 -209 277 -345.5 Q171 -482 -26 -482 Q-99 -482 -168 -450 L-168 -251 Q-103 -296 -45 -296 Q151 -296 151 50 L151 1024 L383 1024 L383 43 Z M269 1239 Q212 1239 171.5 1276 Q131 1313 131 1370 Q131 1427 171.5 1465 Q212 1503 269 1503 Q327 1503 368 1465 Q409 1427 409 1370 Q409 1316 368 1277.5 Q327 1239 269 1239 Z " />
<glyph glyph-name="k" unicode="k" horiz-adv-x="1075" d="M1080 0 L786 0 L388 492 L384 492 L384 0 L151 0 L151 1516 L384 1516 L384 555 L388 555 L764 1024 L1043 1024 L620 530 L1080 0 Z " />
<glyph glyph-name="l" unicode="l" horiz-adv-x="535" d="M384 0 L151 0 L151 1516 L384 1516 L384 0 Z " />
<glyph glyph-name="m" unicode="m" horiz-adv-x="1814" d="M1682 0 L1450 0 L1450 558 Q1450 719 1404.5 791 Q1359 863 1251 863 Q1160 863 1096.5 772 Q1033 681 1033 554 L1033 0 L800 0 L800 577 Q800 863 598 863 Q504 863 443.5 777 Q383 691 383 554 L383 0 L151 0 L151 1024 L383 1024 L383 862 L387 862 Q498 1048 710 1048 Q816 1048 895.5 989.5 Q975 931 1004 836 Q1118 1048 1344 1048 Q1682 1048 1682 631 L1682 0 Z " />
<glyph glyph-name="n" unicode="n" horiz-adv-x="1195" d="M1063 0 L831 0 L831 577 Q831 864 628 864 Q522 864 453 784.5 Q384 705 384 584 L384 0 L151 0 L151 1024 L384 1024 L384 854 L388 854 Q503 1048 720 1048 Q887 1048 975 939.5 Q1063 831 1063 626 L1063 0 Z " />
<glyph glyph-name="o" unicode="o" horiz-adv-x="1223" d="M605 -24 Q368 -24 226.5 119.5 Q85 263 85 500 Q85 758 232.5 903 Q380 1048 630 1048 Q870 1048 1004 907 Q1138 766 1138 516 Q1138 271 993.5 123.5 Q849 -24 605 -24 Z M616 863 Q480 863 401 768 Q322 673 322 506 Q322 345 402 252.5 Q482 160 616 160 Q753 160 826.5 251 Q900 342 900 510 Q900 679 826.5 771 Q753 863 616 863 Z " />
<glyph glyph-name="p" unicode="p" horiz-adv-x="1234" d="M387 151 L383 151 L383 -471 L151 -471 L151 1024 L383 1024 L383 844 L387 844 Q506 1048 735 1048 Q930 1048 1039 911 Q1148 774 1148 543 Q1148 287 1025 133 Q902 -21 689 -21 Q493 -21 387 151 Z M381 555 L381 428 Q381 316 452.5 238 Q524 160 634 160 Q763 160 836.5 260.5 Q910 361 910 541 Q910 692 841.5 777.5 Q773 863 656 863 Q532 863 456.5 775 Q381 687 381 555 Z " />
<glyph glyph-name="q" unicode="q" horiz-adv-x="1234" d="M1082 -471 L850 -471 L850 176 L846 176 Q741 -24 503 -24 Q314 -24 199.5 113.5 Q85 251 85 488 Q85 743 210.5 895.5 Q336 1048 548 1048 Q754 1048 846 882 L850 882 L850 1024 L1082 1024 L1082 -471 Z M853 466 L853 598 Q853 709 781.5 786 Q710 863 600 863 Q471 863 396.5 766.5 Q322 670 322 494 Q322 338 394 249 Q466 160 580 160 Q705 160 779 247 Q853 334 853 466 Z " />
<glyph glyph-name="r" unicode="r" horiz-adv-x="758" d="M745 803 Q703 836 624 836 Q521 836 452 743 Q383 650 383 490 L383 0 L151 0 L151 1024 L383 1024 L383 813 L387 813 Q421 921 491.5 981.5 Q562 1042 649 1042 Q712 1042 745 1023 L745 803 Z " />
<glyph glyph-name="s" unicode="s" horiz-adv-x="883" d="M87 32 L87 247 Q217 148 374 148 Q584 148 584 272 Q584 307 566 331.5 Q548 356 517.5 375 Q487 394 445.5 409 Q404 424 353 443 Q290 468 239.5 496 Q189 524 155.5 559.5 Q122 595 105 640 Q88 685 88 745 Q88 819 123 875.5 Q158 932 217 970.5 Q276 1009 351 1028.5 Q426 1048 506 1048 Q648 1048 760 1005 L760 802 Q652 876 512 876 Q468 876 432.5 867 Q397 858 372 842 Q347 826 333 803.5 Q319 781 319 754 Q319 721 333 698 Q347 675 374.5 657.5 Q402 640 440.5 625.5 Q479 611 529 594 Q595 567 647.5 539 Q700 511 737 475.5 Q774 440 794 393.5 Q814 347 814 283 Q814 205 778 147 Q742 89 682 51 Q622 13 543.5 -5.5 Q465 -24 378 -24 Q210 -24 87 32 Z " />
<glyph glyph-name="t" unicode="t" horiz-adv-x="740" d="M691 11 Q623 -23 512 -23 Q214 -23 214 263 L214 842 L43 842 L43 1024 L214 1024 L214 1261 L446 1327 L446 1024 L691 1024 L691 842 L446 842 L446 330 Q446 239 479 200 Q512 161 589 161 Q648 161 691 195 L691 11 Z " />
<glyph glyph-name="u" unicode="u" horiz-adv-x="1195" d="M1044 0 L812 0 L812 162 L808 162 Q707 -24 494 -24 Q131 -24 131 412 L131 1024 L363 1024 L363 436 Q363 160 576 160 Q679 160 745.5 236 Q812 312 812 435 L812 1024 L1044 1024 L1044 0 Z " />
<glyph glyph-name="v" unicode="v" horiz-adv-x="1039" d="M1033 1024 L637 0 L386 0 L9 1024 L261 1024 L488 308 Q514 229 520 170 L523 170 Q532 244 551 304 L789 1024 L1033 1024 Z " />
<glyph glyph-name="w" unicode="w" horiz-adv-x="1549" d="M1528 1024 L1226 0 L983 0 L797 694 Q786 734 783 784 L779 784 Q777 750 761 696 L559 0 L321 0 L20 1024 L260 1024 L446 286 Q455 253 458 198 L465 198 Q468 240 481 288 L688 1024 L906 1024 L1090 283 Q1099 248 1103 195 L1110 195 Q1112 232 1125 283 L1307 1024 L1528 1024 Z " />
<glyph glyph-name="x" unicode="x" horiz-adv-x="1026" d="M1007 1024 L666 506 L1003 0 L734 0 L554 317 Q537 346 514 391 L510 391 Q506 382 468 317 L285 0 L17 0 L365 502 L35 1024 L305 1024 L482 691 Q502 654 521 615 L524 615 L753 1024 L1007 1024 Z " />
<glyph glyph-name="y" unicode="y" horiz-adv-x="1041" d="M1038 1024 L576 -164 Q432 -482 172 -482 Q99 -482 50 -469 L50 -276 Q105 -294 150 -294 Q280 -294 344 -166 L413 2 L6 1024 L263 1024 L507 280 Q511 266 525 206 L530 206 Q535 229 548 278 L804 1024 L1038 1024 Z " />
<glyph glyph-name="z" unicode="z" horiz-adv-x="951" d="M907 927 L354 181 L905 181 L905 0 L29 0 L29 87 L594 843 L83 843 L83 1024 L907 1024 L907 927 Z " />
<glyph glyph-name="braceleft" unicode="&#x7b;" horiz-adv-x="680" d="M608 -326 Q252 -322 252 -22 L252 273 Q252 471 96 481 L96 627 Q252 637 252 839 L252 1126 Q252 1430 608 1434 L608 1279 Q449 1275 449 1088 L449 806 Q449 604 250 557 L250 554 Q449 510 449 307 L449 28 Q449 -79 484.5 -124.5 Q520 -170 608 -172 L608 -326 Z " />
<glyph glyph-name="bar" unicode="&#x7c;" horiz-adv-x="570" d="M383 -482 L189 -482 L189 1566 L383 1566 L383 -482 Z " />
<glyph glyph-name="braceright" unicode="&#x7d;" horiz-adv-x="680" d="M583 481 Q428 471 428 273 L428 -22 Q428 -322 74 -326 L74 -172 Q161 -170 197.5 -124 Q234 -78 234 28 L234 307 Q234 510 431 554 L431 557 Q234 604 234 806 L234 1088 Q234 1275 74 1279 L74 1434 Q428 1430 428 1126 L428 839 Q428 637 583 627 L583 481 Z " />
<glyph glyph-name="asciitilde" unicode="&#x7e;" horiz-adv-x="1422" d="M1220 759 Q1213 600 1139.5 512.5 Q1066 425 940 425 Q831 425 674 523 Q577 590 515 590 Q375 590 369 421 L203 421 Q208 576 282.5 666 Q357 756 484 756 Q597 756 720 680 Q852 589 917 589 Q978 589 1015 636 Q1052 683 1054 759 L1220 759 Z " />
<glyph glyph-name="Adieresis" unicode="&#xc4;" horiz-adv-x="1375" d="M1355 0 L1094 0 L965 365 L401 365 L277 0 L17 0 L554 1434 L822 1434 L1355 0 Z M902 559 L703 1131 Q694 1159 684 1221 L680 1221 Q671 1164 660 1131 L463 559 L902 559 Z M886 1565 Q836 1565 799.5 1598 Q763 1631 763 1682 Q763 1731 798 1764 Q833 1797 883 1797 Q936 1797 972.5 1763.5 Q1009 1730 1009 1682 Q1009 1633 974 1599 Q939 1565 886 1565 Z M470 1565 Q418 1565 381 1599.5 Q344 1634 344 1682 Q344 1731 379.5 1764 Q415 1797 466 1797 Q517 1797 554.5 1763.5 Q592 1730 592 1682 Q592 1633 556 1599 Q520 1565 470 1565 Z " />
<glyph glyph-name="Aring" unicode="&#xc5;" horiz-adv-x="1375" d="M1355 0 L1094 0 L965 365 L401 365 L277 0 L17 0 L554 1434 L822 1434 L1355 0 Z M902 559 L703 1131 Q694 1159 684 1221 L680 1221 Q671 1164 660 1131 L463 559 L902 559 Z M679 1333 Q585 1333 523.5 1387 Q462 1441 462 1529 Q462 1627 525 1685 Q588 1743 686 1743 Q782 1743 843.5 1684.5 Q905 1626 905 1535 Q905 1448 839.5 1390.5 Q774 1333 679 1333 Z M679 1643 Q634 1643 604.5 1613 Q575 1583 575 1539 Q575 1435 679 1435 Q727 1435 758.5 1464.5 Q790 1494 790 1539 Q790 1584 758.5 1613.5 Q727 1643 679 1643 Z " />
<glyph glyph-name="Ccedilla" unicode="&#xc7;" horiz-adv-x="1272" d="M1177 60 Q1015 -24 774 -24 Q462 -24 274 173 Q86 370 86 690 Q86 1034 297.5 1246 Q509 1458 832 1458 Q1040 1458 1177 1399 L1177 1163 Q1032 1249 857 1249 Q624 1249 479.5 1100 Q335 951 335 702 Q335 465 470 324.5 Q605 184 825 184 Q1028 184 1177 280 L1177 60 Z M984 -248 Q984 -442 696 -442 Q649 -442 615 -439 L615 -328 Q659 -334 686 -334 Q819 -334 819 -252 Q819 -178 698 -178 Q688 -178 659 -182 L659 0 L795 0 L795 -94 Q882 -94 933 -134.5 Q984 -175 984 -248 Z " />
<glyph glyph-name="Eacute" unicode="&#xc9;" horiz-adv-x="1060" d="M982 0 L177 0 L177 1434 L950 1434 L950 1232 L415 1232 L415 826 L908 826 L908 625 L415 625 L415 201 L982 201 L982 0 Z M873 1908 L587 1580 L415 1580 L657 1908 L873 1908 Z " />
<glyph glyph-name="Ntilde" unicode="&#xd1;" horiz-adv-x="1571" d="M1393 0 L1133 0 L448 1054 Q422 1094 405 1137 L399 1137 Q407 1091 407 940 L407 0 L177 0 L177 1434 L454 1434 L1116 405 Q1158 341 1170 317 L1174 317 Q1164 374 1164 510 L1164 1434 L1393 1434 L1393 0 Z M1154 1836 Q1154 1720 1102.5 1646.5 Q1051 1573 963 1573 Q891 1573 798 1621 Q720 1666 677 1666 Q593 1666 593 1555 L478 1555 Q478 1674 529 1745.5 Q580 1817 672 1817 Q740 1817 829 1766 Q901 1722 954 1722 Q1035 1722 1035 1836 L1154 1836 Z " />
<glyph glyph-name="Odieresis" unicode="&#xd6;" horiz-adv-x="1548" d="M768 -24 Q458 -24 271.5 177 Q85 378 85 700 Q85 1046 275 1252 Q465 1458 791 1458 Q1093 1458 1277.5 1258 Q1462 1058 1462 735 Q1462 384 1273 180 Q1084 -24 768 -24 Z M779 1249 Q582 1249 458.5 1102 Q335 955 335 715 Q335 476 455 330 Q575 184 769 184 Q975 184 1094 323 Q1213 462 1213 712 Q1213 969 1097.5 1109 Q982 1249 779 1249 Z M983 1564 Q933 1564 896.5 1597 Q860 1630 860 1681 Q860 1730 895 1763 Q930 1796 980 1796 Q1033 1796 1069.5 1762.5 Q1106 1729 1106 1681 Q1106 1632 1071 1598 Q1036 1564 983 1564 Z M567 1564 Q515 1564 478 1598.5 Q441 1633 441 1681 Q441 1730 476.5 1763 Q512 1796 563 1796 Q614 1796 651.5 1762.5 Q689 1729 689 1681 Q689 1632 653 1598 Q617 1564 567 1564 Z " />
<glyph glyph-name="Udieresis" unicode="&#xdc;" horiz-adv-x="1440" d="M1280 580 Q1280 -24 708 -24 Q160 -24 160 557 L160 1434 L398 1434 L398 606 Q398 184 726 184 Q1042 184 1042 591 L1042 1434 L1280 1434 L1280 580 Z M927 1566 Q877 1566 840.5 1599 Q804 1632 804 1683 Q804 1732 839 1765 Q874 1798 924 1798 Q977 1798 1013.5 1764.5 Q1050 1731 1050 1683 Q1050 1634 1015 1600 Q980 1566 927 1566 Z M511 1566 Q459 1566 422 1600.5 Q385 1635 385 1683 Q385 1732 420.5 1765 Q456 1798 507 1798 Q558 1798 595.5 1764.5 Q633 1731 633 1683 Q633 1634 597 1600 Q561 1566 511 1566 Z " />
<glyph glyph-name="aacute" unicode="&#xe1;" horiz-adv-x="1069" d="M937 0 L712 0 L712 160 L708 160 Q602 -24 397 -24 Q246 -24 160.5 58 Q75 140 75 275 Q75 565 409 613 L713 656 Q713 875 505 875 Q322 875 175 749 L175 952 Q337 1048 549 1048 Q937 1048 937 666 L937 0 Z M713 503 L498 473 Q398 460 347.5 424.5 Q297 389 297 300 Q297 235 343.5 193.5 Q390 152 468 152 Q574 152 643.5 226.5 Q713 301 713 414 L713 503 Z M828 1546 L542 1218 L370 1218 L612 1546 L828 1546 Z " />
<glyph glyph-name="agrave" unicode="&#xe0;" horiz-adv-x="1069" d="M937 0 L712 0 L712 160 L708 160 Q602 -24 397 -24 Q246 -24 160.5 58 Q75 140 75 275 Q75 565 409 613 L713 656 Q713 875 505 875 Q322 875 175 749 L175 952 Q337 1048 549 1048 Q937 1048 937 666 L937 0 Z M713 503 L498 473 Q398 460 347.5 424.5 Q297 389 297 300 Q297 235 343.5 193.5 Q390 152 468 152 Q574 152 643.5 226.5 Q713 301 713 414 L713 503 Z M719 1204 L546 1204 L284 1532 L498 1532 L719 1204 Z " />
<glyph glyph-name="acircumflex" unicode="&#xe2;" horiz-adv-x="1069" d="M937 0 L712 0 L712 160 L708 160 Q602 -24 397 -24 Q246 -24 160.5 58 Q75 140 75 275 Q75 565 409 613 L713 656 Q713 875 505 875 Q322 875 175 749 L175 952 Q337 1048 549 1048 Q937 1048 937 666 L937 0 Z M713 503 L498 473 Q398 460 347.5 424.5 Q297 389 297 300 Q297 235 343.5 193.5 Q390 152 468 152 Q574 152 643.5 226.5 Q713 301 713 414 L713 503 Z M854 1204 L694 1204 L533 1415 L376 1204 L221 1204 L445 1532 L629 1532 L854 1204 Z " />
<glyph glyph-name="adieresis" unicode="&#xe4;" horiz-adv-x="1069" d="M937 0 L712 0 L712 160 L708 160 Q602 -24 397 -24 Q246 -24 160.5 58 Q75 140 75 275 Q75 565 409 613 L713 656 Q713 875 505 875 Q322 875 175 749 L175 952 Q337 1048 549 1048 Q937 1048 937 666 L937 0 Z M713 503 L498 473 Q398 460 347.5 424.5 Q297 389 297 300 Q297 235 343.5 193.5 Q390 152 468 152 Q574 152 643.5 226.5 Q713 301 713 414 L713 503 Z M742 1203 Q692 1203 655.5 1236 Q619 1269 619 1320 Q619 1369 654 1402 Q689 1435 739 1435 Q792 1435 828.5 1401.5 Q865 1368 865 1320 Q865 1271 830 1237 Q795 1203 742 1203 Z M326 1203 Q274 1203 237 1237.5 Q200 1272 200 1320 Q200 1369 235.5 1402 Q271 1435 322 1435 Q373 1435 410.5 1401.5 Q448 1368 448 1320 Q448 1271 412 1237 Q376 1203 326 1203 Z " />
<glyph glyph-name="atilde" unicode="&#xe3;" horiz-adv-x="1069" d="M937 0 L712 0 L712 160 L708 160 Q602 -24 397 -24 Q246 -24 160.5 58 Q75 140 75 275 Q75 565 409 613 L713 656 Q713 875 505 875 Q322 875 175 749 L175 952 Q337 1048 549 1048 Q937 1048 937 666 L937 0 Z M713 503 L498 473 Q398 460 347.5 424.5 Q297 389 297 300 Q297 235 343.5 193.5 Q390 152 468 152 Q574 152 643.5 226.5 Q713 301 713 414 L713 503 Z M872 1475 Q872 1359 820.5 1285.5 Q769 1212 681 1212 Q609 1212 516 1260 Q438 1305 395 1305 Q311 1305 311 1194 L196 1194 Q196 1313 247 1384.5 Q298 1456 390 1456 Q458 1456 547 1405 Q619 1361 672 1361 Q753 1361 753 1475 L872 1475 Z " />
<glyph glyph-name="aring" unicode="&#xe5;" horiz-adv-x="1069" d="M937 0 L712 0 L712 160 L708 160 Q602 -24 397 -24 Q246 -24 160.5 58 Q75 140 75 275 Q75 565 409 613 L713 656 Q713 875 505 875 Q322 875 175 749 L175 952 Q337 1048 549 1048 Q937 1048 937 666 L937 0 Z M713 503 L498 473 Q398 460 347.5 424.5 Q297 389 297 300 Q297 235 343.5 193.5 Q390 152 468 152 Q574 152 643.5 226.5 Q713 301 713 414 L713 503 Z M541 1180 Q447 1180 385.5 1234 Q324 1288 324 1376 Q324 1474 387 1532 Q450 1590 548 1590 Q644 1590 705.5 1531.5 Q767 1473 767 1382 Q767 1295 701.5 1237.5 Q636 1180 541 1180 Z M541 1490 Q496 1490 466.5 1460 Q437 1430 437 1386 Q437 1282 541 1282 Q589 1282 620.5 1311.5 Q652 1341 652 1386 Q652 1431 620.5 1460.5 Q589 1490 541 1490 Z " />
<glyph glyph-name="ccedilla" unicode="&#xe7;" horiz-adv-x="963" d="M884 47 Q761 -24 593 -24 Q365 -24 225 118.5 Q85 261 85 488 Q85 741 235.5 894.5 Q386 1048 638 1048 Q778 1048 885 999 L885 783 Q778 863 657 863 Q510 863 416 763.5 Q322 664 322 503 Q322 344 410.5 252 Q499 160 648 160 Q773 160 884 249 L884 47 Z M801 -248 Q801 -442 513 -442 Q466 -442 432 -439 L432 -328 Q476 -334 503 -334 Q636 -334 636 -252 Q636 -178 515 -178 Q505 -178 476 -182 L476 0 L612 0 L612 -94 Q699 -94 750 -134.5 Q801 -175 801 -248 Z " />
<glyph glyph-name="eacute" unicode="&#xe9;" horiz-adv-x="1088" d="M1018 449 L320 449 Q324 307 407.5 230 Q491 153 637 153 Q801 153 938 251 L938 64 Q798 -24 568 -24 Q342 -24 213.5 115.5 Q85 255 85 508 Q85 747 226.5 897.5 Q368 1048 578 1048 Q788 1048 903 913 Q1018 778 1018 538 L1018 449 Z M794 613 Q793 738 735 807.5 Q677 877 575 877 Q475 877 405.5 804 Q336 731 320 613 L794 613 Z M863 1546 L577 1218 L405 1218 L647 1546 L863 1546 Z " />
<glyph glyph-name="egrave" unicode="&#xe8;" horiz-adv-x="1088" d="M1018 449 L320 449 Q324 307 407.5 230 Q491 153 637 153 Q801 153 938 251 L938 64 Q798 -24 568 -24 Q342 -24 213.5 115.5 Q85 255 85 508 Q85 747 226.5 897.5 Q368 1048 578 1048 Q788 1048 903 913 Q1018 778 1018 538 L1018 449 Z M794 613 Q793 738 735 807.5 Q677 877 575 877 Q475 877 405.5 804 Q336 731 320 613 L794 613 Z M756 1204 L583 1204 L321 1532 L535 1532 L756 1204 Z " />
<glyph glyph-name="ecircumflex" unicode="&#xea;" horiz-adv-x="1088" d="M1018 449 L320 449 Q324 307 407.5 230 Q491 153 637 153 Q801 153 938 251 L938 64 Q798 -24 568 -24 Q342 -24 213.5 115.5 Q85 255 85 508 Q85 747 226.5 897.5 Q368 1048 578 1048 Q788 1048 903 913 Q1018 778 1018 538 L1018 449 Z M794 613 Q793 738 735 807.5 Q677 877 575 877 Q475 877 405.5 804 Q336 731 320 613 L794 613 Z M888 1204 L728 1204 L567 1415 L410 1204 L255 1204 L479 1532 L663 1532 L888 1204 Z " />
<glyph glyph-name="edieresis" unicode="&#xeb;" horiz-adv-x="1088" d="M1018 449 L320 449 Q324 307 407.5 230 Q491 153 637 153 Q801 153 938 251 L938 64 Q798 -24 568 -24 Q342 -24 213.5 115.5 Q85 255 85 508 Q85 747 226.5 897.5 Q368 1048 578 1048 Q788 1048 903 913 Q1018 778 1018 538 L1018 449 Z M794 613 Q793 738 735 807.5 Q677 877 575 877 Q475 877 405.5 804 Q336 731 320 613 L794 613 Z M773 1203 Q723 1203 686.5 1236 Q650 1269 650 1320 Q650 1369 685 1402 Q720 1435 770 1435 Q823 1435 859.5 1401.5 Q896 1368 896 1320 Q896 1271 861 1237 Q826 1203 773 1203 Z M357 1203 Q305 1203 268 1237.5 Q231 1272 231 1320 Q231 1369 266.5 1402 Q302 1435 353 1435 Q404 1435 441.5 1401.5 Q479 1368 479 1320 Q479 1271 443 1237 Q407 1203 357 1203 Z " />
<glyph glyph-name="iacute" unicode="&#xed;" horiz-adv-x="535" d="M384 0 L151 0 L151 1024 L384 1024 L384 0 Z M551 1546 L265 1218 L93 1218 L335 1546 L551 1546 Z " />
<glyph glyph-name="igrave" unicode="&#xec;" horiz-adv-x="535" d="M384 0 L151 0 L151 1024 L384 1024 L384 0 Z M435 1204 L262 1204 L0 1532 L214 1532 L435 1204 Z " />
<glyph glyph-name="icircumflex" unicode="&#xee;" horiz-adv-x="535" d="M384 0 L151 0 L151 1024 L384 1024 L384 0 Z M582 1204 L422 1204 L261 1415 L104 1204 L-51 1204 L173 1532 L357 1532 L582 1204 Z " />
<glyph glyph-name="idieresis" unicode="&#xef;" horiz-adv-x="535" d="M384 0 L151 0 L151 1024 L384 1024 L384 0 Z M474 1203 Q424 1203 387.5 1236 Q351 1269 351 1320 Q351 1369 386 1402 Q421 1435 471 1435 Q524 1435 560.5 1401.5 Q597 1368 597 1320 Q597 1271 562 1237 Q527 1203 474 1203 Z M58 1203 Q6 1203 -31 1237.5 Q-68 1272 -68 1320 Q-68 1369 -32.5 1402 Q3 1435 54 1435 Q105 1435 142.5 1401.5 Q180 1368 180 1320 Q180 1271 144 1237 Q108 1203 58 1203 Z " />
<glyph glyph-name="ntilde" unicode="&#xf1;" horiz-adv-x="1195" d="M1063 0 L831 0 L831 577 Q831 864 628 864 Q522 864 453 784.5 Q384 705 384 584 L384 0 L151 0 L151 1024 L384 1024 L384 854 L388 854 Q503 1048 720 1048 Q887 1048 975 939.5 Q1063 831 1063 626 L1063 0 Z M941 1475 Q941 1359 889.5 1285.5 Q838 1212 750 1212 Q678 1212 585 1260 Q507 1305 464 1305 Q380 1305 380 1194 L265 1194 Q265 1313 316 1384.5 Q367 1456 459 1456 Q527 1456 616 1405 Q688 1361 741 1361 Q822 1361 822 1475 L941 1475 Z " />
<glyph glyph-name="oacute" unicode="&#xf3;" horiz-adv-x="1223" d="M605 -24 Q368 -24 226.5 119.5 Q85 263 85 500 Q85 758 232.5 903 Q380 1048 630 1048 Q870 1048 1004 907 Q1138 766 1138 516 Q1138 271 993.5 123.5 Q849 -24 605 -24 Z M616 863 Q480 863 401 768 Q322 673 322 506 Q322 345 402 252.5 Q482 160 616 160 Q753 160 826.5 251 Q900 342 900 510 Q900 679 826.5 771 Q753 863 616 863 Z M912 1546 L626 1218 L454 1218 L696 1546 L912 1546 Z " />
<glyph glyph-name="ograve" unicode="&#xf2;" horiz-adv-x="1223" d="M605 -24 Q368 -24 226.5 119.5 Q85 263 85 500 Q85 758 232.5 903 Q380 1048 630 1048 Q870 1048 1004 907 Q1138 766 1138 516 Q1138 271 993.5 123.5 Q849 -24 605 -24 Z M616 863 Q480 863 401 768 Q322 673 322 506 Q322 345 402 252.5 Q482 160 616 160 Q753 160 826.5 251 Q900 342 900 510 Q900 679 826.5 771 Q753 863 616 863 Z M794 1204 L621 1204 L359 1532 L573 1532 L794 1204 Z " />
<glyph glyph-name="ocircumflex" unicode="&#xf4;" horiz-adv-x="1223" d="M605 -24 Q368 -24 226.5 119.5 Q85 263 85 500 Q85 758 232.5 903 Q380 1048 630 1048 Q870 1048 1004 907 Q1138 766 1138 516 Q1138 271 993.5 123.5 Q849 -24 605 -24 Z M616 863 Q480 863 401 768 Q322 673 322 506 Q322 345 402 252.5 Q482 160 616 160 Q753 160 826.5 251 Q900 342 900 510 Q900 679 826.5 771 Q753 863 616 863 Z M931 1204 L771 1204 L610 1415 L453 1204 L298 1204 L522 1532 L706 1532 L931 1204 Z " />
<glyph glyph-name="odieresis" unicode="&#xf6;" horiz-adv-x="1223" d="M605 -24 Q368 -24 226.5 119.5 Q85 263 85 500 Q85 758 232.5 903 Q380 1048 630 1048 Q870 1048 1004 907 Q1138 766 1138 516 Q1138 271 993.5 123.5 Q849 -24 605 -24 Z M616 863 Q480 863 401 768 Q322 673 322 506 Q322 345 402 252.5 Q482 160 616 160 Q753 160 826.5 251 Q900 342 900 510 Q900 679 826.5 771 Q753 863 616 863 Z M822 1203 Q772 1203 735.5 1236 Q699 1269 699 1320 Q699 1369 734 1402 Q769 1435 819 1435 Q872 1435 908.5 1401.5 Q945 1368 945 1320 Q945 1271 910 1237 Q875 1203 822 1203 Z M406 1203 Q354 1203 317 1237.5 Q280 1272 280 1320 Q280 1369 315.5 1402 Q351 1435 402 1435 Q453 1435 490.5 1401.5 Q528 1368 528 1320 Q528 1271 492 1237 Q456 1203 406 1203 Z " />
<glyph glyph-name="otilde" unicode="&#xf5;" horiz-adv-x="1223" d="M605 -24 Q368 -24 226.5 119.5 Q85 263 85 500 Q85 758 232.5 903 Q380 1048 630 1048 Q870 1048 1004 907 Q1138 766 1138 516 Q1138 271 993.5 123.5 Q849 -24 605 -24 Z M616 863 Q480 863 401 768 Q322 673 322 506 Q322 345 402 252.5 Q482 160 616 160 Q753 160 826.5 251 Q900 342 900 510 Q900 679 826.5 771 Q753 863 616 863 Z M955 1475 Q955 1359 903.5 1285.5 Q852 1212 764 1212 Q692 1212 599 1260 Q521 1305 478 1305 Q394 1305 394 1194 L279 1194 Q279 1313 330 1384.5 Q381 1456 473 1456 Q541 1456 630 1405 Q702 1361 755 1361 Q836 1361 836 1475 L955 1475 Z " />
<glyph glyph-name="uacute" unicode="&#xfa;" horiz-adv-x="1195" d="M1044 0 L812 0 L812 162 L808 162 Q707 -24 494 -24 Q131 -24 131 412 L131 1024 L363 1024 L363 436 Q363 160 576 160 Q679 160 745.5 236 Q812 312 812 435 L812 1024 L1044 1024 L1044 0 Z M913 1546 L627 1218 L455 1218 L697 1546 L913 1546 Z " />
<glyph glyph-name="ugrave" unicode="&#xf9;" horiz-adv-x="1195" d="M1044 0 L812 0 L812 162 L808 162 Q707 -24 494 -24 Q131 -24 131 412 L131 1024 L363 1024 L363 436 Q363 160 576 160 Q679 160 745.5 236 Q812 312 812 435 L812 1024 L1044 1024 L1044 0 Z M740 1204 L567 1204 L305 1532 L519 1532 L740 1204 Z " />
<glyph glyph-name="ucircumflex" unicode="&#xfb;" horiz-adv-x="1195" d="M1044 0 L812 0 L812 162 L808 162 Q707 -24 494 -24 Q131 -24 131 412 L131 1024 L363 1024 L363 436 Q363 160 576 160 Q679 160 745.5 236 Q812 312 812 435 L812 1024 L1044 1024 L1044 0 Z M905 1204 L745 1204 L584 1415 L427 1204 L272 1204 L496 1532 L680 1532 L905 1204 Z " />
<glyph glyph-name="udieresis" unicode="&#xfc;" horiz-adv-x="1195" d="M1044 0 L812 0 L812 162 L808 162 Q707 -24 494 -24 Q131 -24 131 412 L131 1024 L363 1024 L363 436 Q363 160 576 160 Q679 160 745.5 236 Q812 312 812 435 L812 1024 L1044 1024 L1044 0 Z M802 1203 Q752 1203 715.5 1236 Q679 1269 679 1320 Q679 1369 714 1402 Q749 1435 799 1435 Q852 1435 888.5 1401.5 Q925 1368 925 1320 Q925 1271 890 1237 Q855 1203 802 1203 Z M386 1203 Q334 1203 297 1237.5 Q260 1272 260 1320 Q260 1369 295.5 1402 Q331 1435 382 1435 Q433 1435 470.5 1401.5 Q508 1368 508 1320 Q508 1271 472 1237 Q436 1203 386 1203 Z " />
<glyph glyph-name="dagger" unicode="&#x2020;" horiz-adv-x="797" d="M729 977 L478 977 L478 244 L315 244 L315 977 L65 977 L65 1116 L315 1116 L315 1434 L478 1434 L478 1116 L729 1116 L729 977 Z " />
<glyph glyph-name="degree" unicode="&#xb0;" horiz-adv-x="775" d="M392 896 Q275 896 193 978 Q111 1060 111 1178 Q111 1294 192 1374 Q273 1454 389 1454 Q507 1454 589.5 1373.5 Q672 1293 672 1178 Q672 1060 590 978 Q508 896 392 896 Z M392 1321 Q332 1321 289.5 1279 Q247 1237 247 1177 Q247 1116 288.5 1072.5 Q330 1029 390 1029 Q449 1029 492.5 1073 Q536 1117 536 1177 Q536 1238 493.5 1279.5 Q451 1321 392 1321 Z " />
<glyph glyph-name="cent" unicode="&#xa2;" horiz-adv-x="1137" d="M975 208 Q887 150 772 140 L772 -49 L631 -49 L631 142 Q423 164 300 303 Q177 442 177 649 Q177 868 300 1015.5 Q423 1163 631 1200 L631 1414 L772 1414 L772 1211 Q885 1209 975 1159 L975 946 Q882 1013 772 1020 L772 330 Q884 342 975 416 L975 208 Z M631 339 L631 1009 Q524 982 463.5 891.5 Q403 801 403 669 Q403 537 464 450 Q525 363 631 339 Z " />
<glyph glyph-name="sterling" unicode="&#xa3;" horiz-adv-x="1137" d="M1055 0 L123 0 L123 176 Q329 238 329 457 L329 625 L144 625 L144 800 L329 800 L329 1045 Q329 1226 444.5 1342 Q560 1458 744 1458 Q868 1458 970 1417 L970 1216 Q875 1273 769 1273 Q551 1273 551 1006 L551 800 L835 800 L835 625 L551 625 L551 487 Q551 272 358 186 L1055 186 L1055 0 Z " />
<glyph glyph-name="section" unicode="&#xa7;" horiz-adv-x="952" d="M697 424 Q787 349 787 235 Q787 101 680 17.5 Q573 -66 407 -66 Q267 -66 152 -10 L152 186 Q284 107 405 107 Q490 107 536.5 142.5 Q583 178 583 233 Q583 280 547.5 313 Q512 346 366 416 Q131 536 131 729 Q131 890 276 970 Q170 1054 170 1196 Q170 1325 269.5 1408 Q369 1491 531 1491 Q669 1491 764 1448 L764 1257 Q664 1319 543 1319 Q377 1319 377 1191 Q377 1143 418 1103 Q459 1063 624 994 Q849 887 849 700 Q849 530 697 424 Z M423 884 Q328 839 328 743 Q328 679 381 631 Q434 583 566 527 Q649 587 649 679 Q649 743 599.5 788 Q550 833 423 884 Z " />
<glyph glyph-name="bullet" unicode="&#x2022;" horiz-adv-x="847" d="M425 362 Q321 362 246 435 Q171 508 171 612 Q171 715 246 790.5 Q321 866 425 866 Q529 866 602 791 Q675 716 675 612 Q675 508 602 435 Q529 362 425 362 Z " />
<glyph glyph-name="paragraph" unicode="&#xb6;" horiz-adv-x="985" d="M884 1304 L761 1304 L761 0 L625 0 L625 1304 L485 1304 L485 0 L346 0 L346 874 Q233 874 158.5 954 Q84 1034 84 1156 Q84 1279 163.5 1356.5 Q243 1434 357 1434 L884 1434 L884 1304 Z " />
<glyph glyph-name="germandbls" unicode="&#xdf;" horiz-adv-x="1191" d="M498 2 L498 208 Q568 160 656 160 Q758 160 822 224.5 Q886 289 886 397 Q886 528 790.5 610 Q695 692 527 709 L527 880 Q636 898 707 972.5 Q778 1047 778 1149 Q778 1246 728 1299.5 Q678 1353 592 1353 Q383 1353 383 1073 L383 0 L151 0 L151 1084 Q151 1290 274.5 1414 Q398 1538 607 1538 Q793 1538 904.5 1442 Q1016 1346 1016 1189 Q1016 1060 943 958 Q870 856 753 817 L753 812 Q1124 738 1124 390 Q1124 214 1004.5 95 Q885 -24 688 -24 Q581 -24 498 2 Z " />
<glyph glyph-name="uni00AD" unicode="&#xad;" horiz-adv-x="823" d="M690 474 L144 474 L144 645 L690 645 L690 474 Z " />
<glyph glyph-name="registered" unicode="&#xae;" horiz-adv-x="1808" d="M905 -29 Q591 -29 369.5 189.5 Q148 408 148 717 Q148 1026 369.5 1244.5 Q591 1463 905 1463 Q1218 1463 1439.5 1244.5 Q1661 1026 1661 717 Q1661 408 1439.5 189.5 Q1218 -29 905 -29 Z M905 1364 Q636 1364 446 1174.5 Q256 985 256 717 Q256 449 446 259.5 Q636 70 905 70 Q1174 70 1363.5 259.5 Q1553 449 1553 717 Q1553 985 1363.5 1174.5 Q1174 1364 905 1364 Z M1293 255 L1083 255 L991 472 Q921 635 840 635 L762 635 L762 255 L594 255 L594 1195 L876 1195 Q1052 1195 1147.5 1126 Q1243 1057 1243 939 Q1243 842 1184.5 774 Q1126 706 1012 683 L1012 679 Q1091 662 1169 505 L1293 255 Z M762 1053 L762 770 L888 770 Q1061 770 1061 912 Q1061 989 1014.5 1021 Q968 1053 867 1053 L762 1053 Z " />
<glyph glyph-name="copyright" unicode="&#xa9;" horiz-adv-x="1808" d="M905 -29 Q591 -29 369.5 189.5 Q148 408 148 717 Q148 1026 369.5 1244.5 Q591 1463 905 1463 Q1218 1463 1439.5 1244.5 Q1661 1026 1661 717 Q1661 408 1439.5 189.5 Q1218 -29 905 -29 Z M905 1364 Q636 1364 446 1174.5 Q256 985 256 717 Q256 449 446 259.5 Q636 70 905 70 Q1174 70 1363.5 259.5 Q1553 449 1553 717 Q1553 985 1363.5 1174.5 Q1174 1364 905 1364 Z M1206 275 Q1093 210 938 210 Q731 210 590.5 348 Q450 486 450 693 Q450 934 593.5 1077.5 Q737 1221 967 1221 Q1099 1221 1202 1170 L1202 980 Q1114 1052 968 1052 Q824 1052 730.5 959 Q637 866 637 710 Q637 558 732.5 466 Q828 374 975 374 Q1110 374 1206 452 L1206 275 Z " />
<glyph glyph-name="trademark" unicode="&#x2122;" horiz-adv-x="1581" d="M1396 772 L1269 772 L1269 1235 L1265 1235 L1072 772 L979 772 L795 1235 L791 1235 L791 772 L668 772 L668 1434 L836 1434 L1030 957 L1034 957 L1235 1434 L1396 1434 L1396 772 Z M593 1325 L397 1325 L397 772 L267 772 L267 1325 L76 1325 L76 1434 L593 1434 L593 1325 Z " />
<glyph glyph-name="acute" unicode="&#xb4;" horiz-adv-x="597" d="M568 1546 L282 1218 L110 1218 L352 1546 L568 1546 Z " />
<glyph glyph-name="dieresis" unicode="&#xa8;" horiz-adv-x="892" d="M649 1203 Q599 1203 562.5 1236 Q526 1269 526 1320 Q526 1369 561 1402 Q596 1435 646 1435 Q699 1435 735.5 1401.5 Q772 1368 772 1320 Q772 1271 737 1237 Q702 1203 649 1203 Z M233 1203 Q181 1203 144 1237.5 Q107 1272 107 1320 Q107 1369 142.5 1402 Q178 1435 229 1435 Q280 1435 317.5 1401.5 Q355 1368 355 1320 Q355 1271 319 1237 Q283 1203 233 1203 Z " />
<glyph glyph-name="notequal" unicode="&#x2260;" horiz-adv-x="1422" d="M1190 295 L646 295 L494 0 L307 0 L459 295 L235 295 L235 459 L546 459 L682 724 L235 724 L235 889 L768 889 L920 1188 L1107 1188 L955 889 L1190 889 L1190 724 L869 724 L731 459 L1190 459 L1190 295 Z " />
<glyph glyph-name="AE" unicode="&#xc6;" horiz-adv-x="1831" d="M1749 0 L945 0 L945 365 L453 365 L281 0 L6 0 L716 1434 L1716 1434 L1716 1232 L1182 1232 L1182 826 L1679 826 L1679 625 L1182 625 L1182 201 L1749 201 L1749 0 Z M945 559 L945 1232 L858 1232 L541 559 L945 559 Z " />
<glyph glyph-name="Oslash" unicode="&#xd8;" horiz-adv-x="1548" d="M335 121 L187 -56 L88 27 L242 211 Q85 404 85 700 Q85 1043 274.5 1250.5 Q464 1458 792 1458 Q1025 1458 1193 1333 L1325 1490 L1424 1409 L1287 1247 Q1463 1053 1463 735 Q1463 384 1274 180 Q1085 -24 768 -24 Q507 -24 335 121 Z M1057 1171 Q946 1261 781 1261 Q577 1261 450.5 1109.5 Q324 958 324 715 Q324 523 399 394 L1057 1171 Z M1136 1069 L477 289 Q591 172 768 172 Q980 172 1102 314.5 Q1224 457 1224 712 Q1224 934 1136 1069 Z " />
<glyph glyph-name="infinity" unicode="&#x221e;" horiz-adv-x="1669" d="M836 462 Q668 202 454 202 Q287 202 182 310.5 Q77 419 77 595 Q77 757 186.5 873 Q296 989 454 989 Q688 989 837 726 Q1002 985 1220 985 Q1387 985 1491.5 876.5 Q1596 768 1596 593 Q1596 431 1487.5 314.5 Q1379 198 1220 198 Q994 198 836 462 Z M919 593 Q1043 363 1220 363 Q1310 363 1364.5 426.5 Q1419 490 1419 594 Q1419 693 1362.5 758 Q1306 823 1220 823 Q1057 823 919 593 Z M754 597 Q630 828 454 828 Q362 828 307 762.5 Q252 697 252 594 Q252 496 312.5 431.5 Q373 367 468 367 Q625 367 754 597 Z " />
<glyph glyph-name="plusminus" unicode="&#xb1;" horiz-adv-x="1422" d="M1190 671 L795 671 L795 275 L632 275 L632 671 L236 671 L236 835 L632 835 L632 1233 L795 1233 L795 835 L1190 835 L1190 671 Z M1189 0 L235 0 L235 164 L1189 164 L1189 0 Z " />
<glyph glyph-name="lessequal" unicode="&#x2264;" horiz-adv-x="1424" d="M1160 251 L266 670 L266 780 L1160 1232 L1160 1043 L506 729 L506 725 L1160 442 L1160 251 Z M1189 0 L235 0 L235 164 L1189 164 L1189 0 Z " />
<glyph glyph-name="greaterequal" unicode="&#x2265;" horiz-adv-x="1424" d="M1160 671 L266 252 L266 443 L920 723 L920 728 L266 1044 L266 1233 L1160 781 L1160 671 Z M1189 0 L235 0 L235 164 L1189 164 L1189 0 Z " />
<glyph glyph-name="yen" unicode="&#xa5;" horiz-adv-x="1137" d="M1093 1434 L738 784 L1008 784 L1008 623 L687 623 L687 440 L1008 440 L1008 279 L687 279 L687 0 L459 0 L459 279 L128 279 L128 440 L459 440 L459 623 L128 623 L128 784 L403 784 L55 1434 L305 1434 L536 940 Q562 884 579 833 L583 833 Q595 873 628 946 L857 1434 L1093 1434 Z " />
<glyph glyph-name="uni00B5" unicode="&#xb5;" horiz-adv-x="1215" d="M1098 0 L859 0 Q836 69 836 161 L831 161 Q758 -23 587 -23 Q446 -23 386 73 L383 73 L383 -395 L151 -395 L151 1024 L383 1024 L383 414 Q383 302 442 235.5 Q501 169 596 169 Q699 169 763.5 247 Q828 325 828 457 L828 1024 L1063 1024 L1063 265 Q1063 77 1098 0 Z " />
<glyph glyph-name="partialdiff" unicode="&#x2202;" horiz-adv-x="1135" d="M845 863 L849 863 Q875 1308 591 1308 Q463 1308 335 1232 L385 1431 Q509 1494 644 1494 Q864 1494 973 1359.5 Q1082 1225 1082 928 Q1082 708 1012.5 469.5 Q943 231 798.5 103.5 Q654 -24 457 -24 Q278 -24 170.5 84 Q63 192 63 375 Q63 641 210 836 Q357 1031 583 1031 Q761 1031 845 863 Z M820 665 Q771 855 624 855 Q485 855 392.5 715.5 Q300 576 300 390 Q300 283 348.5 221.5 Q397 160 480 160 Q610 160 703.5 299.5 Q797 439 820 665 Z " />
<glyph glyph-name="summation" unicode="&#x2211;" horiz-adv-x="1287" d="M1237 -469 L52 -469 L52 -347 L695 492 L83 1301 L83 1434 L1200 1434 L1200 1231 L422 1231 L974 498 L393 -267 L1237 -267 L1237 -469 Z " />
<glyph glyph-name="product" unicode="&#x220f;" horiz-adv-x="1578" d="M1413 -470 L1175 -470 L1175 1224 L415 1224 L415 -470 L177 -470 L177 1434 L1413 1434 L1413 -470 Z " />
<glyph glyph-name="integral" unicode="&#x222b;" horiz-adv-x="1139" d="M961 1327 Q914 1354 852 1354 Q686 1354 686 1142 L686 -149 Q686 -303 579 -395 Q472 -487 314 -487 Q229 -487 179 -467 L179 -276 Q226 -302 285 -302 Q453 -302 453 -90 L453 1199 Q453 1355 559 1447 Q665 1539 823 1539 Q911 1539 961 1515 L961 1327 Z " />
<glyph glyph-name="ordfeminine" unicode="&#xaa;" horiz-adv-x="820" d="M711 717 L544 717 L544 817 L540 817 Q463 697 315 697 Q208 697 142.5 757.5 Q77 818 77 912 Q77 1116 320 1149 L544 1180 Q544 1323 399 1323 Q265 1323 148 1241 L148 1391 Q263 1455 424 1455 Q559 1455 635 1383.5 Q711 1312 711 1182 L711 717 Z M544 1066 L389 1044 Q245 1024 245 928 Q245 882 279 853.5 Q313 825 370 825 Q439 825 491.5 878.5 Q544 932 544 1007 L544 1066 Z " />
<glyph glyph-name="ordmasculine" unicode="&#xba;" horiz-adv-x="905" d="M446 696 Q272 696 173 797.5 Q74 899 74 1073 Q74 1252 180 1353 Q286 1454 461 1454 Q631 1454 729.5 1355 Q828 1256 828 1085 Q828 907 724.5 801.5 Q621 696 446 696 Z M453 1315 Q361 1315 307 1250.5 Q253 1186 253 1073 Q253 962 304.5 899 Q356 836 452 836 Q543 836 596.5 901 Q650 966 650 1077 Q650 1188 597.5 1251.5 Q545 1315 453 1315 Z " />
<glyph glyph-name="uni2126" unicode="&#x2126;" horiz-adv-x="1556" d="M1465 0 L909 0 L909 198 Q1217 433 1217 782 Q1217 999 1095.5 1125.5 Q974 1252 782 1252 Q588 1252 464.5 1125 Q341 998 341 778 Q341 432 648 198 L648 0 L92 0 L92 198 L436 198 Q93 422 93 805 Q93 1109 281 1283.5 Q469 1458 776 1458 Q1090 1458 1277.5 1285 Q1465 1112 1465 807 Q1465 424 1118 198 L1465 198 L1465 0 Z " />
<glyph glyph-name="ae" unicode="&#xe6;" horiz-adv-x="1700" d="M1630 449 L931 449 Q934 307 1016 229.5 Q1098 152 1241 152 Q1412 152 1551 251 L1551 65 Q1416 -24 1184 -24 Q909 -24 794 182 L790 182 Q650 -24 418 -24 Q258 -24 166.5 58.5 Q75 141 75 279 Q75 585 454 610 L713 626 Q713 876 512 876 Q334 876 176 761 L176 957 Q328 1048 533 1048 Q773 1048 844 878 L848 878 Q962 1048 1197 1048 Q1403 1048 1516.5 912.5 Q1630 777 1630 536 L1630 449 Z M1406 613 Q1404 740 1347 808.5 Q1290 877 1187 877 Q1089 877 1018.5 805 Q948 733 932 613 L1406 613 Z M713 412 L713 467 L536 456 Q415 449 355.5 413 Q296 377 296 294 Q296 230 342.5 191 Q389 152 468 152 Q571 152 642 226 Q713 300 713 412 Z " />
<glyph glyph-name="oslash" unicode="&#xf8;" horiz-adv-x="1223" d="M1188 1030 L1033 866 Q1138 729 1138 522 Q1138 270 992.5 123 Q847 -24 605 -24 Q411 -24 283 71 L143 -80 L44 10 L188 165 Q85 302 85 506 Q85 762 232 905.5 Q379 1049 627 1049 Q812 1049 937 958 L1088 1121 L1188 1030 Z M798 815 Q731 874 617 874 Q476 874 394.5 777 Q313 680 313 509 Q313 404 348 331 L798 815 Z M877 701 L421 213 Q497 151 615 151 Q760 151 836 245.5 Q912 340 912 512 Q912 622 877 701 Z " />
<glyph glyph-name="questiondown" unicode="&#xbf;" horiz-adv-x="909" d="M634 621 Q643 596 650 557 Q657 518 657 479 Q657 419 633 370 Q609 321 573 278.5 Q537 236 495 197 Q453 158 417 118 Q381 78 357 34 Q333 -10 333 -63 Q333 -105 349 -137.5 Q365 -170 392 -192 Q419 -214 455 -225 Q491 -236 531 -236 Q707 -236 837 -104 L837 -336 Q676 -430 503 -430 Q420 -430 347.5 -408.5 Q275 -387 220.5 -345 Q166 -303 134 -240 Q102 -177 102 -94 Q102 -21 128 36.5 Q154 94 193.5 142.5 Q233 191 279 232.5 Q325 274 364.5 315 Q404 356 430 400.5 Q456 445 456 499 Q456 537 446.5 568 Q437 599 428 621 L634 621 Z M519 1047 Q576 1047 621 1008 Q664 970 664 912 Q664 856 621 817 Q578 777 519 777 Q461 777 419 817 Q376 856 376 912 Q376 970 419 1008 Q462 1047 519 1047 Z " />
<glyph glyph-name="uni00A0" unicode="&#xa0;" horiz-adv-x="563" d="" />
<glyph glyph-name="exclamdown" unicode="&#xa1;" horiz-adv-x="622" d="M311 778 Q251 778 209 817 Q167 856 167 912 Q167 968 209.5 1007.5 Q252 1047 312 1047 Q370 1047 412 1007.5 Q454 968 454 912 Q454 856 411.5 817 Q369 778 311 778 Z M435 -406 L191 -406 L218 605 L407 605 L435 -406 Z " />
<glyph glyph-name="logicalnot" unicode="&#xac;" horiz-adv-x="1422" d="M1190 259 L1026 259 L1026 671 L235 671 L235 835 L1190 835 L1190 259 Z " />
<glyph glyph-name="radical" unicode="&#x221a;" horiz-adv-x="1331" d="M1151 1516 L753 0 L603 0 L284 741 L108 741 L108 882 L411 882 L671 263 L996 1516 L1151 1516 Z " />
<glyph glyph-name="florin" unicode="&#x192;" horiz-adv-x="1137" d="M993 1225 Q940 1253 874 1253 Q736 1253 714 1103 L687 927 L849 927 L849 755 L660 755 L563 120 Q501 -290 190 -290 Q155 -290 87 -272 L87 -84 Q121 -105 169 -105 Q313 -105 350 165 L438 755 L334 755 L334 927 L467 927 L487 1075 Q507 1240 606 1339.5 Q705 1439 858 1439 Q932 1439 993 1415 L993 1225 Z " />
<glyph glyph-name="approxequal" unicode="&#x2248;" horiz-adv-x="1424" d="M1221 976 Q1214 818 1136.5 730.5 Q1059 643 926 643 Q818 643 664 744 Q568 808 507 808 Q374 808 368 640 L202 640 Q207 796 286 884.5 Q365 973 499 973 Q604 973 731 891 Q861 807 925 807 Q983 807 1018 853.5 Q1053 900 1055 976 L1221 976 Z M1221 549 Q1214 390 1136.5 302 Q1059 214 926 214 Q817 214 660 316 Q566 379 501 379 Q373 379 368 211 L202 211 Q207 366 286 456 Q365 546 499 546 Q604 546 731 463 Q861 378 925 378 Q983 378 1018 426 Q1053 474 1055 549 L1221 549 Z " />
<glyph glyph-name="uni0394" unicode="&#x394;" horiz-adv-x="1374" d="M1320 0 L44 0 L44 98 L549 1434 L817 1434 L1320 98 L1320 0 Z M1029 201 L713 1090 Q684 1170 680 1220 L676 1220 Q671 1176 641 1090 L329 201 L1029 201 Z " />
<glyph glyph-name="guillemotleft" unicode="&#xab;" horiz-adv-x="1105" d="M1032 200 L818 200 L507 536 L818 880 L1032 880 L714 536 L1032 200 Z M599 200 L387 200 L74 536 L387 880 L598 880 L281 536 L599 200 Z " />
<glyph glyph-name="guillemotright" unicode="&#xbb;" horiz-adv-x="1105" d="M1033 538 L720 200 L509 200 L824 538 L509 880 L720 880 L1033 538 Z M600 538 L288 200 L74 200 L394 538 L74 880 L288 880 L600 538 Z " />
<glyph glyph-name="ellipsis" unicode="&#x2026;" horiz-adv-x="1666" d="M1387 -20 Q1356 -20 1330.5 -9.5 Q1305 1 1286 19.5 Q1267 38 1256.5 62.5 Q1246 87 1246 114 Q1246 143 1257 168 Q1268 193 1287 211 Q1306 229 1332 239.5 Q1358 250 1388 250 Q1418 250 1444.5 240 Q1471 230 1490.5 212 Q1510 194 1521 169 Q1532 144 1532 114 Q1532 85 1521 60.5 Q1510 36 1490.5 18 Q1471 0 1444.5 -10 Q1418 -20 1387 -20 Z M831 -20 Q801 -20 775 -9.5 Q749 1 730 19 Q711 37 700 61.5 Q689 86 689 114 Q689 144 700 169 Q711 194 730.5 212 Q750 230 776 240 Q802 250 832 250 Q862 250 888.5 239.5 Q915 229 934.5 210.5 Q954 192 965 167.5 Q976 143 976 114 Q976 86 965 61.5 Q954 37 934.5 19 Q915 1 888.5 -9.5 Q862 -20 831 -20 Z M275 -20 Q245 -20 219 -9.5 Q193 1 174.5 19.5 Q156 38 145.5 62.5 Q135 87 135 114 Q135 143 145.5 167.5 Q156 192 174.5 210.5 Q193 229 219 239.5 Q245 250 276 250 Q306 250 332.5 239.5 Q359 229 378.5 210.5 Q398 192 409 167.5 Q420 143 420 114 Q420 86 409 61.5 Q398 37 378.5 19 Q359 1 332.5 -9.5 Q306 -20 275 -20 Z " />
<glyph glyph-name="Agrave" unicode="&#xc0;" horiz-adv-x="1375" d="M1355 0 L1094 0 L965 365 L401 365 L277 0 L17 0 L554 1434 L822 1434 L1355 0 Z M902 559 L703 1131 Q694 1159 684 1221 L680 1221 Q671 1164 660 1131 L463 559 L902 559 Z M828 1566 L655 1566 L393 1894 L607 1894 L828 1566 Z " />
<glyph glyph-name="Atilde" unicode="&#xc3;" horiz-adv-x="1375" d="M1355 0 L1094 0 L965 365 L401 365 L277 0 L17 0 L554 1434 L822 1434 L1355 0 Z M902 559 L703 1131 Q694 1159 684 1221 L680 1221 Q671 1164 660 1131 L463 559 L902 559 Z M1021 1836 Q1021 1720 969.5 1646.5 Q918 1573 830 1573 Q758 1573 665 1621 Q587 1666 544 1666 Q460 1666 460 1555 L345 1555 Q345 1674 396 1745.5 Q447 1817 539 1817 Q607 1817 696 1766 Q768 1722 821 1722 Q902 1722 902 1836 L1021 1836 Z " />
<glyph glyph-name="Otilde" unicode="&#xd5;" horiz-adv-x="1548" d="M768 -24 Q458 -24 271.5 177 Q85 378 85 700 Q85 1046 275 1252 Q465 1458 791 1458 Q1093 1458 1277.5 1258 Q1462 1058 1462 735 Q1462 384 1273 180 Q1084 -24 768 -24 Z M779 1249 Q582 1249 458.5 1102 Q335 955 335 715 Q335 476 455 330 Q575 184 769 184 Q975 184 1094 323 Q1213 462 1213 712 Q1213 969 1097.5 1109 Q982 1249 779 1249 Z M1122 1835 Q1122 1719 1070.5 1645.5 Q1019 1572 931 1572 Q859 1572 766 1620 Q688 1665 645 1665 Q561 1665 561 1554 L446 1554 Q446 1673 497 1744.5 Q548 1816 640 1816 Q708 1816 797 1765 Q869 1721 922 1721 Q1003 1721 1003 1835 L1122 1835 Z " />
<glyph glyph-name="OE" unicode="&#x152;" horiz-adv-x="1915" d="M1832 0 L1097 0 Q1080 0 956 -14 Q856 -24 770 -24 Q454 -24 269.5 177 Q85 378 85 700 Q85 1046 277 1252 Q469 1458 799 1458 Q891 1458 981 1448 Q1095 1434 1097 1434 L1800 1434 L1800 1232 L1265 1232 L1265 824 L1761 824 L1761 622 L1265 622 L1265 201 L1832 201 L1832 0 Z M1023 225 L1023 1210 Q879 1249 782 1249 Q583 1249 459.5 1099 Q336 949 336 715 Q336 482 457.5 333 Q579 184 776 184 Q881 184 1023 225 Z " />
<glyph glyph-name="oe" unicode="&#x153;" horiz-adv-x="1897" d="M1830 448 L1130 448 Q1133 306 1215.5 229 Q1298 152 1441 152 Q1610 152 1749 250 L1749 63 Q1615 -24 1396 -24 Q1124 -24 1011 190 L1007 190 Q877 -23 594 -23 Q360 -23 222.5 119.5 Q85 262 85 498 Q85 756 230 902 Q375 1048 620 1048 Q907 1048 1013 840 L1017 840 Q1139 1048 1411 1048 Q1609 1048 1719.5 911.5 Q1830 775 1830 540 L1830 448 Z M1605 612 Q1603 737 1545.5 806.5 Q1488 876 1388 876 Q1286 876 1215.5 801 Q1145 726 1131 612 L1605 612 Z M617 863 Q481 863 401.5 767 Q322 671 322 502 Q322 344 401.5 252.5 Q481 161 615 161 Q751 161 825.5 251.5 Q900 342 900 508 Q900 679 826 771 Q752 863 617 863 Z " />
<glyph glyph-name="endash" unicode="&#x2013;" horiz-adv-x="1024" d="M1024 474 L0 474 L0 645 L1024 645 L1024 474 Z " />
<glyph glyph-name="emdash" unicode="&#x2014;" horiz-adv-x="2048" d="M2048 474 L0 474 L0 645 L2048 645 L2048 474 Z " />
<glyph glyph-name="quotedblleft" unicode="&#x201c;" horiz-adv-x="879" d="M771 1462 L659 1017 L456 1017 L619 1462 L771 1462 Z M417 1462 L308 1017 L101 1017 L264 1462 L417 1462 Z " />
<glyph glyph-name="quotedblright" unicode="&#x201d;" horiz-adv-x="879" d="M781 1462 L619 1017 L465 1017 L576 1462 L781 1462 Z M427 1462 L264 1017 L111 1017 L224 1462 L427 1462 Z " />
<glyph glyph-name="quoteleft" unicode="&#x2018;" horiz-adv-x="525" d="M417 1462 L308 1017 L101 1017 L264 1462 L417 1462 Z " />
<glyph glyph-name="quoteright" unicode="&#x2019;" horiz-adv-x="525" d="M427 1462 L264 1017 L111 1017 L224 1462 L427 1462 Z " />
<glyph glyph-name="divide" unicode="&#xf7;" horiz-adv-x="1422" d="M723 858 Q670 858 633.5 892.5 Q597 927 597 977 Q597 1029 630.5 1065.5 Q664 1102 718 1102 Q836 1102 836 979 Q836 926 802.5 892 Q769 858 723 858 Z M1190 509 L234 509 L234 674 L1190 674 L1190 509 Z M714 82 Q663 82 627.5 116.5 Q592 151 592 200 Q592 251 626.5 288.5 Q661 326 714 326 Q831 326 831 202 Q831 151 797.5 116.5 Q764 82 714 82 Z " />
<glyph glyph-name="lozenge" unicode="&#x25ca;" horiz-adv-x="1199" d="M1106 717 L644 0 L551 0 L92 715 L551 1434 L644 1434 L1106 717 Z M929 717 L599 1245 L269 717 L599 188 L929 717 Z " />
<glyph glyph-name="ydieresis" unicode="&#xff;" horiz-adv-x="1041" d="M1038 1024 L576 -164 Q432 -482 172 -482 Q99 -482 50 -469 L50 -276 Q105 -294 150 -294 Q280 -294 344 -166 L413 2 L6 1024 L263 1024 L507 280 Q511 266 525 206 L530 206 Q535 229 548 278 L804 1024 L1038 1024 Z M735 1203 Q685 1203 648.5 1236 Q612 1269 612 1320 Q612 1369 647 1402 Q682 1435 732 1435 Q785 1435 821.5 1401.5 Q858 1368 858 1320 Q858 1271 823 1237 Q788 1203 735 1203 Z M319 1203 Q267 1203 230 1237.5 Q193 1272 193 1320 Q193 1369 228.5 1402 Q264 1435 315 1435 Q366 1435 403.5 1401.5 Q441 1368 441 1320 Q441 1271 405 1237 Q369 1203 319 1203 Z " />
<glyph glyph-name="Ydieresis" unicode="&#x178;" horiz-adv-x="1182" d="M1176 1434 L706 521 L706 0 L468 0 L468 516 L10 1434 L281 1434 L563 819 Q568 808 593 736 L596 736 Q605 768 629 819 L924 1434 L1176 1434 Z M802 1565 Q752 1565 715.5 1598 Q679 1631 679 1682 Q679 1731 714 1764 Q749 1797 799 1797 Q852 1797 888.5 1763.5 Q925 1730 925 1682 Q925 1633 890 1599 Q855 1565 802 1565 Z M386 1565 Q334 1565 297 1599.5 Q260 1634 260 1682 Q260 1731 295.5 1764 Q331 1797 382 1797 Q433 1797 470.5 1763.5 Q508 1730 508 1682 Q508 1633 472 1599 Q436 1565 386 1565 Z " />
<glyph glyph-name="&amp;#x2044;" unicode="&#x2044;" horiz-adv-x="518" d="M801 1434 L-74 0 L-263 0 L610 1434 L801 1434 Z " />
<glyph glyph-name="&amp;#x2215;" unicode="&#x2215;" horiz-adv-x="518" d="M801 1434 L-74 0 L-263 0 L610 1434 L801 1434 Z " />
<glyph glyph-name="Euro" unicode="&#x20ac;" horiz-adv-x="1137" d="M1050 50 Q912 -24 756 -24 Q311 -24 226 468 L104 468 L104 631 L207 631 Q203 659 203 700 Q203 742 209 796 L104 796 L104 957 L231 957 Q284 1192 432.5 1325 Q581 1458 793 1458 Q937 1458 1050 1402 L1050 1201 Q939 1279 800 1279 Q680 1279 587 1191.5 Q494 1104 457 957 L922 957 L922 796 L431 796 Q423 708 430 631 L922 631 L922 468 L452 468 Q521 154 789 154 Q914 154 1050 241 L1050 50 Z " />
<glyph glyph-name="guilsinglleft" unicode="&#x2039;" horiz-adv-x="673" d="M599 200 L387 200 L74 536 L387 880 L600 880 L282 536 L599 200 Z " />
<glyph glyph-name="guilsinglright" unicode="&#x203a;" horiz-adv-x="673" d="M600 538 L287 200 L74 200 L392 538 L75 880 L287 880 L600 538 Z " />
<glyph glyph-name="uniFB01" unicode="&#xfb01;" horiz-adv-x="1239" d="M729 1327 Q682 1354 622 1354 Q453 1354 453 1163 L453 1024 L691 1024 L691 842 L454 842 L454 0 L222 0 L222 842 L47 842 L47 1024 L222 1024 L222 1190 Q222 1352 328 1445.5 Q434 1539 593 1539 Q679 1539 729 1520 L729 1327 Z M975 1239 Q918 1239 877.5 1276 Q837 1313 837 1370 Q837 1427 877.5 1465 Q918 1503 975 1503 Q1034 1503 1075 1465 Q1116 1427 1116 1370 Q1116 1316 1075 1277.5 Q1034 1239 975 1239 Z M1090 0 L858 0 L858 1024 L1090 1024 L1090 0 Z " />
<glyph glyph-name="uniFB02" unicode="&#xfb02;" horiz-adv-x="1239" d="M730 1327 Q683 1354 623 1354 Q454 1354 454 1163 L454 1024 L692 1024 L692 842 L455 842 L455 0 L223 0 L223 842 L48 842 L48 1024 L223 1024 L223 1190 Q223 1352 329 1445.5 Q435 1539 594 1539 Q680 1539 730 1520 L730 1327 Z M1091 0 L858 0 L858 1516 L1091 1516 L1091 0 Z " />
<glyph glyph-name="daggerdbl" unicode="&#x2021;" horiz-adv-x="797" d="M729 567 L478 567 L478 244 L315 244 L315 567 L65 567 L65 704 L315 704 L315 980 L65 980 L65 1121 L315 1121 L315 1432 L478 1432 L478 1121 L729 1121 L729 980 L478 980 L478 704 L729 704 L729 567 Z " />
<glyph glyph-name="middot" unicode="&#xb7;" horiz-adv-x="494" d="M245 499 Q186 499 144.5 539 Q103 579 103 635 Q103 692 145.5 731.5 Q188 771 248 771 Q308 771 350.5 731.5 Q393 692 393 635 Q393 579 350 539 Q307 499 245 499 Z " />
<glyph glyph-name="quotesinglbase" unicode="&#x201a;" horiz-adv-x="525" d="M405 218 L241 -227 L88 -227 L201 218 L405 218 Z " />
<glyph glyph-name="quotedblbase" unicode="&#x201e;" horiz-adv-x="879" d="M759 218 L595 -227 L443 -227 L553 218 L759 218 Z M405 218 L241 -227 L88 -227 L201 218 L405 218 Z " />
<glyph glyph-name="perthousand" unicode="&#x2030;" horiz-adv-x="2521" d="M416 711 Q264 711 174 809 Q84 907 84 1070 Q84 1249 179.5 1352 Q275 1455 437 1455 Q594 1455 680.5 1359.5 Q767 1264 767 1092 Q767 919 670 815 Q573 711 416 711 Z M430 1315 Q348 1315 300.5 1252 Q253 1189 253 1079 Q253 971 299.5 911 Q346 851 427 851 Q508 851 554 913.5 Q600 976 600 1087 Q600 1195 554.5 1255 Q509 1315 430 1315 Z M1415 1434 L488 -5 L300 -5 L1226 1434 L1415 1434 Z M2084 -21 Q1932 -21 1842 77 Q1752 175 1752 337 Q1752 515 1849 619 Q1946 723 2105 723 Q2262 723 2348.5 627.5 Q2435 532 2435 358 Q2435 186 2338.5 82.5 Q2242 -21 2084 -21 Z M2099 582 Q2015 582 1968.5 519 Q1922 456 1922 346 Q1922 239 1968.5 179 Q2015 119 2095 119 Q2177 119 2223 182 Q2269 245 2269 355 Q2269 463 2223 522.5 Q2177 582 2099 582 Z M1288 -21 Q1136 -21 1046 77 Q956 175 956 337 Q956 516 1052.5 619.5 Q1149 723 1308 723 Q1464 723 1551 627 Q1638 531 1638 358 Q1638 186 1541 82.5 Q1444 -21 1288 -21 Z M1302 582 Q1219 582 1171.5 519.5 Q1124 457 1124 346 Q1124 240 1171 179.5 Q1218 119 1298 119 Q1380 119 1426 182 Q1472 245 1472 355 Q1472 464 1426.5 523 Q1381 582 1302 582 Z " />
<glyph glyph-name="Acircumflex" unicode="&#xc2;" horiz-adv-x="1375" d="M1355 0 L1094 0 L965 365 L401 365 L277 0 L17 0 L554 1434 L822 1434 L1355 0 Z M902 559 L703 1131 Q694 1159 684 1221 L680 1221 Q671 1164 660 1131 L463 559 L902 559 Z M994 1566 L834 1566 L673 1777 L516 1566 L361 1566 L585 1894 L769 1894 L994 1566 Z " />
<glyph glyph-name="Ecircumflex" unicode="&#xca;" horiz-adv-x="1060" d="M982 0 L177 0 L177 1434 L950 1434 L950 1232 L415 1232 L415 826 L908 826 L908 625 L415 625 L415 201 L982 201 L982 0 Z M873 1567 L713 1567 L552 1778 L395 1567 L240 1567 L464 1895 L648 1895 L873 1567 Z " />
<glyph glyph-name="Aacute" unicode="&#xc1;" horiz-adv-x="1375" d="M1355 0 L1094 0 L965 365 L401 365 L277 0 L17 0 L554 1434 L822 1434 L1355 0 Z M902 559 L703 1131 Q694 1159 684 1221 L680 1221 Q671 1164 660 1131 L463 559 L902 559 Z M954 1908 L668 1580 L496 1580 L738 1908 L954 1908 Z " />
<glyph glyph-name="Edieresis" unicode="&#xcb;" horiz-adv-x="1060" d="M982 0 L177 0 L177 1434 L950 1434 L950 1232 L415 1232 L415 826 L908 826 L908 625 L415 625 L415 201 L982 201 L982 0 Z M776 1565 Q726 1565 689.5 1598 Q653 1631 653 1682 Q653 1731 688 1764 Q723 1797 773 1797 Q826 1797 862.5 1763.5 Q899 1730 899 1682 Q899 1633 864 1599 Q829 1565 776 1565 Z M360 1565 Q308 1565 271 1599.5 Q234 1634 234 1682 Q234 1731 269.5 1764 Q305 1797 356 1797 Q407 1797 444.5 1763.5 Q482 1730 482 1682 Q482 1633 446 1599 Q410 1565 360 1565 Z " />
<glyph glyph-name="Egrave" unicode="&#xc8;" horiz-adv-x="1060" d="M982 0 L177 0 L177 1434 L950 1434 L950 1232 L415 1232 L415 826 L908 826 L908 625 L415 625 L415 201 L982 201 L982 0 Z M731 1566 L558 1566 L296 1894 L510 1894 L731 1566 Z " />
<glyph glyph-name="Iacute" unicode="&#xcd;" horiz-adv-x="592" d="M546 1434 L546 1242 L415 1242 L415 192 L546 192 L546 0 L46 0 L46 192 L177 192 L177 1242 L46 1242 L46 1434 L546 1434 Z M584 1908 L298 1580 L126 1580 L368 1908 L584 1908 Z " />
<glyph glyph-name="Icircumflex" unicode="&#xce;" horiz-adv-x="592" d="M546 1434 L546 1242 L415 1242 L415 192 L546 192 L546 0 L46 0 L46 192 L177 192 L177 1242 L46 1242 L46 1434 L546 1434 Z M620 1567 L460 1567 L299 1778 L142 1567 L-13 1567 L211 1895 L395 1895 L620 1567 Z " />
<glyph glyph-name="Idieresis" unicode="&#xcf;" horiz-adv-x="592" d="M546 1434 L546 1242 L415 1242 L415 192 L546 192 L546 0 L46 0 L46 192 L177 192 L177 1242 L46 1242 L46 1434 L546 1434 Z M511 1565 Q461 1565 424.5 1598 Q388 1631 388 1682 Q388 1731 423 1764 Q458 1797 508 1797 Q561 1797 597.5 1763.5 Q634 1730 634 1682 Q634 1633 599 1599 Q564 1565 511 1565 Z M95 1565 Q43 1565 6 1599.5 Q-31 1634 -31 1682 Q-31 1731 4.5 1764 Q40 1797 91 1797 Q142 1797 179.5 1763.5 Q217 1730 217 1682 Q217 1633 181 1599 Q145 1565 95 1565 Z " />
<glyph glyph-name="Igrave" unicode="&#xcc;" horiz-adv-x="592" d="M546 1434 L546 1242 L415 1242 L415 192 L546 192 L546 0 L46 0 L46 192 L177 192 L177 1242 L46 1242 L46 1434 L546 1434 Z M469 1566 L296 1566 L34 1894 L248 1894 L469 1566 Z " />
<glyph glyph-name="Oacute" unicode="&#xd3;" horiz-adv-x="1548" d="M768 -24 Q458 -24 271.5 177 Q85 378 85 700 Q85 1046 275 1252 Q465 1458 791 1458 Q1093 1458 1277.5 1258 Q1462 1058 1462 735 Q1462 384 1273 180 Q1084 -24 768 -24 Z M779 1249 Q582 1249 458.5 1102 Q335 955 335 715 Q335 476 455 330 Q575 184 769 184 Q975 184 1094 323 Q1213 462 1213 712 Q1213 969 1097.5 1109 Q982 1249 779 1249 Z M1076 1908 L790 1580 L618 1580 L860 1908 L1076 1908 Z " />
<glyph glyph-name="Ocircumflex" unicode="&#xd4;" horiz-adv-x="1548" d="M768 -24 Q458 -24 271.5 177 Q85 378 85 700 Q85 1046 275 1252 Q465 1458 791 1458 Q1093 1458 1277.5 1258 Q1462 1058 1462 735 Q1462 384 1273 180 Q1084 -24 768 -24 Z M779 1249 Q582 1249 458.5 1102 Q335 955 335 715 Q335 476 455 330 Q575 184 769 184 Q975 184 1094 323 Q1213 462 1213 712 Q1213 969 1097.5 1109 Q982 1249 779 1249 Z M1101 1566 L941 1566 L780 1777 L623 1566 L468 1566 L692 1894 L876 1894 L1101 1566 Z " />
<glyph glyph-name="Ograve" unicode="&#xd2;" horiz-adv-x="1548" d="M768 -24 Q458 -24 271.5 177 Q85 378 85 700 Q85 1046 275 1252 Q465 1458 791 1458 Q1093 1458 1277.5 1258 Q1462 1058 1462 735 Q1462 384 1273 180 Q1084 -24 768 -24 Z M779 1249 Q582 1249 458.5 1102 Q335 955 335 715 Q335 476 455 330 Q575 184 769 184 Q975 184 1094 323 Q1213 462 1213 712 Q1213 969 1097.5 1109 Q982 1249 779 1249 Z M920 1566 L747 1566 L485 1894 L699 1894 L920 1566 Z " />
<glyph glyph-name="Uacute" unicode="&#xda;" horiz-adv-x="1440" d="M1280 580 Q1280 -24 708 -24 Q160 -24 160 557 L160 1434 L398 1434 L398 606 Q398 184 726 184 Q1042 184 1042 591 L1042 1434 L1280 1434 L1280 580 Z M1029 1908 L743 1580 L571 1580 L813 1908 L1029 1908 Z " />
<glyph glyph-name="Ucircumflex" unicode="&#xdb;" horiz-adv-x="1440" d="M1280 580 Q1280 -24 708 -24 Q160 -24 160 557 L160 1434 L398 1434 L398 606 Q398 184 726 184 Q1042 184 1042 591 L1042 1434 L1280 1434 L1280 580 Z M1037 1567 L877 1567 L716 1778 L559 1567 L404 1567 L628 1895 L812 1895 L1037 1567 Z " />
<glyph glyph-name="Ugrave" unicode="&#xd9;" horiz-adv-x="1440" d="M1280 580 Q1280 -24 708 -24 Q160 -24 160 557 L160 1434 L398 1434 L398 606 Q398 184 726 184 Q1042 184 1042 591 L1042 1434 L1280 1434 L1280 580 Z M870 1566 L697 1566 L435 1894 L649 1894 L870 1566 Z " />
<glyph glyph-name="dotlessi" unicode="&#x131;" horiz-adv-x="535" d="M384 0 L151 0 L151 1024 L384 1024 L384 0 Z " />
<glyph glyph-name="circumflex" unicode="&#x2c6;" horiz-adv-x="771" d="M698 1204 L538 1204 L377 1415 L220 1204 L65 1204 L289 1532 L473 1532 L698 1204 Z " />
<glyph glyph-name="tilde" unicode="&#x2dc;" horiz-adv-x="733" d="M711 1475 Q711 1359 659.5 1285.5 Q608 1212 520 1212 Q448 1212 355 1260 Q277 1305 234 1305 Q150 1305 150 1194 L35 1194 Q35 1313 86 1384.5 Q137 1456 229 1456 Q297 1456 386 1405 Q458 1361 511 1361 Q592 1361 592 1475 L711 1475 Z " />
<glyph glyph-name="uni02C9" unicode="&#x2c9;" horiz-adv-x="660" d="M600 1204 L57 1204 L57 1341 L600 1341 L600 1204 Z " />
<glyph glyph-name="breve" unicode="&#x2d8;" horiz-adv-x="661" d="M634 1480 Q623 1356 536.5 1280 Q450 1204 327 1204 Q197 1204 115.5 1279.5 Q34 1355 28 1480 L164 1480 Q176 1334 330 1334 Q395 1334 441 1373.5 Q487 1413 497 1480 L634 1480 Z " />
<glyph glyph-name="dotaccent" unicode="&#x2d9;" horiz-adv-x="460" d="M230 1203 Q180 1203 143.5 1236.5 Q107 1270 107 1319 Q107 1367 143 1400 Q179 1433 230 1433 Q281 1433 317 1400.5 Q353 1368 353 1319 Q353 1271 317 1237 Q281 1203 230 1203 Z " />
<glyph glyph-name="ring" unicode="&#x2da;" horiz-adv-x="565" d="M279 1180 Q185 1180 123.5 1234 Q62 1288 62 1376 Q62 1474 125 1532 Q188 1590 286 1590 Q382 1590 443.5 1531.5 Q505 1473 505 1382 Q505 1295 439.5 1237.5 Q374 1180 279 1180 Z M279 1490 Q234 1490 204.5 1460 Q175 1430 175 1386 Q175 1282 279 1282 Q327 1282 358.5 1311.5 Q390 1341 390 1386 Q390 1431 358.5 1460.5 Q327 1490 279 1490 Z " />
<glyph glyph-name="cedilla" unicode="&#xb8;" horiz-adv-x="429" d="M420 -248 Q420 -442 132 -442 Q85 -442 51 -439 L51 -328 Q95 -334 122 -334 Q255 -334 255 -252 Q255 -178 134 -178 Q124 -178 95 -182 L95 0 L231 0 L231 -94 Q318 -94 369 -134.5 Q420 -175 420 -248 Z " />
<glyph glyph-name="hungarumlaut" unicode="&#x2dd;" horiz-adv-x="740" d="M747 1522 L499 1204 L351 1204 L562 1522 L747 1522 Z M441 1522 L198 1204 L50 1204 L258 1522 L441 1522 Z " />
<glyph glyph-name="ogonek" unicode="&#x2db;" horiz-adv-x="454" d="M374 0 Q223 -137 223 -216 Q223 -284 288 -284 Q324 -284 356 -271 L356 -392 Q318 -408 251 -408 Q173 -408 125.5 -366 Q78 -324 78 -250 Q78 -128 239 0 L374 0 Z " />
<glyph glyph-name="caron" unicode="&#x2c7;" horiz-adv-x="771" d="M704 1531 L480 1204 L295 1204 L71 1531 L226 1531 L386 1321 L547 1531 L704 1531 Z " />
<glyph glyph-name="Lslash" unicode="&#x141;" horiz-adv-x="1001" d="M971 0 L177 0 L177 511 L19 419 L19 621 L177 712 L177 1434 L415 1434 L415 840 L723 1019 L723 816 L415 639 L415 201 L971 201 L971 0 Z " />
<glyph glyph-name="lslash" unicode="&#x142;" horiz-adv-x="598" d="M566 785 L409 679 L409 0 L177 0 L177 530 L25 427 L25 629 L177 732 L177 1516 L409 1516 L409 881 L566 986 L566 785 Z " />
<glyph glyph-name="Scaron" unicode="&#x160;" horiz-adv-x="1115" d="M111 57 L111 302 Q144 272 189.5 248 Q235 224 286 207.5 Q337 191 388 182 Q439 173 482 173 Q632 173 705.5 223 Q779 273 779 368 Q779 419 754.5 456.5 Q730 494 686 525 Q642 556 582.5 584.5 Q523 613 455 644 Q382 683 319 723 Q256 763 209.5 811.5 Q163 860 136.5 921 Q110 982 110 1064 Q110 1165 155.5 1239.5 Q201 1314 275.5 1362.5 Q350 1411 445 1434.5 Q540 1458 639 1458 Q864 1458 967 1407 L967 1172 Q845 1260 653 1260 Q600 1260 547.5 1250 Q495 1240 453.5 1217 Q412 1194 386 1158 Q360 1122 360 1071 Q360 1023 380 988 Q400 953 438.5 924 Q477 895 532.5 867.5 Q588 840 661 808 Q736 769 802.5 726 Q869 683 919.5 631 Q970 579 999.5 515.5 Q1029 452 1029 371 Q1029 262 985 187 Q941 112 866.5 65 Q792 18 695 -3 Q598 -24 490 -24 Q454 -24 401.5 -18.5 Q349 -13 294 -2.5 Q239 8 190 23 Q141 38 111 57 Z M891 1881 L667 1554 L482 1554 L258 1881 L413 1881 L573 1671 L734 1881 L891 1881 Z " />
<glyph glyph-name="scaron" unicode="&#x161;" horiz-adv-x="883" d="M87 32 L87 247 Q217 148 374 148 Q584 148 584 272 Q584 307 566 331.5 Q548 356 517.5 375 Q487 394 445.5 409 Q404 424 353 443 Q290 468 239.5 496 Q189 524 155.5 559.5 Q122 595 105 640 Q88 685 88 745 Q88 819 123 875.5 Q158 932 217 970.5 Q276 1009 351 1028.5 Q426 1048 506 1048 Q648 1048 760 1005 L760 802 Q652 876 512 876 Q468 876 432.5 867 Q397 858 372 842 Q347 826 333 803.5 Q319 781 319 754 Q319 721 333 698 Q347 675 374.5 657.5 Q402 640 440.5 625.5 Q479 611 529 594 Q595 567 647.5 539 Q700 511 737 475.5 Q774 440 794 393.5 Q814 347 814 283 Q814 205 778 147 Q742 89 682 51 Q622 13 543.5 -5.5 Q465 -24 378 -24 Q210 -24 87 32 Z M792 1531 L568 1204 L383 1204 L159 1531 L314 1531 L474 1321 L635 1531 L792 1531 Z " />
<glyph glyph-name="Zcaron" unicode="&#x17d;" horiz-adv-x="1202" d="M1155 1330 L369 201 L1145 201 L1145 0 L36 0 L36 109 L825 1232 L97 1232 L97 1434 L1155 1434 L1155 1330 Z M940 1878 L716 1551 L531 1551 L307 1878 L462 1878 L622 1668 L783 1878 L940 1878 Z " />
<glyph glyph-name="zcaron" unicode="&#x17e;" horiz-adv-x="951" d="M907 927 L354 181 L905 181 L905 0 L29 0 L29 87 L594 843 L83 843 L83 1024 L907 1024 L907 927 Z M822 1531 L598 1204 L413 1204 L189 1531 L344 1531 L504 1321 L665 1531 L822 1531 Z " />
<glyph glyph-name="brokenbar" unicode="&#xa6;" horiz-adv-x="570" d="M383 701 L189 701 L189 1566 L383 1566 L383 701 Z M383 -482 L189 -482 L189 390 L383 390 L383 -482 Z " />
<glyph glyph-name="Eth" unicode="&#xd0;" horiz-adv-x="1469" d="M177 0 L177 616 L15 616 L15 821 L177 821 L177 1434 L591 1434 Q1384 1434 1384 735 Q1384 401 1164 200.5 Q944 0 574 0 L177 0 Z M414 1232 L414 821 L721 821 L721 616 L414 616 L414 201 L604 201 Q855 201 994.5 339 Q1134 477 1134 731 Q1134 1232 613 1232 L414 1232 Z " />
<glyph glyph-name="eth" unicode="&#xf0;" horiz-adv-x="1176" d="M772 966 L776 969 Q686 1123 579 1222 L284 1074 L219 1192 L476 1315 Q357 1420 210 1516 L490 1516 Q557 1471 643 1397 L925 1536 L990 1423 L748 1304 Q1090 997 1090 542 Q1090 295 954 136.5 Q818 -22 584 -22 Q349 -22 217 119.5 Q85 261 85 506 Q85 745 214.5 894 Q344 1043 564 1043 Q686 1043 772 966 Z M595 863 Q468 863 395 768 Q322 673 322 509 Q322 348 393 254 Q464 160 591 160 Q712 160 782.5 256.5 Q853 353 853 514 Q853 863 595 863 Z " />
<glyph glyph-name="Yacute" unicode="&#xdd;" horiz-adv-x="1182" d="M1176 1434 L706 521 L706 0 L468 0 L468 516 L10 1434 L281 1434 L563 819 Q568 808 593 736 L596 736 Q605 768 629 819 L924 1434 L1176 1434 Z M908 1894 L622 1566 L450 1566 L692 1894 L908 1894 Z " />
<glyph glyph-name="yacute" unicode="&#xfd;" horiz-adv-x="1041" d="M1038 1024 L576 -164 Q432 -482 172 -482 Q99 -482 50 -469 L50 -276 Q105 -294 150 -294 Q280 -294 344 -166 L413 2 L6 1024 L263 1024 L507 280 Q511 266 525 206 L530 206 Q535 229 548 278 L804 1024 L1038 1024 Z M845 1546 L559 1218 L387 1218 L629 1546 L845 1546 Z " />
<glyph glyph-name="Thorn" unicode="&#xde;" horiz-adv-x="1197" d="M415 301 L415 0 L177 0 L177 1434 L415 1434 L415 1215 L622 1215 Q867 1215 999 1100 Q1131 985 1131 774 Q1131 565 988 433 Q845 301 603 301 L415 301 Z M415 1020 L415 496 L569 496 Q720 496 800.5 565 Q881 634 881 763 Q881 1020 587 1020 L415 1020 Z " />
<glyph glyph-name="thorn" unicode="&#xfe;" horiz-adv-x="1234" d="M383 134 L383 -471 L151 -471 L151 1516 L383 1516 L383 855 L387 855 Q504 1048 730 1048 Q927 1048 1037.5 910.5 Q1148 773 1148 542 Q1148 285 1023.5 130.5 Q899 -24 683 -24 Q489 -24 383 134 Z M381 551 L381 435 Q381 320 452 240 Q523 160 633 160 Q763 160 836.5 262 Q910 364 910 545 Q910 694 841 778.5 Q772 863 654 863 Q531 863 456 774 Q381 685 381 551 Z " />
<glyph glyph-name="minus" unicode="&#x2212;" horiz-adv-x="1422" d="M1190 510 L235 510 L235 675 L1190 675 L1190 510 Z " />
<glyph glyph-name="multiply" unicode="&#xd7;" horiz-adv-x="1422" d="M1168 253 L1052 137 L712 477 L373 137 L256 254 L596 591 L256 931 L371 1048 L712 708 L1053 1048 L1167 929 L828 591 L1168 253 Z " />
<glyph glyph-name="onehalf" unicode="&#xbd;" horiz-adv-x="1938" d="M657 584 L126 584 L126 723 L307 723 L307 1264 L115 1216 L115 1365 L476 1455 L476 723 L657 723 L657 584 Z M1790 1 L1213 1 L1213 134 L1443 354 Q1542 449 1569 500 Q1596 551 1596 602 Q1596 653 1562.5 685 Q1529 717 1474 717 Q1357 717 1260 615 L1260 794 Q1347 871 1502 871 Q1628 871 1701.5 802.5 Q1775 734 1775 622 Q1775 479 1582 297 L1427 152 L1427 148 L1790 148 L1790 1 Z M1445 1434 L570 0 L381 0 L1254 1434 L1445 1434 Z " />
<glyph glyph-name="onequarter" unicode="&#xbc;" horiz-adv-x="1898" d="M657 584 L126 584 L126 723 L307 723 L307 1264 L115 1216 L115 1365 L476 1455 L476 723 L657 723 L657 584 Z M1447 1434 L572 0 L383 0 L1256 1434 L1447 1434 Z M1769 192 L1659 192 L1659 1 L1490 1 L1490 192 L1096 192 L1096 306 L1457 851 L1659 851 L1659 322 L1769 322 L1769 192 Z M1494 704 L1489 704 Q1477 673 1450 630 L1255 322 L1490 322 L1490 622 Q1490 652 1494 704 Z " />
<glyph glyph-name="threequarters" unicode="&#xbe;" horiz-adv-x="1975" d="M130 616 L130 776 Q234 703 349 703 Q424 703 467.5 736 Q511 769 511 825 Q511 949 296 949 L214 949 L214 1089 L292 1089 Q484 1089 484 1206 Q484 1312 352 1312 Q255 1312 160 1245 L160 1400 Q252 1454 385 1454 Q507 1454 579 1393.5 Q651 1333 651 1236 Q651 1089 507 1036 L507 1032 Q681 990 681 832 Q681 713 591 638 Q501 563 350 563 Q210 563 130 616 Z M1511 1434 L636 0 L447 0 L1320 1434 L1511 1434 Z M1825 192 L1715 192 L1715 1 L1546 1 L1546 192 L1152 192 L1152 306 L1513 851 L1715 851 L1715 322 L1825 322 L1825 192 Z M1550 704 L1545 704 Q1533 673 1506 630 L1311 322 L1546 322 L1546 622 Q1546 652 1550 704 Z " />
<glyph glyph-name="franc" unicode="&#x20a3;" horiz-adv-x="1029" d="M671 237 L414 237 L414 0 L177 0 L177 237 L15 237 L15 415 L177 415 L177 1434 L950 1434 L950 1232 L414 1232 L414 800 L909 800 L909 599 L414 599 L414 415 L671 415 L671 237 Z " />
<glyph glyph-name="Gbreve" unicode="&#x11e;" horiz-adv-x="1428" d="M1296 98 Q1072 -24 797 -24 Q479 -24 282 174 Q85 372 85 698 Q85 1031 300.5 1244.5 Q516 1458 848 1458 Q1087 1458 1250 1388 L1250 1143 Q1085 1253 857 1253 Q628 1253 481.5 1102 Q335 951 335 711 Q335 464 461 322.5 Q587 181 803 181 Q951 181 1059 238 L1059 579 L757 579 L757 779 L1296 779 L1296 98 Z M1102 1842 Q1091 1718 1004.5 1642 Q918 1566 795 1566 Q665 1566 583.5 1641.5 Q502 1717 496 1842 L632 1842 Q644 1696 798 1696 Q863 1696 909 1735.5 Q955 1775 965 1842 L1102 1842 Z " />
<glyph glyph-name="gbreve" unicode="&#x11f;" horiz-adv-x="1234" d="M1083 82 Q1083 -482 516 -482 Q316 -482 167 -415 L167 -203 Q335 -299 486 -299 Q851 -299 851 60 L851 172 L847 172 Q732 -24 501 -24 Q314 -24 199.5 112.5 Q85 249 85 479 Q85 740 208 894 Q331 1048 546 1048 Q749 1048 847 882 L851 882 L851 1024 L1083 1024 L1083 82 Z M853 469 L853 602 Q853 710 781.5 786.5 Q710 863 603 863 Q471 863 396.5 765.5 Q322 668 322 493 Q322 342 393.5 251.5 Q465 161 583 161 Q703 161 778 247.5 Q853 334 853 469 Z M914 1480 Q903 1356 816.5 1280 Q730 1204 607 1204 Q477 1204 395.5 1279.5 Q314 1355 308 1480 L444 1480 Q456 1334 610 1334 Q675 1334 721 1373.5 Q767 1413 777 1480 L914 1480 Z " />
<glyph glyph-name="Idot" unicode="&#x130;" horiz-adv-x="592" d="M546 1434 L546 1242 L415 1242 L415 192 L546 192 L546 0 L46 0 L46 192 L177 192 L177 1242 L46 1242 L46 1434 L546 1434 Z M295 1566 Q245 1566 208.5 1599.5 Q172 1633 172 1682 Q172 1730 208 1763 Q244 1796 295 1796 Q346 1796 382 1763.5 Q418 1731 418 1682 Q418 1634 382 1600 Q346 1566 295 1566 Z " />
<glyph glyph-name="Scedilla" unicode="&#x15e;" horiz-adv-x="1115" d="M111 57 L111 302 Q144 272 189.5 248 Q235 224 286 207.5 Q337 191 388 182 Q439 173 482 173 Q632 173 705.5 223 Q779 273 779 368 Q779 419 754.5 456.5 Q730 494 686 525 Q642 556 582.5 584.5 Q523 613 455 644 Q382 683 319 723 Q256 763 209.5 811.5 Q163 860 136.5 921 Q110 982 110 1064 Q110 1165 155.5 1239.5 Q201 1314 275.5 1362.5 Q350 1411 445 1434.5 Q540 1458 639 1458 Q864 1458 967 1407 L967 1172 Q845 1260 653 1260 Q600 1260 547.5 1250 Q495 1240 453.5 1217 Q412 1194 386 1158 Q360 1122 360 1071 Q360 1023 380 988 Q400 953 438.5 924 Q477 895 532.5 867.5 Q588 840 661 808 Q736 769 802.5 726 Q869 683 919.5 631 Q970 579 999.5 515.5 Q1029 452 1029 371 Q1029 262 985 187 Q941 112 866.5 65 Q792 18 695 -3 Q598 -24 490 -24 Q454 -24 401.5 -18.5 Q349 -13 294 -2.5 Q239 8 190 23 Q141 38 111 57 Z M790 -248 Q790 -442 502 -442 Q455 -442 421 -439 L421 -328 Q465 -334 492 -334 Q625 -334 625 -252 Q625 -178 504 -178 Q494 -178 465 -182 L465 0 L601 0 L601 -94 Q688 -94 739 -134.5 Q790 -175 790 -248 Z " />
<glyph glyph-name="scedilla" unicode="&#x15f;" horiz-adv-x="883" d="M87 32 L87 247 Q217 148 374 148 Q584 148 584 272 Q584 307 566 331.5 Q548 356 517.5 375 Q487 394 445.5 409 Q404 424 353 443 Q290 468 239.5 496 Q189 524 155.5 559.5 Q122 595 105 640 Q88 685 88 745 Q88 819 123 875.5 Q158 932 217 970.5 Q276 1009 351 1028.5 Q426 1048 506 1048 Q648 1048 760 1005 L760 802 Q652 876 512 876 Q468 876 432.5 867 Q397 858 372 842 Q347 826 333 803.5 Q319 781 319 754 Q319 721 333 698 Q347 675 374.5 657.5 Q402 640 440.5 625.5 Q479 611 529 594 Q595 567 647.5 539 Q700 511 737 475.5 Q774 440 794 393.5 Q814 347 814 283 Q814 205 778 147 Q742 89 682 51 Q622 13 543.5 -5.5 Q465 -24 378 -24 Q210 -24 87 32 Z M665 -248 Q665 -442 377 -442 Q330 -442 296 -439 L296 -328 Q340 -334 367 -334 Q500 -334 500 -252 Q500 -178 379 -178 Q369 -178 340 -182 L340 0 L476 0 L476 -94 Q563 -94 614 -134.5 Q665 -175 665 -248 Z " />
<glyph glyph-name="Cacute" unicode="&#x106;" horiz-adv-x="1272" d="M1177 60 Q1015 -24 774 -24 Q462 -24 274 173 Q86 370 86 690 Q86 1034 297.5 1246 Q509 1458 832 1458 Q1040 1458 1177 1399 L1177 1163 Q1032 1249 857 1249 Q624 1249 479.5 1100 Q335 951 335 702 Q335 465 470 324.5 Q605 184 825 184 Q1028 184 1177 280 L1177 60 Z M1079 1908 L793 1580 L621 1580 L863 1908 L1079 1908 Z " />
<glyph glyph-name="cacute" unicode="&#x107;" horiz-adv-x="963" d="M884 47 Q761 -24 593 -24 Q365 -24 225 118.5 Q85 261 85 488 Q85 741 235.5 894.5 Q386 1048 638 1048 Q778 1048 885 999 L885 783 Q778 863 657 863 Q510 863 416 763.5 Q322 664 322 503 Q322 344 410.5 252 Q499 160 648 160 Q773 160 884 249 L884 47 Z M876 1546 L590 1218 L418 1218 L660 1546 L876 1546 Z " />
<glyph glyph-name="Ccaron" unicode="&#x10c;" horiz-adv-x="1272" d="M1177 60 Q1015 -24 774 -24 Q462 -24 274 173 Q86 370 86 690 Q86 1034 297.5 1246 Q509 1458 832 1458 Q1040 1458 1177 1399 L1177 1163 Q1032 1249 857 1249 Q624 1249 479.5 1100 Q335 951 335 702 Q335 465 470 324.5 Q605 184 825 184 Q1028 184 1177 280 L1177 60 Z M1102 1893 L878 1566 L693 1566 L469 1893 L624 1893 L784 1683 L945 1893 L1102 1893 Z " />
<glyph glyph-name="ccaron" unicode="&#x10d;" horiz-adv-x="963" d="M884 47 Q761 -24 593 -24 Q365 -24 225 118.5 Q85 261 85 488 Q85 741 235.5 894.5 Q386 1048 638 1048 Q778 1048 885 999 L885 783 Q778 863 657 863 Q510 863 416 763.5 Q322 664 322 503 Q322 344 410.5 252 Q499 160 648 160 Q773 160 884 249 L884 47 Z M898 1531 L674 1204 L489 1204 L265 1531 L420 1531 L580 1321 L741 1531 L898 1531 Z " />
<glyph glyph-name="dslash" unicode="&#x111;" horiz-adv-x="1246" d="M1082 0 L850 0 L850 159 L846 159 Q739 -24 516 -24 Q320 -24 202.5 113.5 Q85 251 85 488 Q85 742 212.5 895 Q340 1048 553 1048 Q752 1048 846 893 L850 893 L850 1188 L519 1188 L519 1354 L850 1354 L850 1516 L1082 1516 L1082 1354 L1221 1354 L1221 1188 L1082 1188 L1082 0 Z M853 472 L853 596 Q853 708 781 785.5 Q709 863 599 863 Q470 863 396 765.5 Q322 668 322 496 Q322 340 393.5 250 Q465 160 586 160 Q704 160 778.5 248.5 Q853 337 853 472 Z " />
<glyph glyph-name="uni00AF" unicode="&#xaf;" horiz-adv-x="850" d="M850 1396 L0 1396 L0 1516 L850 1516 L850 1396 Z " />
<glyph glyph-name="uni2219" unicode="&#x2219;" horiz-adv-x="494" d="M245 499 Q186 499 144.5 539 Q103 579 103 635 Q103 692 145.5 731.5 Q188 771 248 771 Q308 771 350.5 731.5 Q393 692 393 635 Q393 579 350 539 Q307 499 245 499 Z " />
<glyph glyph-name="Abreve" unicode="&#x102;" horiz-adv-x="1375" d="M1355 0 L1094 0 L965 365 L401 365 L277 0 L17 0 L554 1434 L822 1434 L1355 0 Z M902 559 L703 1131 Q694 1159 684 1221 L680 1221 Q671 1164 660 1131 L463 559 L902 559 Z M988 1843 Q977 1719 890.5 1643 Q804 1567 681 1567 Q551 1567 469.5 1642.5 Q388 1718 382 1843 L518 1843 Q530 1697 684 1697 Q749 1697 795 1736.5 Q841 1776 851 1843 L988 1843 Z " />
<glyph glyph-name="abreve" unicode="&#x103;" horiz-adv-x="1069" d="M937 0 L712 0 L712 160 L708 160 Q602 -24 397 -24 Q246 -24 160.5 58 Q75 140 75 275 Q75 565 409 613 L713 656 Q713 875 505 875 Q322 875 175 749 L175 952 Q337 1048 549 1048 Q937 1048 937 666 L937 0 Z M713 503 L498 473 Q398 460 347.5 424.5 Q297 389 297 300 Q297 235 343.5 193.5 Q390 152 468 152 Q574 152 643.5 226.5 Q713 301 713 414 L713 503 Z M851 1480 Q840 1356 753.5 1280 Q667 1204 544 1204 Q414 1204 332.5 1279.5 Q251 1355 245 1480 L381 1480 Q393 1334 547 1334 Q612 1334 658 1373.5 Q704 1413 714 1480 L851 1480 Z " />
<glyph glyph-name="Aogonek" unicode="&#x104;" horiz-adv-x="1375" d="M1355 0 L1094 0 L965 365 L401 365 L277 0 L17 0 L554 1434 L822 1434 L1355 0 Z M902 559 L703 1131 Q694 1159 684 1221 L680 1221 Q671 1164 660 1131 L463 559 L902 559 Z M1227 0 Q1076 -137 1076 -216 Q1076 -284 1141 -284 Q1177 -284 1209 -271 L1209 -392 Q1171 -408 1104 -408 Q1026 -408 978.5 -366 Q931 -324 931 -250 Q931 -128 1092 0 L1227 0 Z " />
<glyph glyph-name="aogonek" unicode="&#x105;" horiz-adv-x="1069" d="M937 0 L712 0 L712 160 L708 160 Q602 -24 397 -24 Q246 -24 160.5 58 Q75 140 75 275 Q75 565 409 613 L713 656 Q713 875 505 875 Q322 875 175 749 L175 952 Q337 1048 549 1048 Q937 1048 937 666 L937 0 Z M713 503 L498 473 Q398 460 347.5 424.5 Q297 389 297 300 Q297 235 343.5 193.5 Q390 152 468 152 Q574 152 643.5 226.5 Q713 301 713 414 L713 503 Z M845 0 Q694 -137 694 -216 Q694 -284 759 -284 Q795 -284 827 -271 L827 -392 Q789 -408 722 -408 Q644 -408 596.5 -366 Q549 -324 549 -250 Q549 -128 710 0 L845 0 Z " />
<glyph glyph-name="Dcaron" unicode="&#x10e;" horiz-adv-x="1469" d="M177 0 L177 1434 L591 1434 Q1384 1434 1384 735 Q1384 403 1164 201.5 Q944 0 574 0 L177 0 Z M414 1232 L414 201 L604 201 Q855 201 994.5 339 Q1134 477 1134 729 Q1134 1232 613 1232 L414 1232 Z M1013 1893 L789 1566 L604 1566 L380 1893 L535 1893 L695 1683 L856 1893 L1013 1893 Z " />
<glyph glyph-name="dcaron" unicode="&#x10f;" horiz-adv-x="1442" d="M1082 0 L850 0 L850 174 L846 174 Q734 -24 501 -24 Q312 -24 198.5 113.5 Q85 251 85 488 Q85 742 210.5 895 Q336 1048 545 1048 Q752 1048 846 882 L850 882 L850 1516 L1082 1516 L1082 0 Z M853 468 L853 602 Q853 711 782 787 Q711 863 601 863 Q471 863 396.5 766 Q322 669 322 497 Q322 341 393.5 250.5 Q465 160 586 160 Q705 160 779 247.5 Q853 335 853 468 Z M1513 1516 L1346 1214 L1191 1214 L1296 1516 L1513 1516 Z " />
<glyph glyph-name="Dcroat" unicode="&#x110;" horiz-adv-x="1469" d="M177 0 L177 616 L15 616 L15 821 L177 821 L177 1434 L591 1434 Q1384 1434 1384 735 Q1384 401 1164 200.5 Q944 0 574 0 L177 0 Z M414 1232 L414 821 L721 821 L721 616 L414 616 L414 201 L604 201 Q855 201 994.5 339 Q1134 477 1134 731 Q1134 1232 613 1232 L414 1232 Z " />
<glyph glyph-name="Eogonek" unicode="&#x118;" horiz-adv-x="1060" d="M982 0 L177 0 L177 1434 L950 1434 L950 1232 L415 1232 L415 826 L908 826 L908 625 L415 625 L415 201 L982 201 L982 0 Z M892 0 Q741 -137 741 -216 Q741 -284 806 -284 Q842 -284 874 -271 L874 -392 Q836 -408 769 -408 Q691 -408 643.5 -366 Q596 -324 596 -250 Q596 -128 757 0 L892 0 Z " />
<glyph glyph-name="eogonek" unicode="&#x119;" horiz-adv-x="1088" d="M1018 449 L320 449 Q324 307 407.5 230 Q491 153 637 153 Q801 153 938 251 L938 64 Q798 -24 568 -24 Q342 -24 213.5 115.5 Q85 255 85 508 Q85 747 226.5 897.5 Q368 1048 578 1048 Q788 1048 903 913 Q1018 778 1018 538 L1018 449 Z M794 613 Q793 738 735 807.5 Q677 877 575 877 Q475 877 405.5 804 Q336 731 320 613 L794 613 Z M782 0 Q631 -137 631 -216 Q631 -284 696 -284 Q732 -284 764 -271 L764 -392 Q726 -408 659 -408 Q581 -408 533.5 -366 Q486 -324 486 -250 Q486 -128 647 0 L782 0 Z " />
<glyph glyph-name="Ecaron" unicode="&#x11a;" horiz-adv-x="1060" d="M982 0 L177 0 L177 1434 L950 1434 L950 1232 L415 1232 L415 826 L908 826 L908 625 L415 625 L415 201 L982 201 L982 0 Z M891 1893 L667 1566 L482 1566 L258 1893 L413 1893 L573 1683 L734 1893 L891 1893 Z " />
<glyph glyph-name="ecaron" unicode="&#x11b;" horiz-adv-x="1088" d="M1018 449 L320 449 Q324 307 407.5 230 Q491 153 637 153 Q801 153 938 251 L938 64 Q798 -24 568 -24 Q342 -24 213.5 115.5 Q85 255 85 508 Q85 747 226.5 897.5 Q368 1048 578 1048 Q788 1048 903 913 Q1018 778 1018 538 L1018 449 Z M794 613 Q793 738 735 807.5 Q677 877 575 877 Q475 877 405.5 804 Q336 731 320 613 L794 613 Z M884 1531 L660 1204 L475 1204 L251 1531 L406 1531 L566 1321 L727 1531 L884 1531 Z " />
<glyph glyph-name="Lacute" unicode="&#x139;" horiz-adv-x="1001" d="M971 0 L177 0 L177 1434 L415 1434 L415 201 L971 201 L971 0 Z M888 1908 L602 1580 L430 1580 L672 1908 L888 1908 Z " />
<glyph glyph-name="lacute" unicode="&#x13a;" horiz-adv-x="535" d="M384 0 L151 0 L151 1516 L384 1516 L384 0 Z M597 1992 L311 1664 L139 1664 L381 1992 L597 1992 Z " />
<glyph glyph-name="Lcaron" unicode="&#x13d;" horiz-adv-x="1001" d="M971 0 L177 0 L177 1434 L415 1434 L415 201 L971 201 L971 0 Z M972 1435 L805 1133 L650 1133 L755 1435 L972 1435 Z " />
<glyph glyph-name="lcaron" unicode="&#x13e;" horiz-adv-x="682" d="M384 0 L151 0 L151 1516 L384 1516 L384 0 Z M801 1512 L634 1210 L479 1210 L584 1512 L801 1512 Z " />
<glyph glyph-name="Ldot" unicode="&#x13f;" horiz-adv-x="1001" d="M971 0 L177 0 L177 1434 L415 1434 L415 201 L971 201 L971 0 Z M776 660 Q726 660 689.5 693.5 Q653 727 653 776 Q653 824 689 857 Q725 890 776 890 Q827 890 863 857.5 Q899 825 899 776 Q899 728 863 694 Q827 660 776 660 Z " />
<glyph glyph-name="ldot" unicode="&#x140;" horiz-adv-x="754" d="M384 0 L151 0 L151 1516 L384 1516 L384 0 Z M631 633 Q581 633 544.5 666.5 Q508 700 508 749 Q508 797 544 830 Q580 863 631 863 Q682 863 718 830.5 Q754 798 754 749 Q754 701 718 667 Q682 633 631 633 Z " />
<glyph glyph-name="Nacute" unicode="&#x143;" horiz-adv-x="1571" d="M1393 0 L1133 0 L448 1054 Q422 1094 405 1137 L399 1137 Q407 1091 407 940 L407 0 L177 0 L177 1434 L454 1434 L1116 405 Q1158 341 1170 317 L1174 317 Q1164 374 1164 510 L1164 1434 L1393 1434 L1393 0 Z M1110 1908 L824 1580 L652 1580 L894 1908 L1110 1908 Z " />
<glyph glyph-name="nacute" unicode="&#x144;" horiz-adv-x="1195" d="M1063 0 L831 0 L831 577 Q831 864 628 864 Q522 864 453 784.5 Q384 705 384 584 L384 0 L151 0 L151 1024 L384 1024 L384 854 L388 854 Q503 1048 720 1048 Q887 1048 975 939.5 Q1063 831 1063 626 L1063 0 Z M908 1546 L622 1218 L450 1218 L692 1546 L908 1546 Z " />
<glyph glyph-name="Ncaron" unicode="&#x147;" horiz-adv-x="1571" d="M1393 0 L1133 0 L448 1054 Q422 1094 405 1137 L399 1137 Q407 1091 407 940 L407 0 L177 0 L177 1434 L454 1434 L1116 405 Q1158 341 1170 317 L1174 317 Q1164 374 1164 510 L1164 1434 L1393 1434 L1393 0 Z M1101 1893 L877 1566 L692 1566 L468 1893 L623 1893 L783 1683 L944 1893 L1101 1893 Z " />
<glyph glyph-name="ncaron" unicode="&#x148;" horiz-adv-x="1195" d="M1063 0 L831 0 L831 577 Q831 864 628 864 Q522 864 453 784.5 Q384 705 384 584 L384 0 L151 0 L151 1024 L384 1024 L384 854 L388 854 Q503 1048 720 1048 Q887 1048 975 939.5 Q1063 831 1063 626 L1063 0 Z M935 1531 L711 1204 L526 1204 L302 1531 L457 1531 L617 1321 L778 1531 L935 1531 Z " />
<glyph glyph-name="Ohungarumlaut" unicode="&#x150;" horiz-adv-x="1548" d="M768 -24 Q458 -24 271.5 177 Q85 378 85 700 Q85 1046 275 1252 Q465 1458 791 1458 Q1093 1458 1277.5 1258 Q1462 1058 1462 735 Q1462 384 1273 180 Q1084 -24 768 -24 Z M779 1249 Q582 1249 458.5 1102 Q335 955 335 715 Q335 476 455 330 Q575 184 769 184 Q975 184 1094 323 Q1213 462 1213 712 Q1213 969 1097.5 1109 Q982 1249 779 1249 Z M1194 1885 L946 1567 L798 1567 L1009 1885 L1194 1885 Z M888 1885 L645 1567 L497 1567 L705 1885 L888 1885 Z " />
<glyph glyph-name="ohungarumlaut" unicode="&#x151;" horiz-adv-x="1223" d="M605 -24 Q368 -24 226.5 119.5 Q85 263 85 500 Q85 758 232.5 903 Q380 1048 630 1048 Q870 1048 1004 907 Q1138 766 1138 516 Q1138 271 993.5 123.5 Q849 -24 605 -24 Z M616 863 Q480 863 401 768 Q322 673 322 506 Q322 345 402 252.5 Q482 160 616 160 Q753 160 826.5 251 Q900 342 900 510 Q900 679 826.5 771 Q753 863 616 863 Z M1028 1522 L780 1204 L632 1204 L843 1522 L1028 1522 Z M722 1522 L479 1204 L331 1204 L539 1522 L722 1522 Z " />
<glyph glyph-name="Racute" unicode="&#x154;" horiz-adv-x="1275" d="M1285 0 L1007 0 L778 384 Q747 437 717.5 474.5 Q688 512 657.5 536 Q627 560 591 571 Q555 582 510 582 L414 582 L414 0 L177 0 L177 1434 L649 1434 Q750 1434 835 1410 Q920 1386 983 1337.5 Q1046 1289 1081.5 1216.5 Q1117 1144 1117 1047 Q1117 971 1094.5 907.5 Q1072 844 1030.5 794.5 Q989 745 930.5 710 Q872 675 799 656 L799 652 Q838 630 867 603.5 Q896 577 922 549 Q948 521 973.5 485.5 Q999 450 1030 403 L1285 0 Z M414 1241 L414 775 L612 775 Q667 775 713.5 792 Q760 809 794 841 Q828 873 847 919 Q866 965 866 1022 Q866 1125 801 1183 Q736 1241 614 1241 L414 1241 Z M933 1908 L647 1580 L475 1580 L717 1908 L933 1908 Z " />
<glyph glyph-name="racute" unicode="&#x155;" horiz-adv-x="758" d="M745 803 Q703 836 624 836 Q521 836 452 743 Q383 650 383 490 L383 0 L151 0 L151 1024 L383 1024 L383 813 L387 813 Q421 921 491.5 981.5 Q562 1042 649 1042 Q712 1042 745 1023 L745 803 Z M737 1546 L451 1218 L279 1218 L521 1546 L737 1546 Z " />
<glyph glyph-name="Rcaron" unicode="&#x158;" horiz-adv-x="1275" d="M1285 0 L1007 0 L778 384 Q747 437 717.5 474.5 Q688 512 657.5 536 Q627 560 591 571 Q555 582 510 582 L414 582 L414 0 L177 0 L177 1434 L649 1434 Q750 1434 835 1410 Q920 1386 983 1337.5 Q1046 1289 1081.5 1216.5 Q1117 1144 1117 1047 Q1117 971 1094.5 907.5 Q1072 844 1030.5 794.5 Q989 745 930.5 710 Q872 675 799 656 L799 652 Q838 630 867 603.5 Q896 577 922 549 Q948 521 973.5 485.5 Q999 450 1030 403 L1285 0 Z M414 1241 L414 775 L612 775 Q667 775 713.5 792 Q760 809 794 841 Q828 873 847 919 Q866 965 866 1022 Q866 1125 801 1183 Q736 1241 614 1241 L414 1241 Z M938 1893 L714 1566 L529 1566 L305 1893 L460 1893 L620 1683 L781 1893 L938 1893 Z " />
<glyph glyph-name="rcaron" unicode="&#x159;" horiz-adv-x="758" d="M745 803 Q703 836 624 836 Q521 836 452 743 Q383 650 383 490 L383 0 L151 0 L151 1024 L383 1024 L383 813 L387 813 Q421 921 491.5 981.5 Q562 1042 649 1042 Q712 1042 745 1023 L745 803 Z M746 1531 L522 1204 L337 1204 L113 1531 L268 1531 L428 1321 L589 1531 L746 1531 Z " />
<glyph glyph-name="Sacute" unicode="&#x15a;" horiz-adv-x="1115" d="M111 57 L111 302 Q144 272 189.5 248 Q235 224 286 207.5 Q337 191 388 182 Q439 173 482 173 Q632 173 705.5 223 Q779 273 779 368 Q779 419 754.5 456.5 Q730 494 686 525 Q642 556 582.5 584.5 Q523 613 455 644 Q382 683 319 723 Q256 763 209.5 811.5 Q163 860 136.5 921 Q110 982 110 1064 Q110 1165 155.5 1239.5 Q201 1314 275.5 1362.5 Q350 1411 445 1434.5 Q540 1458 639 1458 Q864 1458 967 1407 L967 1172 Q845 1260 653 1260 Q600 1260 547.5 1250 Q495 1240 453.5 1217 Q412 1194 386 1158 Q360 1122 360 1071 Q360 1023 380 988 Q400 953 438.5 924 Q477 895 532.5 867.5 Q588 840 661 808 Q736 769 802.5 726 Q869 683 919.5 631 Q970 579 999.5 515.5 Q1029 452 1029 371 Q1029 262 985 187 Q941 112 866.5 65 Q792 18 695 -3 Q598 -24 490 -24 Q454 -24 401.5 -18.5 Q349 -13 294 -2.5 Q239 8 190 23 Q141 38 111 57 Z M858 1908 L572 1580 L400 1580 L642 1908 L858 1908 Z " />
<glyph glyph-name="sacute" unicode="&#x15b;" horiz-adv-x="883" d="M87 32 L87 247 Q217 148 374 148 Q584 148 584 272 Q584 307 566 331.5 Q548 356 517.5 375 Q487 394 445.5 409 Q404 424 353 443 Q290 468 239.5 496 Q189 524 155.5 559.5 Q122 595 105 640 Q88 685 88 745 Q88 819 123 875.5 Q158 932 217 970.5 Q276 1009 351 1028.5 Q426 1048 506 1048 Q648 1048 760 1005 L760 802 Q652 876 512 876 Q468 876 432.5 867 Q397 858 372 842 Q347 826 333 803.5 Q319 781 319 754 Q319 721 333 698 Q347 675 374.5 657.5 Q402 640 440.5 625.5 Q479 611 529 594 Q595 567 647.5 539 Q700 511 737 475.5 Q774 440 794 393.5 Q814 347 814 283 Q814 205 778 147 Q742 89 682 51 Q622 13 543.5 -5.5 Q465 -24 378 -24 Q210 -24 87 32 Z M761 1546 L475 1218 L303 1218 L545 1546 L761 1546 Z " />
<glyph glyph-name="uni0162" unicode="&#x162;" horiz-adv-x="1130" d="M1097 1232 L685 1232 L685 0 L447 0 L447 1232 L36 1232 L36 1434 L1097 1434 L1097 1232 Z M793 -248 Q793 -442 505 -442 Q458 -442 424 -439 L424 -328 Q468 -334 495 -334 Q628 -334 628 -252 Q628 -178 507 -178 Q497 -178 468 -182 L468 0 L604 0 L604 -94 Q691 -94 742 -134.5 Q793 -175 793 -248 Z " />
<glyph glyph-name="uni0163" unicode="&#x163;" horiz-adv-x="740" d="M691 11 Q623 -23 512 -23 Q214 -23 214 263 L214 842 L43 842 L43 1024 L214 1024 L214 1261 L446 1327 L446 1024 L691 1024 L691 842 L446 842 L446 330 Q446 239 479 200 Q512 161 589 161 Q648 161 691 195 L691 11 Z M700 -248 Q700 -442 412 -442 Q365 -442 331 -439 L331 -328 Q375 -334 402 -334 Q535 -334 535 -252 Q535 -178 414 -178 Q404 -178 375 -182 L375 0 L511 0 L511 -94 Q598 -94 649 -134.5 Q700 -175 700 -248 Z " />
<glyph glyph-name="Tcaron" unicode="&#x164;" horiz-adv-x="1130" d="M1097 1232 L685 1232 L685 0 L447 0 L447 1232 L36 1232 L36 1434 L1097 1434 L1097 1232 Z M883 1893 L659 1566 L474 1566 L250 1893 L405 1893 L565 1683 L726 1893 L883 1893 Z " />
<glyph glyph-name="tcaron" unicode="&#x165;" horiz-adv-x="846" d="M691 11 Q623 -23 512 -23 Q214 -23 214 263 L214 842 L43 842 L43 1024 L214 1024 L214 1261 L446 1327 L446 1024 L691 1024 L691 842 L446 842 L446 330 Q446 239 479 200 Q512 161 589 161 Q648 161 691 195 L691 11 Z M959 1434 L792 1132 L637 1132 L742 1434 L959 1434 Z " />
<glyph glyph-name="Uring" unicode="&#x16e;" horiz-adv-x="1440" d="M1280 580 Q1280 -24 708 -24 Q160 -24 160 557 L160 1434 L398 1434 L398 606 Q398 184 726 184 Q1042 184 1042 591 L1042 1434 L1280 1434 L1280 580 Z M705 1566 Q611 1566 549.5 1620 Q488 1674 488 1762 Q488 1860 551 1918 Q614 1976 712 1976 Q808 1976 869.5 1917.5 Q931 1859 931 1768 Q931 1681 865.5 1623.5 Q800 1566 705 1566 Z M705 1876 Q660 1876 630.5 1846 Q601 1816 601 1772 Q601 1668 705 1668 Q753 1668 784.5 1697.5 Q816 1727 816 1772 Q816 1817 784.5 1846.5 Q753 1876 705 1876 Z " />
<glyph glyph-name="uring" unicode="&#x16f;" horiz-adv-x="1195" d="M1044 0 L812 0 L812 162 L808 162 Q707 -24 494 -24 Q131 -24 131 412 L131 1024 L363 1024 L363 436 Q363 160 576 160 Q679 160 745.5 236 Q812 312 812 435 L812 1024 L1044 1024 L1044 0 Z M586 1180 Q492 1180 430.5 1234 Q369 1288 369 1376 Q369 1474 432 1532 Q495 1590 593 1590 Q689 1590 750.5 1531.5 Q812 1473 812 1382 Q812 1295 746.5 1237.5 Q681 1180 586 1180 Z M586 1490 Q541 1490 511.5 1460 Q482 1430 482 1386 Q482 1282 586 1282 Q634 1282 665.5 1311.5 Q697 1341 697 1386 Q697 1431 665.5 1460.5 Q634 1490 586 1490 Z " />
<glyph glyph-name="Uhungarumlaut" unicode="&#x170;" horiz-adv-x="1440" d="M1280 580 Q1280 -24 708 -24 Q160 -24 160 557 L160 1434 L398 1434 L398 606 Q398 184 726 184 Q1042 184 1042 591 L1042 1434 L1280 1434 L1280 580 Z M1160 1884 L912 1566 L764 1566 L975 1884 L1160 1884 Z M854 1884 L611 1566 L463 1566 L671 1884 L854 1884 Z " />
<glyph glyph-name="uhungarumlaut" unicode="&#x171;" horiz-adv-x="1195" d="M1044 0 L812 0 L812 162 L808 162 Q707 -24 494 -24 Q131 -24 131 412 L131 1024 L363 1024 L363 436 Q363 160 576 160 Q679 160 745.5 236 Q812 312 812 435 L812 1024 L1044 1024 L1044 0 Z M1012 1522 L764 1204 L616 1204 L827 1522 L1012 1522 Z M706 1522 L463 1204 L315 1204 L523 1522 L706 1522 Z " />
<glyph glyph-name="Zacute" unicode="&#x179;" horiz-adv-x="1202" d="M1155 1330 L369 201 L1145 201 L1145 0 L36 0 L36 109 L825 1232 L97 1232 L97 1434 L1155 1434 L1155 1330 Z M940 1909 L654 1581 L482 1581 L724 1909 L940 1909 Z " />
<glyph glyph-name="zacute" unicode="&#x17a;" horiz-adv-x="951" d="M907 927 L354 181 L905 181 L905 0 L29 0 L29 87 L594 843 L83 843 L83 1024 L907 1024 L907 927 Z M815 1546 L529 1218 L357 1218 L599 1546 L815 1546 Z " />
<glyph glyph-name="Zdotaccent" unicode="&#x17b;" horiz-adv-x="1202" d="M1155 1330 L369 201 L1145 201 L1145 0 L36 0 L36 109 L825 1232 L97 1232 L97 1434 L1155 1434 L1155 1330 Z M614 1565 Q564 1565 527.5 1598.5 Q491 1632 491 1681 Q491 1729 527 1762 Q563 1795 614 1795 Q665 1795 701 1762.5 Q737 1730 737 1681 Q737 1633 701 1599 Q665 1565 614 1565 Z " />
<glyph glyph-name="zdotaccent" unicode="&#x17c;" horiz-adv-x="951" d="M907 927 L354 181 L905 181 L905 0 L29 0 L29 87 L594 843 L83 843 L83 1024 L907 1024 L907 927 Z M496 1203 Q446 1203 409.5 1236.5 Q373 1270 373 1319 Q373 1367 409 1400 Q445 1433 496 1433 Q547 1433 583 1400.5 Q619 1368 619 1319 Q619 1271 583 1237 Q547 1203 496 1203 Z " />
<glyph glyph-name="Gamma" unicode="&#x393;" horiz-adv-x="1003" d="M971 1228 L415 1228 L415 0 L177 0 L177 1434 L971 1434 L971 1228 Z " />
<glyph glyph-name="Theta" unicode="&#x398;" horiz-adv-x="1548" d="M768 -24 Q459 -24 272 175.5 Q85 375 85 700 Q85 1043 274 1250.5 Q463 1458 790 1458 Q1093 1458 1278 1258 Q1463 1058 1463 735 Q1463 384 1274.5 180 Q1086 -24 768 -24 Z M780 1249 Q583 1249 459.5 1101.5 Q336 954 336 716 Q336 476 456 330.5 Q576 185 770 185 Q976 185 1094 324 Q1212 463 1212 713 Q1212 966 1097.5 1107.5 Q983 1249 780 1249 Z M1024 618 L525 618 L525 814 L1024 814 L1024 618 Z " />
<glyph glyph-name="Phi" unicode="&#x3a6;" horiz-adv-x="1601" d="M911 182 L911 -17 L690 -17 L690 182 L647 182 Q396 182 241.5 341 Q87 500 87 754 Q87 1001 241 1150.5 Q395 1300 649 1300 L690 1300 L690 1449 L911 1449 L911 1300 L953 1300 Q1207 1300 1360 1150 Q1513 1000 1513 755 Q1513 500 1357.5 341 Q1202 182 955 182 L911 182 Z M911 1113 L911 376 L949 376 Q1105 376 1193.5 475 Q1282 574 1282 750 Q1282 916 1191.5 1014.5 Q1101 1113 947 1113 L911 1113 Z M691 376 L691 1113 L656 1113 Q502 1113 410 1015.5 Q318 918 318 751 Q318 574 407 475 Q496 376 654 376 L691 376 Z " />
<glyph glyph-name="alpha" unicode="&#x3b1;" horiz-adv-x="1279" d="M1252 8 Q1185 -11 1132 -11 Q957 -11 896 253 L891 253 Q750 -24 496 -24 Q308 -24 195 119.5 Q82 263 82 482 Q82 732 211 890 Q340 1048 560 1048 Q679 1048 772 982 Q865 916 913 796 L917 796 L993 1024 L1231 1024 L1026 514 Q1060 324 1098 255.5 Q1136 187 1197 187 Q1230 187 1254 197 L1252 8 Z M837 522 Q805 688 738.5 776.5 Q672 865 579 865 Q459 865 387.5 758.5 Q316 652 316 496 Q316 355 378 260 Q440 165 544 165 Q632 165 704.5 246 Q777 327 825 484 L837 522 Z " />
<glyph glyph-name="delta" unicode="&#x3b4;" horiz-adv-x="1222" d="M1013 1465 L1013 1230 Q847 1343 677 1343 Q590 1343 537.5 1314 Q485 1285 485 1237 Q485 1196 531 1150.5 Q577 1105 683 1042 Q849 942 944.5 864 Q1040 786 1089.5 689.5 Q1139 593 1139 481 Q1139 248 993 111.5 Q847 -25 599 -25 Q370 -25 226.5 108.5 Q83 242 83 457 Q83 608 182 734 Q281 860 470 946 Q247 1093 247 1255 Q247 1389 357 1461.5 Q467 1534 659 1534 Q830 1534 1013 1465 Z M629 841 Q324 708 324 458 Q324 322 402.5 241.5 Q481 161 612 161 Q746 161 825 245 Q904 329 904 469 Q904 574 840 660 Q776 746 629 841 Z " />
<glyph glyph-name="epsilon" unicode="&#x3b5;" horiz-adv-x="920" d="M852 21 Q716 -25 512 -25 Q309 -25 192 56.5 Q75 138 75 274 Q75 368 141.5 436.5 Q208 505 317 526 L317 530 Q235 548 174 613 Q113 678 113 761 Q113 897 224.5 973 Q336 1049 522 1049 Q673 1049 807 1005 L807 810 Q679 876 537 876 Q349 876 349 750 Q349 685 419.5 645.5 Q490 606 599 606 Q672 606 717 610 L717 438 Q644 442 574 442 Q311 442 311 290 Q311 225 373 186 Q435 147 548 147 Q712 147 852 217 L852 21 Z " />
<glyph glyph-name="sigma" unicode="&#x3c3;" horiz-adv-x="1213" d="M1191 848 L949 848 Q1076 686 1076 489 Q1076 262 943.5 119 Q811 -24 588 -24 Q358 -24 221.5 119.5 Q85 263 85 502 Q85 1024 618 1024 L1191 1024 L1191 848 Z M737 848 L636 848 Q324 848 324 495 Q324 343 396 252 Q468 161 588 161 Q704 161 771.5 253.5 Q839 346 839 500 Q839 695 737 848 Z " />
<glyph glyph-name="tau" unicode="&#x3c4;" horiz-adv-x="1055" d="M1015 849 L638 849 L638 305 Q638 178 751 178 Q804 178 857 198 L857 14 Q776 -15 688 -15 Q406 -15 406 287 L406 849 L282 849 Q154 849 34 754 L34 949 Q120 1024 304 1024 L1015 1024 L1015 849 Z " />
<glyph glyph-name="phi" unicode="&#x3c6;" horiz-adv-x="1480" d="M876 -24 Q859 -24 842 -24 L842 -481 L632 -481 L632 -24 Q620 -24 604 -24 Q367 -24 226 120 Q85 264 85 510 Q85 825 277 1024 L531 1024 Q312 811 312 513 Q312 347 393.5 254 Q475 161 606 161 L632 161 L632 662 Q632 1048 951 1048 Q1148 1048 1271 899 Q1394 750 1394 498 Q1394 266 1252.5 121 Q1111 -24 876 -24 Z M842 161 L871 161 Q1001 161 1083.5 255 Q1166 349 1166 511 Q1166 669 1104.5 766 Q1043 863 956 863 Q842 863 842 749 L842 161 Z " />
<glyph glyph-name="underscoredbl" unicode="&#x2017;" horiz-adv-x="850" d="M0 -277 L0 -158 L850 -158 L850 -277 L0 -277 Z M0 -514 L0 -395 L850 -395 L850 -514 L0 -514 Z " />
<glyph glyph-name="exclamdbl" unicode="&#x203c;" horiz-adv-x="1075" d="M422 1434 L403 422 L213 422 L187 1434 L422 1434 Z M311 -20 Q251 -20 209 18.5 Q167 57 167 112 Q167 169 209 209 Q251 249 311 249 Q369 249 411.5 209 Q454 169 454 112 Q454 57 411.5 18.5 Q369 -20 311 -20 Z M875 1434 L856 422 L666 422 L640 1434 L875 1434 Z M764 -20 Q704 -20 662 18.5 Q620 57 620 112 Q620 169 662 209 Q704 249 764 249 Q822 249 864.5 209 Q907 169 907 112 Q907 57 864.5 18.5 Q822 -20 764 -20 Z " />
<glyph glyph-name="uni207F" unicode="&#x207f;" horiz-adv-x="852" d="M275 717 L110 717 L110 1436 L273 1436 L273 1320 L277 1320 Q345 1456 491 1456 Q613 1456 681 1381.5 Q749 1307 749 1173 L749 717 L582 717 L582 1163 Q582 1323 448 1323 Q380 1323 327.5 1264.5 Q275 1206 275 1124 L275 717 Z " />
<glyph glyph-name="peseta" unicode="&#x20a7;" horiz-adv-x="2457" d="M414 520 L414 0 L177 0 L177 1434 L539 1434 Q1037 1434 1037 992 Q1037 778 896.5 649 Q756 520 506 520 L414 520 Z M414 1238 L414 714 L496 714 Q788 714 788 983 Q788 1238 498 1238 L414 1238 Z M1669 10 Q1601 -23 1490 -23 Q1343 -23 1277.5 46 Q1212 115 1212 268 L1212 717 L1073 717 L1073 889 L1212 889 L1212 1139 L1435 1193 L1435 889 L1669 889 L1669 717 L1435 717 L1435 329 Q1435 149 1564 149 Q1623 149 1669 183 L1669 10 Z M1733 32 L1733 238 Q1862 139 2007 139 Q2154 139 2154 243 Q2154 281 2121 307.5 Q2088 334 1853 436 Q1734 491 1734 622 Q1734 749 1832 825.5 Q1930 902 2085 902 Q2231 902 2319 859 L2319 670 Q2215 739 2091 739 Q2030 739 1993 712 Q1956 685 1956 643 Q1956 590 2073 548 Q2168 510 2234 478 Q2300 446 2336.5 392.5 Q2373 339 2373 266 Q2373 131 2283.5 54 Q2194 -23 2038 -23 Q1846 -23 1733 32 Z " />
<glyph glyph-name="IJ" unicode="&#x132;" horiz-adv-x="1404" d="M546 1434 L546 1242 L415 1242 L415 192 L546 192 L546 0 L46 0 L46 192 L177 192 L177 1242 L46 1242 L46 1434 L546 1434 Z M1241 514 Q1241 259 1115 117.5 Q989 -24 779 -24 Q681 -24 618 -1 L618 223 Q675 184 765 184 Q1003 184 1003 552 L1003 1434 L1241 1434 L1241 514 Z " />
<glyph glyph-name="ij" unicode="&#x133;" horiz-adv-x="1115" d="M268 1239 Q211 1239 170.5 1276 Q130 1313 130 1370 Q130 1427 170.5 1465 Q211 1503 268 1503 Q327 1503 368 1465 Q409 1427 409 1370 Q409 1316 368 1277.5 Q327 1239 268 1239 Z M383 0 L151 0 L151 1024 L383 1024 L383 0 Z M963 43 Q963 -209 857 -345.5 Q751 -482 554 -482 Q481 -482 412 -450 L412 -251 Q477 -296 535 -296 Q731 -296 731 50 L731 1024 L963 1024 L963 43 Z M849 1239 Q792 1239 751.5 1276 Q711 1313 711 1370 Q711 1427 751.5 1465 Q792 1503 849 1503 Q907 1503 948 1465 Q989 1427 989 1370 Q989 1316 948 1277.5 Q907 1239 849 1239 Z " />
<glyph glyph-name="napostrophe" unicode="&#x149;" horiz-adv-x="1241" d="M239 1462 L76 1017 L-77 1017 L36 1462 L239 1462 Z M1109 0 L877 0 L877 577 Q877 864 674 864 Q568 864 499 784.5 Q430 705 430 584 L430 0 L197 0 L197 1024 L430 1024 L430 854 L434 854 Q549 1048 766 1048 Q933 1048 1021 939.5 Q1109 831 1109 626 L1109 0 Z " />
<glyph glyph-name="minute" unicode="&#x2032;" horiz-adv-x="528" d="M407 1442 L294 997 L140 997 L216 1442 L407 1442 Z " />
<glyph glyph-name="second" unicode="&#x2033;" horiz-adv-x="879" d="M751 1442 L636 996 L482 996 L558 1442 L751 1442 Z M417 1442 L303 997 L149 997 L225 1442 L417 1442 Z " />
<glyph glyph-name="uni2105" unicode="&#x2105;" horiz-adv-x="1706" d="M759 1257 Q686 1314 602 1314 Q492 1314 425 1224.5 Q358 1135 358 1019 Q358 848 510 848 Q586 848 691 910 L659 761 Q553 708 458 708 Q328 708 255.5 788 Q183 868 183 1003 Q183 1196 300.5 1325 Q418 1454 608 1454 Q722 1454 795 1408 L759 1257 Z M1558 1434 L325 0 L134 0 L1367 1434 L1558 1434 Z M1188 -20 Q1040 -20 961.5 63.5 Q883 147 883 282 Q883 459 997 591 Q1111 723 1283 723 Q1420 723 1500 643.5 Q1580 564 1580 425 Q1580 245 1468 112.5 Q1356 -20 1188 -20 Z M1277 584 Q1183 584 1118.5 489 Q1054 394 1054 281 Q1054 119 1193 119 Q1284 119 1346.5 210 Q1409 301 1409 425 Q1409 584 1277 584 Z " />
<glyph glyph-name="uni2113" unicode="&#x2113;" horiz-adv-x="662" d="M14 422 L192 658 L192 1112 Q192 1338 253.5 1414.5 Q315 1491 426 1491 Q526 1491 585.5 1423.5 Q645 1356 645 1252 Q645 1057 360 666 L360 250 Q360 160 374 139.5 Q388 119 418 119 Q466 119 616 226 L616 64 Q504 -24 391 -24 Q192 -24 192 217 L192 442 L112 344 L14 422 Z M360 899 Q469 1086 487.5 1142.5 Q506 1199 506 1252 Q506 1370 430 1370 Q401 1370 380.5 1339 Q360 1308 360 1126 L360 899 Z " />
<glyph glyph-name="uni25A1" unicode="&#x25a1;" horiz-adv-x="1237" d="M145 944 L1090 944 L1090 0 L145 0 L145 944 Z M221 868 L221 76 L1014 76 L1014 868 L221 868 Z " />
<glyph glyph-name="uni25AA" unicode="&#x25aa;" horiz-adv-x="725" d="M594 907 L594 444 L131 444 L131 907 L594 907 Z " />
<glyph glyph-name="uni25AB" unicode="&#x25ab;" horiz-adv-x="725" d="M131 907 L594 907 L594 444 L131 444 L131 907 Z M207 831 L207 520 L518 520 L518 831 L207 831 Z " />
<glyph glyph-name="uni25CF" unicode="&#x25cf;" horiz-adv-x="1237" d="M1059 578 Q1059 488 1024.5 408 Q990 328 930.5 267.5 Q871 207 791 172 Q711 137 620 137 Q529 137 448.5 171.5 Q368 206 308 265.5 Q248 325 213 405.5 Q178 486 178 578 Q178 647 196 706 Q214 765 245.5 814 Q277 863 319.5 901 Q362 939 411 965 Q460 991 513 1004.5 Q566 1018 618 1018 Q713 1018 794 981 Q875 944 934 882.5 Q993 821 1026 741.5 Q1059 662 1059 578 Z " />
<glyph glyph-name="openbullet" unicode="&#x25e6;" horiz-adv-x="725" d="M363 426 Q260 426 186 500 Q112 574 112 678 Q112 781 185 854 Q259 928 363 928 Q466 928 540 854 Q614 780 614 678 Q614 572 541 499 Q468 426 363 426 Z M362 852 Q290 852 239 800 Q188 748 188 678 Q188 604 239 553 Q292 502 364 502 Q437 502 488 553 Q538 605 538 678 Q538 748 488 800 Q437 852 362 852 Z " />
<glyph glyph-name="Amacron" unicode="&#x100;" horiz-adv-x="1375" d="M1355 0 L1094 0 L965 365 L401 365 L277 0 L17 0 L554 1434 L822 1434 L1355 0 Z M902 559 L703 1131 Q694 1159 684 1221 L680 1221 Q671 1164 660 1131 L463 559 L902 559 Z M957 1567 L414 1567 L414 1704 L957 1704 L957 1567 Z " />
<glyph glyph-name="amacron" unicode="&#x101;" horiz-adv-x="1069" d="M937 0 L712 0 L712 160 L708 160 Q602 -24 397 -24 Q246 -24 160.5 58 Q75 140 75 275 Q75 565 409 613 L713 656 Q713 875 505 875 Q322 875 175 749 L175 952 Q337 1048 549 1048 Q937 1048 937 666 L937 0 Z M713 503 L498 473 Q398 460 347.5 424.5 Q297 389 297 300 Q297 235 343.5 193.5 Q390 152 468 152 Q574 152 643.5 226.5 Q713 301 713 414 L713 503 Z M828 1204 L285 1204 L285 1341 L828 1341 L828 1204 Z " />
<glyph glyph-name="Ccircumflex" unicode="&#x108;" horiz-adv-x="1272" d="M1177 60 Q1015 -24 774 -24 Q462 -24 274 173 Q86 370 86 690 Q86 1034 297.5 1246 Q509 1458 832 1458 Q1040 1458 1177 1399 L1177 1163 Q1032 1249 857 1249 Q624 1249 479.5 1100 Q335 951 335 702 Q335 465 470 324.5 Q605 184 825 184 Q1028 184 1177 280 L1177 60 Z M1097 1567 L937 1567 L776 1778 L619 1567 L464 1567 L688 1895 L872 1895 L1097 1567 Z " />
<glyph glyph-name="ccircumflex" unicode="&#x109;" horiz-adv-x="963" d="M884 47 Q761 -24 593 -24 Q365 -24 225 118.5 Q85 261 85 488 Q85 741 235.5 894.5 Q386 1048 638 1048 Q778 1048 885 999 L885 783 Q778 863 657 863 Q510 863 416 763.5 Q322 664 322 503 Q322 344 410.5 252 Q499 160 648 160 Q773 160 884 249 L884 47 Z M890 1204 L730 1204 L569 1415 L412 1204 L257 1204 L481 1532 L665 1532 L890 1204 Z " />
<glyph glyph-name="Cdotaccent" unicode="&#x10a;" horiz-adv-x="1272" d="M1177 60 Q1015 -24 774 -24 Q462 -24 274 173 Q86 370 86 690 Q86 1034 297.5 1246 Q509 1458 832 1458 Q1040 1458 1177 1399 L1177 1163 Q1032 1249 857 1249 Q624 1249 479.5 1100 Q335 951 335 702 Q335 465 470 324.5 Q605 184 825 184 Q1028 184 1177 280 L1177 60 Z M790 1566 Q740 1566 703.5 1599.5 Q667 1633 667 1682 Q667 1730 703 1763 Q739 1796 790 1796 Q841 1796 877 1763.5 Q913 1731 913 1682 Q913 1634 877 1600 Q841 1566 790 1566 Z " />
<glyph glyph-name="cdotaccent" unicode="&#x10b;" horiz-adv-x="963" d="M884 47 Q761 -24 593 -24 Q365 -24 225 118.5 Q85 261 85 488 Q85 741 235.5 894.5 Q386 1048 638 1048 Q778 1048 885 999 L885 783 Q778 863 657 863 Q510 863 416 763.5 Q322 664 322 503 Q322 344 410.5 252 Q499 160 648 160 Q773 160 884 249 L884 47 Z M600 1203 Q550 1203 513.5 1236.5 Q477 1270 477 1319 Q477 1367 513 1400 Q549 1433 600 1433 Q651 1433 687 1400.5 Q723 1368 723 1319 Q723 1271 687 1237 Q651 1203 600 1203 Z " />
<glyph glyph-name="Emacron" unicode="&#x112;" horiz-adv-x="1060" d="M982 0 L177 0 L177 1434 L950 1434 L950 1232 L415 1232 L415 826 L908 826 L908 625 L415 625 L415 201 L982 201 L982 0 Z M841 1566 L298 1566 L298 1703 L841 1703 L841 1566 Z " />
<glyph glyph-name="emacron" unicode="&#x113;" horiz-adv-x="1088" d="M1018 449 L320 449 Q324 307 407.5 230 Q491 153 637 153 Q801 153 938 251 L938 64 Q798 -24 568 -24 Q342 -24 213.5 115.5 Q85 255 85 508 Q85 747 226.5 897.5 Q368 1048 578 1048 Q788 1048 903 913 Q1018 778 1018 538 L1018 449 Z M794 613 Q793 738 735 807.5 Q677 877 575 877 Q475 877 405.5 804 Q336 731 320 613 L794 613 Z M841 1204 L298 1204 L298 1341 L841 1341 L841 1204 Z " />
<glyph glyph-name="Ebreve" unicode="&#x114;" horiz-adv-x="1060" d="M982 0 L177 0 L177 1434 L950 1434 L950 1232 L415 1232 L415 826 L908 826 L908 625 L415 625 L415 201 L982 201 L982 0 Z M872 1843 Q861 1719 774.5 1643 Q688 1567 565 1567 Q435 1567 353.5 1642.5 Q272 1718 266 1843 L402 1843 Q414 1697 568 1697 Q633 1697 679 1736.5 Q725 1776 735 1843 L872 1843 Z " />
<glyph glyph-name="ebreve" unicode="&#x115;" horiz-adv-x="1088" d="M1018 449 L320 449 Q324 307 407.5 230 Q491 153 637 153 Q801 153 938 251 L938 64 Q798 -24 568 -24 Q342 -24 213.5 115.5 Q85 255 85 508 Q85 747 226.5 897.5 Q368 1048 578 1048 Q788 1048 903 913 Q1018 778 1018 538 L1018 449 Z M794 613 Q793 738 735 807.5 Q677 877 575 877 Q475 877 405.5 804 Q336 731 320 613 L794 613 Z M867 1480 Q856 1356 769.5 1280 Q683 1204 560 1204 Q430 1204 348.5 1279.5 Q267 1355 261 1480 L397 1480 Q409 1334 563 1334 Q628 1334 674 1373.5 Q720 1413 730 1480 L867 1480 Z " />
<glyph glyph-name="Edotaccent" unicode="&#x116;" horiz-adv-x="1060" d="M982 0 L177 0 L177 1434 L950 1434 L950 1232 L415 1232 L415 826 L908 826 L908 625 L415 625 L415 201 L982 201 L982 0 Z M566 1566 Q516 1566 479.5 1599.5 Q443 1633 443 1682 Q443 1730 479 1763 Q515 1796 566 1796 Q617 1796 653 1763.5 Q689 1731 689 1682 Q689 1634 653 1600 Q617 1566 566 1566 Z " />
<glyph glyph-name="edotaccent" unicode="&#x117;" horiz-adv-x="1088" d="M1018 449 L320 449 Q324 307 407.5 230 Q491 153 637 153 Q801 153 938 251 L938 64 Q798 -24 568 -24 Q342 -24 213.5 115.5 Q85 255 85 508 Q85 747 226.5 897.5 Q368 1048 578 1048 Q788 1048 903 913 Q1018 778 1018 538 L1018 449 Z M794 613 Q793 738 735 807.5 Q677 877 575 877 Q475 877 405.5 804 Q336 731 320 613 L794 613 Z M584 1203 Q534 1203 497.5 1236.5 Q461 1270 461 1319 Q461 1367 497 1400 Q533 1433 584 1433 Q635 1433 671 1400.5 Q707 1368 707 1319 Q707 1271 671 1237 Q635 1203 584 1203 Z " />
<glyph glyph-name="Gcircumflex" unicode="&#x11c;" horiz-adv-x="1428" d="M1296 98 Q1072 -24 797 -24 Q479 -24 282 174 Q85 372 85 698 Q85 1031 300.5 1244.5 Q516 1458 848 1458 Q1087 1458 1250 1388 L1250 1143 Q1085 1253 857 1253 Q628 1253 481.5 1102 Q335 951 335 711 Q335 464 461 322.5 Q587 181 803 181 Q951 181 1059 238 L1059 579 L757 579 L757 779 L1296 779 L1296 98 Z M1121 1567 L961 1567 L800 1778 L643 1567 L488 1567 L712 1895 L896 1895 L1121 1567 Z " />
<glyph glyph-name="gcircumflex" unicode="&#x11d;" horiz-adv-x="1234" d="M1083 82 Q1083 -482 516 -482 Q316 -482 167 -415 L167 -203 Q335 -299 486 -299 Q851 -299 851 60 L851 172 L847 172 Q732 -24 501 -24 Q314 -24 199.5 112.5 Q85 249 85 479 Q85 740 208 894 Q331 1048 546 1048 Q749 1048 847 882 L851 882 L851 1024 L1083 1024 L1083 82 Z M853 469 L853 602 Q853 710 781.5 786.5 Q710 863 603 863 Q471 863 396.5 765.5 Q322 668 322 493 Q322 342 393.5 251.5 Q465 161 583 161 Q703 161 778 247.5 Q853 334 853 469 Z M922 1204 L762 1204 L601 1415 L444 1204 L289 1204 L513 1532 L697 1532 L922 1204 Z " />
<glyph glyph-name="Gdotaccent" unicode="&#x120;" horiz-adv-x="1428" d="M1296 98 Q1072 -24 797 -24 Q479 -24 282 174 Q85 372 85 698 Q85 1031 300.5 1244.5 Q516 1458 848 1458 Q1087 1458 1250 1388 L1250 1143 Q1085 1253 857 1253 Q628 1253 481.5 1102 Q335 951 335 711 Q335 464 461 322.5 Q587 181 803 181 Q951 181 1059 238 L1059 579 L757 579 L757 779 L1296 779 L1296 98 Z M806 1566 Q756 1566 719.5 1599.5 Q683 1633 683 1682 Q683 1730 719 1763 Q755 1796 806 1796 Q857 1796 893 1763.5 Q929 1731 929 1682 Q929 1634 893 1600 Q857 1566 806 1566 Z " />
<glyph glyph-name="gdotaccent" unicode="&#x121;" horiz-adv-x="1234" d="M1083 82 Q1083 -482 516 -482 Q316 -482 167 -415 L167 -203 Q335 -299 486 -299 Q851 -299 851 60 L851 172 L847 172 Q732 -24 501 -24 Q314 -24 199.5 112.5 Q85 249 85 479 Q85 740 208 894 Q331 1048 546 1048 Q749 1048 847 882 L851 882 L851 1024 L1083 1024 L1083 82 Z M853 469 L853 602 Q853 710 781.5 786.5 Q710 863 603 863 Q471 863 396.5 765.5 Q322 668 322 493 Q322 342 393.5 251.5 Q465 161 583 161 Q703 161 778 247.5 Q853 334 853 469 Z M600 1203 Q550 1203 513.5 1236.5 Q477 1270 477 1319 Q477 1367 513 1400 Q549 1433 600 1433 Q651 1433 687 1400.5 Q723 1368 723 1319 Q723 1271 687 1237 Q651 1203 600 1203 Z " />
<glyph glyph-name="Gcommaaccent" unicode="&#x122;" horiz-adv-x="1428" d="M1296 98 Q1072 -24 797 -24 Q479 -24 282 174 Q85 372 85 698 Q85 1031 300.5 1244.5 Q516 1458 848 1458 Q1087 1458 1250 1388 L1250 1143 Q1085 1253 857 1253 Q628 1253 481.5 1102 Q335 951 335 711 Q335 464 461 322.5 Q587 181 803 181 Q951 181 1059 238 L1059 579 L757 579 L757 779 L1296 779 L1296 98 Z M924 -118 L757 -420 L602 -420 L707 -118 L924 -118 Z " />
<glyph glyph-name="gcommaaccent" unicode="&#x123;" horiz-adv-x="1234" d="M1083 82 Q1083 -482 516 -482 Q316 -482 167 -415 L167 -203 Q335 -299 486 -299 Q851 -299 851 60 L851 172 L847 172 Q732 -24 501 -24 Q314 -24 199.5 112.5 Q85 249 85 479 Q85 740 208 894 Q331 1048 546 1048 Q749 1048 847 882 L851 882 L851 1024 L1083 1024 L1083 82 Z M853 469 L853 602 Q853 710 781.5 786.5 Q710 863 603 863 Q471 863 396.5 765.5 Q322 668 322 493 Q322 342 393.5 251.5 Q465 161 583 161 Q703 161 778 247.5 Q853 334 853 469 Z M465 1203 L632 1505 L787 1505 L682 1203 L465 1203 Z " />
<glyph glyph-name="Hcircumflex" unicode="&#x124;" horiz-adv-x="1506" d="M1329 0 L1090 0 L1090 622 L415 622 L415 0 L177 0 L177 1434 L415 1434 L415 831 L1090 831 L1090 1434 L1329 1434 L1329 0 Z M1067 1566 L907 1566 L746 1777 L589 1566 L434 1566 L658 1894 L842 1894 L1067 1566 Z " />
<glyph glyph-name="hcircumflex" unicode="&#x125;" horiz-adv-x="1192" d="M1061 0 L829 0 L829 560 Q829 864 626 864 Q524 864 454 776 Q384 688 384 551 L384 0 L151 0 L151 1516 L384 1516 L384 854 L388 854 Q504 1048 720 1048 Q1061 1048 1061 631 L1061 0 Z M956 1611 L796 1611 L635 1822 L478 1611 L323 1611 L547 1939 L731 1939 L956 1611 Z " />
<glyph glyph-name="Hbar" unicode="&#x126;" horiz-adv-x="1506" d="M1328 0 L1090 0 L1090 622 L414 622 L414 0 L177 0 L177 1023 L15 1023 L15 1199 L177 1199 L177 1434 L414 1434 L414 1199 L1090 1199 L1090 1434 L1328 1434 L1328 1199 L1490 1199 L1490 1023 L1328 1023 L1328 0 Z M414 1023 L414 830 L1090 830 L1090 1023 L414 1023 Z " />
<glyph glyph-name="hbar" unicode="&#x127;" horiz-adv-x="1205" d="M1076 0 L846 0 L846 567 Q846 851 641 851 Q539 851 469.5 772.5 Q400 694 400 571 L400 0 L168 0 L168 1192 L29 1192 L29 1337 L168 1337 L168 1516 L400 1516 L400 1337 L731 1337 L731 1192 L400 1192 L400 852 L404 852 Q521 1038 731 1038 Q899 1038 987.5 930.5 Q1076 823 1076 620 L1076 0 Z " />
<glyph glyph-name="Itilde" unicode="&#x128;" horiz-adv-x="592" d="M546 1434 L546 1242 L415 1242 L415 192 L546 192 L546 0 L46 0 L46 192 L177 192 L177 1242 L46 1242 L46 1434 L546 1434 Z M635 1828 Q635 1712 583.5 1638.5 Q532 1565 444 1565 Q372 1565 279 1613 Q201 1658 158 1658 Q74 1658 74 1547 L-41 1547 Q-41 1666 10 1737.5 Q61 1809 153 1809 Q221 1809 310 1758 Q382 1714 435 1714 Q516 1714 516 1828 L635 1828 Z " />
<glyph glyph-name="itilde" unicode="&#x129;" horiz-adv-x="535" d="M384 0 L151 0 L151 1024 L384 1024 L384 0 Z M601 1475 Q601 1359 549.5 1285.5 Q498 1212 410 1212 Q338 1212 245 1260 Q167 1305 124 1305 Q40 1305 40 1194 L-75 1194 Q-75 1313 -24 1384.5 Q27 1456 119 1456 Q187 1456 276 1405 Q348 1361 401 1361 Q482 1361 482 1475 L601 1475 Z " />
<glyph glyph-name="Imacron" unicode="&#x12a;" horiz-adv-x="592" d="M546 1434 L546 1242 L415 1242 L415 192 L546 192 L546 0 L46 0 L46 192 L177 192 L177 1242 L46 1242 L46 1434 L546 1434 Z M569 1566 L26 1566 L26 1703 L569 1703 L569 1566 Z " />
<glyph glyph-name="imacron" unicode="&#x12b;" horiz-adv-x="535" d="M384 0 L151 0 L151 1024 L384 1024 L384 0 Z M534 1204 L-9 1204 L-9 1341 L534 1341 L534 1204 Z " />
<glyph glyph-name="Ibreve" unicode="&#x12c;" horiz-adv-x="592" d="M546 1434 L546 1242 L415 1242 L415 192 L546 192 L546 0 L46 0 L46 192 L177 192 L177 1242 L46 1242 L46 1434 L546 1434 Z M601 1842 Q590 1718 503.5 1642 Q417 1566 294 1566 Q164 1566 82.5 1641.5 Q1 1717 -5 1842 L131 1842 Q143 1696 297 1696 Q362 1696 408 1735.5 Q454 1775 464 1842 L601 1842 Z " />
<glyph glyph-name="ibreve" unicode="&#x12d;" horiz-adv-x="535" d="M384 0 L151 0 L151 1024 L384 1024 L384 0 Z M566 1480 Q555 1356 468.5 1280 Q382 1204 259 1204 Q129 1204 47.5 1279.5 Q-34 1355 -40 1480 L96 1480 Q108 1334 262 1334 Q327 1334 373 1373.5 Q419 1413 429 1480 L566 1480 Z " />
<glyph glyph-name="Iogonek" unicode="&#x12e;" horiz-adv-x="592" d="M546 1434 L546 1242 L415 1242 L415 192 L546 192 L546 0 L46 0 L46 192 L177 192 L177 1242 L46 1242 L46 1434 L546 1434 Z M453 0 Q302 -137 302 -216 Q302 -284 367 -284 Q403 -284 435 -271 L435 -392 Q397 -408 330 -408 Q252 -408 204.5 -366 Q157 -324 157 -250 Q157 -128 318 0 L453 0 Z " />
<glyph glyph-name="iogonek" unicode="&#x12f;" horiz-adv-x="535" d="M268 1239 Q211 1239 170.5 1276 Q130 1313 130 1370 Q130 1427 170.5 1465 Q211 1503 268 1503 Q327 1503 368 1465 Q409 1427 409 1370 Q409 1316 368 1277.5 Q327 1239 268 1239 Z M383 0 L151 0 L151 1024 L383 1024 L383 0 Z M383 0 Q232 -137 232 -216 Q232 -284 297 -284 Q333 -284 365 -271 L365 -392 Q327 -408 260 -408 Q182 -408 134.5 -366 Q87 -324 87 -250 Q87 -128 248 0 L383 0 Z " />
<glyph glyph-name="Jcircumflex" unicode="&#x134;" horiz-adv-x="812" d="M648 514 Q648 259 522 117.5 Q396 -24 186 -24 Q88 -24 25 -1 L25 223 Q82 184 172 184 Q410 184 410 552 L410 1434 L648 1434 L648 514 Z M845 1566 L685 1566 L524 1777 L367 1566 L212 1566 L436 1894 L620 1894 L845 1566 Z " />
<glyph glyph-name="jcircumflex" unicode="&#x135;" horiz-adv-x="535" d="M383 31 Q383 -215 277 -348 Q171 -481 -26 -481 Q-99 -481 -168 -450 L-168 -254 Q-100 -296 -39 -296 Q151 -296 151 6 L151 1024 L383 1024 L383 31 Z M583 1204 L423 1204 L262 1415 L105 1204 L-50 1204 L174 1532 L358 1532 L583 1204 Z " />
<glyph glyph-name="Kcommaaccent" unicode="&#x136;" horiz-adv-x="1251" d="M1262 0 L952 0 L453 656 Q425 693 419 706 L415 706 L415 0 L177 0 L177 1434 L415 1434 L415 760 L419 760 Q431 782 453 809 L934 1434 L1219 1434 L656 746 L1262 0 Z M782 -118 L615 -420 L460 -420 L565 -118 L782 -118 Z " />
<glyph glyph-name="kcommaaccent" unicode="&#x137;" horiz-adv-x="1075" d="M1080 0 L786 0 L388 492 L384 492 L384 0 L151 0 L151 1516 L384 1516 L384 555 L388 555 L764 1024 L1043 1024 L620 530 L1080 0 Z M698 -118 L531 -420 L376 -420 L481 -118 L698 -118 Z " />
<glyph glyph-name="kgreenlandic" unicode="&#x138;" horiz-adv-x="1075" d="M1081 0 L786 0 L388 499 L384 499 L384 0 L151 0 L151 1024 L384 1024 L384 553 L388 553 L764 1024 L1048 1024 L622 536 L1081 0 Z " />
<glyph glyph-name="Lcommaaccent" unicode="&#x13b;" horiz-adv-x="1001" d="M971 0 L177 0 L177 1434 L415 1434 L415 201 L971 201 L971 0 Z M798 -248 Q798 -442 510 -442 Q463 -442 429 -439 L429 -328 Q473 -334 500 -334 Q633 -334 633 -252 Q633 -178 512 -178 Q502 -178 473 -182 L473 0 L609 0 L609 -94 Q696 -94 747 -134.5 Q798 -175 798 -248 Z " />
<glyph glyph-name="lcommaaccent" unicode="&#x13c;" horiz-adv-x="535" d="M384 0 L151 0 L151 1516 L384 1516 L384 0 Z M501 -248 Q501 -442 213 -442 Q166 -442 132 -439 L132 -328 Q176 -334 203 -334 Q336 -334 336 -252 Q336 -178 215 -178 Q205 -178 176 -182 L176 0 L312 0 L312 -94 Q399 -94 450 -134.5 Q501 -175 501 -248 Z " />
<glyph glyph-name="Ncommaaccent" unicode="&#x145;" horiz-adv-x="1571" d="M1393 0 L1133 0 L448 1054 Q422 1094 405 1137 L399 1137 Q407 1091 407 940 L407 0 L177 0 L177 1434 L454 1434 L1116 405 Q1158 341 1170 317 L1174 317 Q1164 374 1164 510 L1164 1434 L1393 1434 L1393 0 Z M924 -118 L757 -420 L602 -420 L707 -118 L924 -118 Z " />
<glyph glyph-name="ncommaaccent" unicode="&#x146;" horiz-adv-x="1195" d="M1063 0 L831 0 L831 577 Q831 864 628 864 Q522 864 453 784.5 Q384 705 384 584 L384 0 L151 0 L151 1024 L384 1024 L384 854 L388 854 Q503 1048 720 1048 Q887 1048 975 939.5 Q1063 831 1063 626 L1063 0 Z M741 -118 L574 -420 L419 -420 L524 -118 L741 -118 Z " />
<glyph glyph-name="Eng" unicode="&#x14a;" horiz-adv-x="1571" d="M446 1054 Q425 1084 403 1137 L397 1137 Q406 1088 406 955 L406 0 L177 0 L177 1434 L453 1434 L1115 455 Q1117 453 1168 359 L1172 359 Q1163 425 1163 561 L1163 1434 L1392 1434 L1392 77 Q1392 -422 1014 -422 Q921 -422 847 -390 L847 -187 Q924 -228 987 -228 Q1161 -228 1161 1 L446 1054 Z " />
<glyph glyph-name="eng" unicode="&#x14b;" horiz-adv-x="1195" d="M1064 43 Q1064 -422 683 -422 Q598 -422 529 -391 L529 -189 Q601 -230 660 -230 Q832 -230 832 24 L832 563 Q832 864 624 864 Q521 864 452.5 784.5 Q384 705 384 584 L384 0 L151 0 L151 1024 L384 1024 L384 854 L388 854 Q504 1048 720 1048 Q1064 1048 1064 633 L1064 43 Z " />
<glyph glyph-name="Omacron" unicode="&#x14c;" horiz-adv-x="1548" d="M768 -24 Q458 -24 271.5 177 Q85 378 85 700 Q85 1046 275 1252 Q465 1458 791 1458 Q1093 1458 1277.5 1258 Q1462 1058 1462 735 Q1462 384 1273 180 Q1084 -24 768 -24 Z M779 1249 Q582 1249 458.5 1102 Q335 955 335 715 Q335 476 455 330 Q575 184 769 184 Q975 184 1094 323 Q1213 462 1213 712 Q1213 969 1097.5 1109 Q982 1249 779 1249 Z M1048 1566 L505 1566 L505 1703 L1048 1703 L1048 1566 Z " />
<glyph glyph-name="omacron" unicode="&#x14d;" horiz-adv-x="1223" d="M605 -24 Q368 -24 226.5 119.5 Q85 263 85 500 Q85 758 232.5 903 Q380 1048 630 1048 Q870 1048 1004 907 Q1138 766 1138 516 Q1138 271 993.5 123.5 Q849 -24 605 -24 Z M616 863 Q480 863 401 768 Q322 673 322 506 Q322 345 402 252.5 Q482 160 616 160 Q753 160 826.5 251 Q900 342 900 510 Q900 679 826.5 771 Q753 863 616 863 Z M888 1204 L345 1204 L345 1341 L888 1341 L888 1204 Z " />
<glyph glyph-name="Obreve" unicode="&#x14e;" horiz-adv-x="1548" d="M768 -24 Q458 -24 271.5 177 Q85 378 85 700 Q85 1046 275 1252 Q465 1458 791 1458 Q1093 1458 1277.5 1258 Q1462 1058 1462 735 Q1462 384 1273 180 Q1084 -24 768 -24 Z M779 1249 Q582 1249 458.5 1102 Q335 955 335 715 Q335 476 455 330 Q575 184 769 184 Q975 184 1094 323 Q1213 462 1213 712 Q1213 969 1097.5 1109 Q982 1249 779 1249 Z M1082 1843 Q1071 1719 984.5 1643 Q898 1567 775 1567 Q645 1567 563.5 1642.5 Q482 1718 476 1843 L612 1843 Q624 1697 778 1697 Q843 1697 889 1736.5 Q935 1776 945 1843 L1082 1843 Z " />
<glyph glyph-name="obreve" unicode="&#x14f;" horiz-adv-x="1223" d="M605 -24 Q368 -24 226.5 119.5 Q85 263 85 500 Q85 758 232.5 903 Q380 1048 630 1048 Q870 1048 1004 907 Q1138 766 1138 516 Q1138 271 993.5 123.5 Q849 -24 605 -24 Z M616 863 Q480 863 401 768 Q322 673 322 506 Q322 345 402 252.5 Q482 160 616 160 Q753 160 826.5 251 Q900 342 900 510 Q900 679 826.5 771 Q753 863 616 863 Z M925 1480 Q914 1356 827.5 1280 Q741 1204 618 1204 Q488 1204 406.5 1279.5 Q325 1355 319 1480 L455 1480 Q467 1334 621 1334 Q686 1334 732 1373.5 Q778 1413 788 1480 L925 1480 Z " />
<glyph glyph-name="Rcommaaccent" unicode="&#x156;" horiz-adv-x="1275" d="M1285 0 L1007 0 L778 384 Q747 437 717.5 474.5 Q688 512 657.5 536 Q627 560 591 571 Q555 582 510 582 L414 582 L414 0 L177 0 L177 1434 L649 1434 Q750 1434 835 1410 Q920 1386 983 1337.5 Q1046 1289 1081.5 1216.5 Q1117 1144 1117 1047 Q1117 971 1094.5 907.5 Q1072 844 1030.5 794.5 Q989 745 930.5 710 Q872 675 799 656 L799 652 Q838 630 867 603.5 Q896 577 922 549 Q948 521 973.5 485.5 Q999 450 1030 403 L1285 0 Z M414 1241 L414 775 L612 775 Q667 775 713.5 792 Q760 809 794 841 Q828 873 847 919 Q866 965 866 1022 Q866 1125 801 1183 Q736 1241 614 1241 L414 1241 Z M801 -118 L634 -420 L479 -420 L584 -118 L801 -118 Z " />
<glyph glyph-name="rcommaaccent" unicode="&#x157;" horiz-adv-x="758" d="M745 803 Q703 836 624 836 Q521 836 452 743 Q383 650 383 490 L383 0 L151 0 L151 1024 L383 1024 L383 813 L387 813 Q421 921 491.5 981.5 Q562 1042 649 1042 Q712 1042 745 1023 L745 803 Z M562 -118 L395 -420 L240 -420 L345 -118 L562 -118 Z " />
<glyph glyph-name="Scircumflex" unicode="&#x15c;" horiz-adv-x="1115" d="M111 57 L111 302 Q144 272 189.5 248 Q235 224 286 207.5 Q337 191 388 182 Q439 173 482 173 Q632 173 705.5 223 Q779 273 779 368 Q779 419 754.5 456.5 Q730 494 686 525 Q642 556 582.5 584.5 Q523 613 455 644 Q382 683 319 723 Q256 763 209.5 811.5 Q163 860 136.5 921 Q110 982 110 1064 Q110 1165 155.5 1239.5 Q201 1314 275.5 1362.5 Q350 1411 445 1434.5 Q540 1458 639 1458 Q864 1458 967 1407 L967 1172 Q845 1260 653 1260 Q600 1260 547.5 1250 Q495 1240 453.5 1217 Q412 1194 386 1158 Q360 1122 360 1071 Q360 1023 380 988 Q400 953 438.5 924 Q477 895 532.5 867.5 Q588 840 661 808 Q736 769 802.5 726 Q869 683 919.5 631 Q970 579 999.5 515.5 Q1029 452 1029 371 Q1029 262 985 187 Q941 112 866.5 65 Q792 18 695 -3 Q598 -24 490 -24 Q454 -24 401.5 -18.5 Q349 -13 294 -2.5 Q239 8 190 23 Q141 38 111 57 Z M886 1566 L726 1566 L565 1777 L408 1566 L253 1566 L477 1894 L661 1894 L886 1566 Z " />
<glyph glyph-name="scircumflex" unicode="&#x15d;" horiz-adv-x="883" d="M87 32 L87 247 Q217 148 374 148 Q584 148 584 272 Q584 307 566 331.5 Q548 356 517.5 375 Q487 394 445.5 409 Q404 424 353 443 Q290 468 239.5 496 Q189 524 155.5 559.5 Q122 595 105 640 Q88 685 88 745 Q88 819 123 875.5 Q158 932 217 970.5 Q276 1009 351 1028.5 Q426 1048 506 1048 Q648 1048 760 1005 L760 802 Q652 876 512 876 Q468 876 432.5 867 Q397 858 372 842 Q347 826 333 803.5 Q319 781 319 754 Q319 721 333 698 Q347 675 374.5 657.5 Q402 640 440.5 625.5 Q479 611 529 594 Q595 567 647.5 539 Q700 511 737 475.5 Q774 440 794 393.5 Q814 347 814 283 Q814 205 778 147 Q742 89 682 51 Q622 13 543.5 -5.5 Q465 -24 378 -24 Q210 -24 87 32 Z M762 1204 L602 1204 L441 1415 L284 1204 L129 1204 L353 1532 L537 1532 L762 1204 Z " />
<glyph glyph-name="Tbar" unicode="&#x166;" horiz-adv-x="1130" d="M1097 1232 L685 1232 L685 800 L927 800 L927 595 L685 595 L685 0 L447 0 L447 595 L203 595 L203 800 L447 800 L447 1232 L36 1232 L36 1434 L1097 1434 L1097 1232 Z " />
<glyph glyph-name="tbar" unicode="&#x167;" horiz-adv-x="740" d="M680 499 L445 499 L445 330 Q445 239 477 200 Q509 161 585 161 Q644 161 690 193 L690 10 Q622 -23 511 -23 Q213 -23 213 263 L213 499 L58 499 L58 665 L213 665 L213 842 L42 842 L42 1024 L213 1024 L213 1258 Q213 1260 326 1294 L445 1330 L445 1024 L690 1024 L690 842 L445 842 L445 665 L680 665 L680 499 Z " />
<glyph glyph-name="Utilde" unicode="&#x168;" horiz-adv-x="1440" d="M1280 580 Q1280 -24 708 -24 Q160 -24 160 557 L160 1434 L398 1434 L398 606 Q398 184 726 184 Q1042 184 1042 591 L1042 1434 L1280 1434 L1280 580 Z M1059 1815 Q1059 1699 1007.5 1625.5 Q956 1552 868 1552 Q796 1552 703 1600 Q625 1645 582 1645 Q498 1645 498 1534 L383 1534 Q383 1653 434 1724.5 Q485 1796 577 1796 Q645 1796 734 1745 Q806 1701 859 1701 Q940 1701 940 1815 L1059 1815 Z " />
<glyph glyph-name="utilde" unicode="&#x169;" horiz-adv-x="1195" d="M1044 0 L812 0 L812 162 L808 162 Q707 -24 494 -24 Q131 -24 131 412 L131 1024 L363 1024 L363 436 Q363 160 576 160 Q679 160 745.5 236 Q812 312 812 435 L812 1024 L1044 1024 L1044 0 Z M929 1475 Q929 1359 877.5 1285.5 Q826 1212 738 1212 Q666 1212 573 1260 Q495 1305 452 1305 Q368 1305 368 1194 L253 1194 Q253 1313 304 1384.5 Q355 1456 447 1456 Q515 1456 604 1405 Q676 1361 729 1361 Q810 1361 810 1475 L929 1475 Z " />
<glyph glyph-name="Umacron" unicode="&#x16a;" horiz-adv-x="1440" d="M1280 580 Q1280 -24 708 -24 Q160 -24 160 557 L160 1434 L398 1434 L398 606 Q398 184 726 184 Q1042 184 1042 591 L1042 1434 L1280 1434 L1280 580 Z M989 1566 L446 1566 L446 1703 L989 1703 L989 1566 Z " />
<glyph glyph-name="umacron" unicode="&#x16b;" horiz-adv-x="1195" d="M1044 0 L812 0 L812 162 L808 162 Q707 -24 494 -24 Q131 -24 131 412 L131 1024 L363 1024 L363 436 Q363 160 576 160 Q679 160 745.5 236 Q812 312 812 435 L812 1024 L1044 1024 L1044 0 Z M860 1204 L317 1204 L317 1341 L860 1341 L860 1204 Z " />
<glyph glyph-name="Ubreve" unicode="&#x16c;" horiz-adv-x="1440" d="M1280 580 Q1280 -24 708 -24 Q160 -24 160 557 L160 1434 L398 1434 L398 606 Q398 184 726 184 Q1042 184 1042 591 L1042 1434 L1280 1434 L1280 580 Z M1020 1842 Q1009 1718 922.5 1642 Q836 1566 713 1566 Q583 1566 501.5 1641.5 Q420 1717 414 1842 L550 1842 Q562 1696 716 1696 Q781 1696 827 1735.5 Q873 1775 883 1842 L1020 1842 Z " />
<glyph glyph-name="ubreve" unicode="&#x16d;" horiz-adv-x="1195" d="M1044 0 L812 0 L812 162 L808 162 Q707 -24 494 -24 Q131 -24 131 412 L131 1024 L363 1024 L363 436 Q363 160 576 160 Q679 160 745.5 236 Q812 312 812 435 L812 1024 L1044 1024 L1044 0 Z M891 1480 Q880 1356 793.5 1280 Q707 1204 584 1204 Q454 1204 372.5 1279.5 Q291 1355 285 1480 L421 1480 Q433 1334 587 1334 Q652 1334 698 1373.5 Q744 1413 754 1480 L891 1480 Z " />
<glyph glyph-name="Uogonek" unicode="&#x172;" horiz-adv-x="1440" d="M1280 580 Q1280 -24 708 -24 Q160 -24 160 557 L160 1434 L398 1434 L398 606 Q398 184 726 184 Q1042 184 1042 591 L1042 1434 L1280 1434 L1280 580 Z M895 0 Q744 -137 744 -216 Q744 -284 809 -284 Q845 -284 877 -271 L877 -392 Q839 -408 772 -408 Q694 -408 646.5 -366 Q599 -324 599 -250 Q599 -128 760 0 L895 0 Z " />
<glyph glyph-name="uogonek" unicode="&#x173;" horiz-adv-x="1195" d="M1044 0 L812 0 L812 162 L808 162 Q707 -24 494 -24 Q131 -24 131 412 L131 1024 L363 1024 L363 436 Q363 160 576 160 Q679 160 745.5 236 Q812 312 812 435 L812 1024 L1044 1024 L1044 0 Z M949 0 Q798 -137 798 -216 Q798 -284 863 -284 Q899 -284 931 -271 L931 -392 Q893 -408 826 -408 Q748 -408 700.5 -366 Q653 -324 653 -250 Q653 -128 814 0 L949 0 Z " />
<glyph glyph-name="Wcircumflex" unicode="&#x174;" horiz-adv-x="1978" d="M1956 1434 L1563 0 L1294 0 L1021 1003 Q1004 1067 1000 1143 L996 1143 Q991 1072 972 1005 L698 0 L423 0 L22 1434 L283 1434 L543 384 Q559 318 563 246 L568 246 Q572 297 596 384 L890 1434 L1135 1434 L1407 376 Q1421 322 1428 248 L1432 248 Q1435 298 1455 380 L1710 1434 L1956 1434 Z M1317 1566 L1157 1566 L996 1777 L839 1566 L684 1566 L908 1894 L1092 1894 L1317 1566 Z " />
<glyph glyph-name="wcircumflex" unicode="&#x175;" horiz-adv-x="1549" d="M1528 1024 L1226 0 L983 0 L797 694 Q786 734 783 784 L779 784 Q777 750 761 696 L559 0 L321 0 L20 1024 L260 1024 L446 286 Q455 253 458 198 L465 198 Q468 240 481 288 L688 1024 L906 1024 L1090 283 Q1099 248 1103 195 L1110 195 Q1112 232 1125 283 L1307 1024 L1528 1024 Z M1100 1204 L940 1204 L779 1415 L622 1204 L467 1204 L691 1532 L875 1532 L1100 1204 Z " />
<glyph glyph-name="Ycircumflex" unicode="&#x176;" horiz-adv-x="1182" d="M1176 1434 L706 521 L706 0 L468 0 L468 516 L10 1434 L281 1434 L563 819 Q568 808 593 736 L596 736 Q605 768 629 819 L924 1434 L1176 1434 Z M910 1566 L750 1566 L589 1777 L432 1566 L277 1566 L501 1894 L685 1894 L910 1566 Z " />
<glyph glyph-name="ycircumflex" unicode="&#x177;" horiz-adv-x="1041" d="M1038 1024 L576 -164 Q432 -482 172 -482 Q99 -482 50 -469 L50 -276 Q105 -294 150 -294 Q280 -294 344 -166 L413 2 L6 1024 L263 1024 L507 280 Q511 266 525 206 L530 206 Q535 229 548 278 L804 1024 L1038 1024 Z M847 1204 L687 1204 L526 1415 L369 1204 L214 1204 L438 1532 L622 1532 L847 1204 Z " />
<glyph glyph-name="longs" unicode="&#x17f;" horiz-adv-x="548" d="M658 1328 Q604 1354 546 1354 Q384 1354 384 1160 L384 0 L151 0 L151 1172 Q151 1340 254 1439 Q357 1539 521 1539 Q603 1539 658 1520 L658 1328 Z " />
<glyph glyph-name="Aringacute" unicode="&#x1fa;" horiz-adv-x="1375" d="M1355 0 L1094 0 L965 365 L401 365 L277 0 L17 0 L554 1434 L822 1434 L1355 0 Z M902 559 L703 1131 Q694 1159 684 1221 L680 1221 Q671 1164 660 1131 L463 559 L902 559 Z M679 1333 Q585 1333 523.5 1387 Q462 1441 462 1529 Q462 1627 525 1685 Q588 1743 686 1743 Q782 1743 843.5 1684.5 Q905 1626 905 1535 Q905 1448 839.5 1390.5 Q774 1333 679 1333 Z M679 1643 Q634 1643 604.5 1613 Q575 1583 575 1539 Q575 1435 679 1435 Q727 1435 758.5 1464.5 Q790 1494 790 1539 Q790 1584 758.5 1613.5 Q727 1643 679 1643 Z M974 2133 L688 1805 L516 1805 L758 2133 L974 2133 Z " />
<glyph glyph-name="aringacute" unicode="&#x1fb;" horiz-adv-x="1069" d="M937 0 L712 0 L712 160 L708 160 Q602 -24 397 -24 Q246 -24 160.5 58 Q75 140 75 275 Q75 565 409 613 L713 656 Q713 875 505 875 Q322 875 175 749 L175 952 Q337 1048 549 1048 Q937 1048 937 666 L937 0 Z M713 503 L498 473 Q398 460 347.5 424.5 Q297 389 297 300 Q297 235 343.5 193.5 Q390 152 468 152 Q574 152 643.5 226.5 Q713 301 713 414 L713 503 Z M541 1124 Q447 1124 385.5 1178 Q324 1232 324 1320 Q324 1418 387 1476 Q450 1534 548 1534 Q644 1534 705.5 1475.5 Q767 1417 767 1326 Q767 1239 701.5 1181.5 Q636 1124 541 1124 Z M541 1434 Q496 1434 466.5 1404 Q437 1374 437 1330 Q437 1226 541 1226 Q589 1226 620.5 1255.5 Q652 1285 652 1330 Q652 1375 620.5 1404.5 Q589 1434 541 1434 Z M848 1950 L562 1622 L390 1622 L632 1950 L848 1950 Z " />
<glyph glyph-name="AEacute" unicode="&#x1fc;" horiz-adv-x="1831" d="M1749 0 L945 0 L945 365 L453 365 L281 0 L6 0 L716 1434 L1716 1434 L1716 1232 L1182 1232 L1182 826 L1679 826 L1679 625 L1182 625 L1182 201 L1749 201 L1749 0 Z M945 559 L945 1232 L858 1232 L541 559 L945 559 Z M1435 1908 L1149 1580 L977 1580 L1219 1908 L1435 1908 Z " />
<glyph glyph-name="aeacute" unicode="&#x1fd;" horiz-adv-x="1700" d="M1630 449 L931 449 Q934 307 1016 229.5 Q1098 152 1241 152 Q1412 152 1551 251 L1551 65 Q1416 -24 1184 -24 Q909 -24 794 182 L790 182 Q650 -24 418 -24 Q258 -24 166.5 58.5 Q75 141 75 279 Q75 585 454 610 L713 626 Q713 876 512 876 Q334 876 176 761 L176 957 Q328 1048 533 1048 Q773 1048 844 878 L848 878 Q962 1048 1197 1048 Q1403 1048 1516.5 912.5 Q1630 777 1630 536 L1630 449 Z M1406 613 Q1404 740 1347 808.5 Q1290 877 1187 877 Q1089 877 1018.5 805 Q948 733 932 613 L1406 613 Z M713 412 L713 467 L536 456 Q415 449 355.5 413 Q296 377 296 294 Q296 230 342.5 191 Q389 152 468 152 Q571 152 642 226 Q713 300 713 412 Z M1159 1546 L873 1218 L701 1218 L943 1546 L1159 1546 Z " />
<glyph glyph-name="Oslashacute" unicode="&#x1fe;" horiz-adv-x="1548" d="M335 121 L187 -56 L88 27 L242 211 Q85 404 85 700 Q85 1043 274.5 1250.5 Q464 1458 792 1458 Q1025 1458 1193 1333 L1325 1490 L1424 1409 L1287 1247 Q1463 1053 1463 735 Q1463 384 1274 180 Q1085 -24 768 -24 Q507 -24 335 121 Z M1057 1171 Q946 1261 781 1261 Q577 1261 450.5 1109.5 Q324 958 324 715 Q324 523 399 394 L1057 1171 Z M1136 1069 L477 289 Q591 172 768 172 Q980 172 1102 314.5 Q1224 457 1224 712 Q1224 934 1136 1069 Z M1095 1908 L809 1580 L637 1580 L879 1908 L1095 1908 Z " />
<glyph glyph-name="oslashacute" unicode="&#x1ff;" horiz-adv-x="1223" d="M1188 1030 L1033 866 Q1138 729 1138 522 Q1138 270 992.5 123 Q847 -24 605 -24 Q411 -24 283 71 L143 -80 L44 10 L188 165 Q85 302 85 506 Q85 762 232 905.5 Q379 1049 627 1049 Q812 1049 937 958 L1088 1121 L1188 1030 Z M798 815 Q731 874 617 874 Q476 874 394.5 777 Q313 680 313 509 Q313 404 348 331 L798 815 Z M877 701 L421 213 Q497 151 615 151 Q760 151 836 245.5 Q912 340 912 512 Q912 622 877 701 Z M920 1546 L634 1218 L462 1218 L704 1546 L920 1546 Z " />
<glyph glyph-name="anoteleia" unicode="&#x387;" horiz-adv-x="494" d="M246 499 Q187 499 145 539 Q103 579 103 635 Q103 692 145 731.5 Q187 771 247 771 Q307 771 349.5 731.5 Q392 692 392 635 Q392 579 349.5 539 Q307 499 246 499 Z " />
<glyph glyph-name="Wgrave" unicode="&#x1e80;" horiz-adv-x="1978" d="M1956 1434 L1563 0 L1294 0 L1021 1003 Q1004 1067 1000 1143 L996 1143 Q991 1072 972 1005 L698 0 L423 0 L22 1434 L283 1434 L543 384 Q559 318 563 246 L568 246 Q572 297 596 384 L890 1434 L1135 1434 L1407 376 Q1421 322 1428 248 L1432 248 Q1435 298 1455 380 L1710 1434 L1956 1434 Z M1187 1566 L1014 1566 L752 1894 L966 1894 L1187 1566 Z " />
<glyph glyph-name="wgrave" unicode="&#x1e81;" horiz-adv-x="1549" d="M1528 1024 L1226 0 L983 0 L797 694 Q786 734 783 784 L779 784 Q777 750 761 696 L559 0 L321 0 L20 1024 L260 1024 L446 286 Q455 253 458 198 L465 198 Q468 240 481 288 L688 1024 L906 1024 L1090 283 Q1099 248 1103 195 L1110 195 Q1112 232 1125 283 L1307 1024 L1528 1024 Z M981 1204 L808 1204 L546 1532 L760 1532 L981 1204 Z " />
<glyph glyph-name="Wacute" unicode="&#x1e82;" horiz-adv-x="1978" d="M1956 1434 L1563 0 L1294 0 L1021 1003 Q1004 1067 1000 1143 L996 1143 Q991 1072 972 1005 L698 0 L423 0 L22 1434 L283 1434 L543 384 Q559 318 563 246 L568 246 Q572 297 596 384 L890 1434 L1135 1434 L1407 376 Q1421 322 1428 248 L1432 248 Q1435 298 1455 380 L1710 1434 L1956 1434 Z M1281 1908 L995 1580 L823 1580 L1065 1908 L1281 1908 Z " />
<glyph glyph-name="wacute" unicode="&#x1e83;" horiz-adv-x="1549" d="M1528 1024 L1226 0 L983 0 L797 694 Q786 734 783 784 L779 784 Q777 750 761 696 L559 0 L321 0 L20 1024 L260 1024 L446 286 Q455 253 458 198 L465 198 Q468 240 481 288 L688 1024 L906 1024 L1090 283 Q1099 248 1103 195 L1110 195 Q1112 232 1125 283 L1307 1024 L1528 1024 Z M1064 1546 L778 1218 L606 1218 L848 1546 L1064 1546 Z " />
<glyph glyph-name="Wdieresis" unicode="&#x1e84;" horiz-adv-x="1978" d="M1956 1434 L1563 0 L1294 0 L1021 1003 Q1004 1067 1000 1143 L996 1143 Q991 1072 972 1005 L698 0 L423 0 L22 1434 L283 1434 L543 384 Q559 318 563 246 L568 246 Q572 297 596 384 L890 1434 L1135 1434 L1407 376 Q1421 322 1428 248 L1432 248 Q1435 298 1455 380 L1710 1434 L1956 1434 Z M1207 1566 Q1157 1566 1120.5 1599 Q1084 1632 1084 1683 Q1084 1732 1119 1765 Q1154 1798 1204 1798 Q1257 1798 1293.5 1764.5 Q1330 1731 1330 1683 Q1330 1634 1295 1600 Q1260 1566 1207 1566 Z M791 1566 Q739 1566 702 1600.5 Q665 1635 665 1683 Q665 1732 700.5 1765 Q736 1798 787 1798 Q838 1798 875.5 1764.5 Q913 1731 913 1683 Q913 1634 877 1600 Q841 1566 791 1566 Z " />
<glyph glyph-name="wdieresis" unicode="&#x1e85;" horiz-adv-x="1549" d="M1528 1024 L1226 0 L983 0 L797 694 Q786 734 783 784 L779 784 Q777 750 761 696 L559 0 L321 0 L20 1024 L260 1024 L446 286 Q455 253 458 198 L465 198 Q468 240 481 288 L688 1024 L906 1024 L1090 283 Q1099 248 1103 195 L1110 195 Q1112 232 1125 283 L1307 1024 L1528 1024 Z M998 1203 Q948 1203 911.5 1236 Q875 1269 875 1320 Q875 1369 910 1402 Q945 1435 995 1435 Q1048 1435 1084.5 1401.5 Q1121 1368 1121 1320 Q1121 1271 1086 1237 Q1051 1203 998 1203 Z M582 1203 Q530 1203 493 1237.5 Q456 1272 456 1320 Q456 1369 491.5 1402 Q527 1435 578 1435 Q629 1435 666.5 1401.5 Q704 1368 704 1320 Q704 1271 668 1237 Q632 1203 582 1203 Z " />
<glyph glyph-name="Ygrave" unicode="&#x1ef2;" horiz-adv-x="1182" d="M1176 1434 L706 521 L706 0 L468 0 L468 516 L10 1434 L281 1434 L563 819 Q568 808 593 736 L596 736 Q605 768 629 819 L924 1434 L1176 1434 Z M745 1566 L572 1566 L310 1894 L524 1894 L745 1566 Z " />
<glyph glyph-name="ygrave" unicode="&#x1ef3;" horiz-adv-x="1041" d="M1038 1024 L576 -164 Q432 -482 172 -482 Q99 -482 50 -469 L50 -276 Q105 -294 150 -294 Q280 -294 344 -166 L413 2 L6 1024 L263 1024 L507 280 Q511 266 525 206 L530 206 Q535 229 548 278 L804 1024 L1038 1024 Z M669 1204 L496 1204 L234 1532 L448 1532 L669 1204 Z " />
<glyph glyph-name="quotereversed" unicode="&#x201b;" horiz-adv-x="525" d="M427 1017 L276 1017 L111 1462 L315 1462 L427 1017 Z " />
<glyph glyph-name="uni203E" unicode="&#x203e;" horiz-adv-x="850" d="M850 1396 L0 1396 L0 1516 L850 1516 L850 1396 Z " />
<glyph glyph-name="lira" unicode="&#x20a4;" horiz-adv-x="1137" d="M834 500 L551 500 L551 492 Q551 272 376 185 L1054 185 L1054 0 L122 0 L122 176 Q329 241 329 463 L329 500 L143 500 L143 656 L329 656 L329 778 L143 778 L143 935 L329 935 L329 1023 Q329 1214 445.5 1336 Q562 1458 747 1458 Q871 1458 970 1413 L970 1212 Q871 1273 760 1273 Q551 1273 551 1000 L551 935 L834 935 L834 778 L551 778 L551 656 L834 656 L834 500 Z " />
<glyph glyph-name="estimated" unicode="&#x212e;" horiz-adv-x="1229" d="M1144 530 L316 530 L317 160 Q437 39 613 39 Q868 39 1008 284 L1080 242 Q976 90 866.5 27.5 Q757 -35 614 -35 Q376 -35 230.5 126.5 Q85 288 85 530 Q85 784 233.5 940 Q382 1096 610 1096 Q826 1096 978 954 Q1130 812 1144 530 Z M912 604 L912 901 Q782 1024 609 1024 Q434 1024 316 901 L316 604 L912 604 Z " />
<glyph glyph-name="oneeighth" unicode="&#x215b;" horiz-adv-x="1928" d="M657 584 L126 584 L126 723 L307 723 L307 1264 L115 1216 L115 1365 L476 1455 L476 723 L657 723 L657 584 Z M1446 1434 L571 0 L382 0 L1255 1434 L1446 1434 Z M1628 449 Q1794 378 1794 228 Q1794 114 1710 48 Q1626 -18 1473 -18 Q1346 -18 1261.5 47 Q1177 112 1177 219 Q1177 369 1339 448 Q1206 521 1206 645 Q1206 747 1284 809.5 Q1362 872 1495 872 Q1617 872 1693 812.5 Q1769 753 1769 657 Q1769 526 1628 449 Z M1487 521 Q1604 571 1604 643 Q1604 738 1490 738 Q1438 738 1405 711.5 Q1372 685 1372 644 Q1372 570 1487 521 Z M1480 377 Q1343 329 1343 226 Q1343 180 1382 148.5 Q1421 117 1482 117 Q1546 117 1587.5 148.5 Q1629 180 1629 224 Q1629 325 1480 377 Z " />
<glyph glyph-name="threeeighths" unicode="&#x215c;" horiz-adv-x="1928" d="M130 616 L130 776 Q234 703 349 703 Q424 703 467.5 736 Q511 769 511 825 Q511 949 296 949 L214 949 L214 1089 L292 1089 Q484 1089 484 1206 Q484 1312 352 1312 Q255 1312 160 1245 L160 1400 Q252 1454 385 1454 Q507 1454 579 1393.5 Q651 1333 651 1236 Q651 1089 507 1036 L507 1032 Q681 990 681 832 Q681 713 591 638 Q501 563 350 563 Q210 563 130 616 Z M1485 1434 L610 0 L421 0 L1294 1434 L1485 1434 Z M1667 448 Q1833 377 1833 227 Q1833 113 1749 47 Q1665 -19 1512 -19 Q1385 -19 1300.5 46 Q1216 111 1216 218 Q1216 368 1378 447 Q1245 520 1245 644 Q1245 746 1323 808.5 Q1401 871 1534 871 Q1656 871 1732 811.5 Q1808 752 1808 656 Q1808 525 1667 448 Z M1526 520 Q1643 570 1643 642 Q1643 737 1529 737 Q1477 737 1444 710.5 Q1411 684 1411 643 Q1411 569 1526 520 Z M1519 376 Q1382 328 1382 225 Q1382 179 1421 147.5 Q1460 116 1521 116 Q1585 116 1626.5 147.5 Q1668 179 1668 223 Q1668 324 1519 376 Z " />
<glyph glyph-name="fiveeighths" unicode="&#x215d;" horiz-adv-x="1936" d="M138 608 L138 766 Q251 700 337 700 Q415 700 461 740 Q507 780 507 842 Q507 978 318 978 L164 968 L164 1437 L639 1437 L639 1291 L317 1291 L317 1116 Q496 1129 587.5 1054.5 Q679 980 679 853 Q679 725 589.5 644 Q500 563 346 563 Q216 563 138 608 Z M1485 1434 L610 0 L421 0 L1294 1434 L1485 1434 Z M1669 449 Q1835 378 1835 228 Q1835 114 1751 48 Q1667 -18 1514 -18 Q1387 -18 1302.5 47 Q1218 112 1218 219 Q1218 369 1380 448 Q1247 521 1247 645 Q1247 747 1325 809.5 Q1403 872 1536 872 Q1658 872 1734 812.5 Q1810 753 1810 657 Q1810 526 1669 449 Z M1528 521 Q1645 571 1645 643 Q1645 738 1531 738 Q1479 738 1446 711.5 Q1413 685 1413 644 Q1413 570 1528 521 Z M1521 377 Q1384 329 1384 226 Q1384 180 1423 148.5 Q1462 117 1523 117 Q1587 117 1628.5 148.5 Q1670 180 1670 224 Q1670 325 1521 377 Z " />
<glyph glyph-name="seveneighths" unicode="&#x215e;" horiz-adv-x="1858" d="M406 584 L226 584 L540 1297 L129 1297 L129 1439 L735 1439 L735 1366 L406 584 Z M1375 1434 L500 0 L311 0 L1184 1434 L1375 1434 Z M1558 449 Q1724 378 1724 228 Q1724 114 1640 48 Q1556 -18 1403 -18 Q1276 -18 1191.5 47 Q1107 112 1107 219 Q1107 369 1269 448 Q1136 521 1136 645 Q1136 747 1214 809.5 Q1292 872 1425 872 Q1547 872 1623 812.5 Q1699 753 1699 657 Q1699 526 1558 449 Z M1417 521 Q1534 571 1534 643 Q1534 738 1420 738 Q1368 738 1335 711.5 Q1302 685 1302 644 Q1302 570 1417 521 Z M1410 377 Q1273 329 1273 226 Q1273 180 1312 148.5 Q1351 117 1412 117 Q1476 117 1517.5 148.5 Q1559 180 1559 224 Q1559 325 1410 377 Z " />
<glyph glyph-name="uni037E" unicode="&#x37e;" horiz-adv-x="494" d="M247 771 Q188 771 147.5 811.5 Q107 852 107 908 Q107 964 147.5 1003 Q188 1042 247 1042 Q304 1042 345 1003 Q386 964 386 908 Q386 852 345 811.5 Q304 771 247 771 Z M368 239 L216 -264 L39 -264 L148 239 L368 239 Z " />
<glyph glyph-name="tonos" unicode="&#x384;" horiz-adv-x="599" d="M515 1524 L326 1171 L198 1171 L297 1524 L515 1524 Z " />
<glyph glyph-name="dieresistonos" unicode="&#x385;" horiz-adv-x="683" d="M549 1564 L362 1197 L242 1197 L335 1564 L549 1564 Z M625 1206 Q576 1206 541.5 1237.5 Q507 1269 507 1317 Q507 1365 541.5 1397 Q576 1429 624 1429 Q674 1429 709 1396.5 Q744 1364 744 1317 Q744 1269 709 1237.5 Q674 1206 625 1206 Z M83 1206 Q35 1206 0.5 1237.5 Q-34 1269 -34 1317 Q-34 1365 0.5 1397 Q35 1429 83 1429 Q132 1429 167.5 1396.5 Q203 1364 203 1317 Q203 1269 168 1237.5 Q133 1206 83 1206 Z " />
<glyph glyph-name="Alphatonos" unicode="&#x386;" horiz-adv-x="1375" d="M1355 0 L1094 0 L965 365 L401 365 L277 0 L17 0 L554 1434 L822 1434 L1355 0 Z M902 559 L703 1131 Q694 1159 684 1221 L680 1221 Q671 1164 660 1131 L463 559 L902 559 Z M322 1436 L133 1083 L5 1083 L104 1436 L322 1436 Z " />
<glyph glyph-name="Epsilontonos" unicode="&#x388;" horiz-adv-x="1246" d="M1166 0 L361 0 L361 1434 L1134 1434 L1134 1232 L599 1232 L599 826 L1092 826 L1092 625 L599 625 L599 201 L1166 201 L1166 0 Z M264 1436 L75 1083 L-53 1083 L46 1436 L264 1436 Z " />
<glyph glyph-name="Etatonos" unicode="&#x389;" horiz-adv-x="1691" d="M1513 0 L1274 0 L1274 622 L599 622 L599 0 L361 0 L361 1434 L599 1434 L599 831 L1274 831 L1274 1434 L1513 1434 L1513 0 Z M263 1436 L74 1083 L-54 1083 L45 1436 L263 1436 Z " />
<glyph glyph-name="Iotatonos" unicode="&#x38a;" horiz-adv-x="868" d="M822 1434 L822 1242 L691 1242 L691 192 L822 192 L822 0 L322 0 L322 192 L453 192 L453 1242 L322 1242 L322 1434 L822 1434 Z M266 1436 L77 1083 L-51 1083 L48 1436 L266 1436 Z " />
<glyph glyph-name="Omicrontonos" unicode="&#x38c;" horiz-adv-x="1681" d="M904 -24 Q594 -24 407.5 177 Q221 378 221 700 Q221 1046 411 1252 Q601 1458 927 1458 Q1229 1458 1413.5 1258 Q1598 1058 1598 735 Q1598 384 1409 180 Q1220 -24 904 -24 Z M915 1249 Q718 1249 594.5 1102 Q471 955 471 715 Q471 476 591 330 Q711 184 905 184 Q1111 184 1230 323 Q1349 462 1349 712 Q1349 969 1233.5 1109 Q1118 1249 915 1249 Z M275 1436 L86 1083 L-42 1083 L57 1436 L275 1436 Z " />
<glyph glyph-name="Upsilontonos" unicode="&#x38e;" horiz-adv-x="1470" d="M1462 1434 L992 521 L992 0 L754 0 L754 516 L296 1434 L567 1434 L849 819 Q854 808 879 736 L882 736 Q891 768 915 819 L1210 1434 L1462 1434 Z M243 1436 L54 1083 L-74 1083 L25 1436 L243 1436 Z " />
<glyph glyph-name="Omegatonos" unicode="&#x38f;" horiz-adv-x="1727" d="M1635 0 L1079 0 L1079 198 Q1387 433 1387 782 Q1387 999 1265.5 1125.5 Q1144 1252 952 1252 Q758 1252 634.5 1125 Q511 998 511 778 Q511 432 818 198 L818 0 L262 0 L262 198 L606 198 Q263 422 263 805 Q263 1109 451 1283.5 Q639 1458 946 1458 Q1260 1458 1447.5 1285 Q1635 1112 1635 807 Q1635 424 1288 198 L1635 198 L1635 0 Z M270 1435 L81 1082 L-47 1082 L52 1435 L270 1435 Z " />
<glyph glyph-name="iotadieresistonos" unicode="&#x390;" horiz-adv-x="603" d="M580 12 Q503 -15 430 -15 Q161 -15 161 288 L161 1024 L392 1024 L392 312 Q392 177 488 177 Q531 177 580 198 L580 12 Z M483 1564 L296 1197 L176 1197 L269 1564 L483 1564 Z M559 1206 Q510 1206 475.5 1237.5 Q441 1269 441 1317 Q441 1365 475.5 1397 Q510 1429 558 1429 Q608 1429 643 1396.5 Q678 1364 678 1317 Q678 1269 643 1237.5 Q608 1206 559 1206 Z M17 1206 Q-31 1206 -65.5 1237.5 Q-100 1269 -100 1317 Q-100 1365 -65.5 1397 Q-31 1429 17 1429 Q66 1429 101.5 1396.5 Q137 1364 137 1317 Q137 1269 102 1237.5 Q67 1206 17 1206 Z " />
<glyph glyph-name="Alpha" unicode="&#x391;" horiz-adv-x="1375" d="M1355 0 L1094 0 L965 365 L401 365 L277 0 L17 0 L554 1434 L822 1434 L1355 0 Z M902 559 L703 1131 Q694 1159 684 1221 L680 1221 Q671 1164 660 1131 L463 559 L902 559 Z " />
<glyph glyph-name="Beta" unicode="&#x392;" horiz-adv-x="1237" d="M177 0 L177 1434 L632 1434 Q840 1434 961.5 1343 Q1083 1252 1083 1106 Q1083 984 1014 894 Q945 804 823 766 L823 762 Q971 745 1059.5 652.5 Q1148 560 1148 412 Q1148 228 1003 114 Q858 0 637 0 L177 0 Z M414 1243 L414 835 L568 835 Q692 835 762.5 893.5 Q833 952 833 1059 Q833 1243 587 1243 L414 1243 Z M414 644 L414 190 L617 190 Q750 190 822.5 251.5 Q895 313 895 421 Q895 644 586 644 L414 644 Z " />
<glyph glyph-name="Epsilon" unicode="&#x395;" horiz-adv-x="1060" d="M982 0 L177 0 L177 1434 L950 1434 L950 1232 L415 1232 L415 826 L908 826 L908 625 L415 625 L415 201 L982 201 L982 0 Z " />
<glyph glyph-name="Zeta" unicode="&#x396;" horiz-adv-x="1202" d="M1155 1330 L369 201 L1145 201 L1145 0 L36 0 L36 109 L825 1232 L97 1232 L97 1434 L1155 1434 L1155 1330 Z " />
<glyph glyph-name="Eta" unicode="&#x397;" horiz-adv-x="1506" d="M1329 0 L1090 0 L1090 622 L415 622 L415 0 L177 0 L177 1434 L415 1434 L415 831 L1090 831 L1090 1434 L1329 1434 L1329 0 Z " />
<glyph glyph-name="Iota" unicode="&#x399;" horiz-adv-x="592" d="M546 1434 L546 1242 L415 1242 L415 192 L546 192 L546 0 L46 0 L46 192 L177 192 L177 1242 L46 1242 L46 1434 L546 1434 Z " />
<glyph glyph-name="Kappa" unicode="&#x39a;" horiz-adv-x="1251" d="M1262 0 L952 0 L453 656 Q425 693 419 706 L415 706 L415 0 L177 0 L177 1434 L415 1434 L415 760 L419 760 Q431 782 453 809 L934 1434 L1219 1434 L656 746 L1262 0 Z " />
<glyph glyph-name="Lambda" unicode="&#x39b;" horiz-adv-x="1347" d="M1325 0 L1064 0 L701 1100 Q685 1147 673 1218 L668 1218 Q658 1156 638 1101 L273 0 L18 0 L536 1434 L817 1434 L1325 0 Z " />
<glyph glyph-name="Mu" unicode="&#x39c;" horiz-adv-x="1893" d="M1717 0 L1481 0 L1481 928 Q1481 1042 1495 1207 L1491 1207 Q1469 1113 1452 1072 L1024 0 L860 0 L431 1064 Q413 1111 393 1207 L389 1207 Q397 1121 397 926 L397 0 L177 0 L177 1434 L512 1434 L889 479 Q932 369 945 315 L950 315 Q987 428 1010 483 L1394 1434 L1717 1434 L1717 0 Z " />
<glyph glyph-name="Nu" unicode="&#x39d;" horiz-adv-x="1571" d="M1393 0 L1133 0 L448 1054 Q422 1094 405 1137 L399 1137 Q407 1091 407 940 L407 0 L177 0 L177 1434 L454 1434 L1116 405 Q1158 341 1170 317 L1174 317 Q1164 374 1164 510 L1164 1434 L1393 1434 L1393 0 Z " />
<glyph glyph-name="Xi" unicode="&#x39e;" horiz-adv-x="1084" d="M1000 1225 L84 1225 L84 1434 L1000 1434 L1000 1225 Z M859 621 L225 621 L225 824 L859 824 L859 621 Z M1026 0 L58 0 L59 211 L1026 211 L1026 0 Z " />
<glyph glyph-name="Omicron" unicode="&#x39f;" horiz-adv-x="1548" d="M768 -24 Q458 -24 271.5 177 Q85 378 85 700 Q85 1046 275 1252 Q465 1458 791 1458 Q1093 1458 1277.5 1258 Q1462 1058 1462 735 Q1462 384 1273 180 Q1084 -24 768 -24 Z M779 1249 Q582 1249 458.5 1102 Q335 955 335 715 Q335 476 455 330 Q575 184 769 184 Q975 184 1094 323 Q1213 462 1213 712 Q1213 969 1097.5 1109 Q982 1249 779 1249 Z " />
<glyph glyph-name="Pi" unicode="&#x3a0;" horiz-adv-x="1508" d="M1334 0 L1095 0 L1095 1221 L415 1221 L415 0 L177 0 L177 1434 L1334 1434 L1334 0 Z " />
<glyph glyph-name="Rho" unicode="&#x3a1;" horiz-adv-x="1197" d="M414 520 L414 0 L177 0 L177 1434 L612 1434 Q859 1434 995 1319 Q1131 1204 1131 995 Q1131 786 989 653 Q847 520 605 520 L414 520 Z M414 1238 L414 714 L568 714 Q721 714 801 785 Q881 856 881 985 Q881 1238 587 1238 L414 1238 Z " />
<glyph glyph-name="Sigma" unicode="&#x3a3;" horiz-adv-x="1106" d="M1061 0 L44 0 L44 120 L508 733 L79 1301 L79 1434 L999 1434 L999 1229 L418 1229 L786 742 L382 198 L1061 198 L1061 0 Z " />
<glyph glyph-name="Tau" unicode="&#x3a4;" horiz-adv-x="1130" d="M1097 1232 L685 1232 L685 0 L447 0 L447 1232 L36 1232 L36 1434 L1097 1434 L1097 1232 Z " />
<glyph glyph-name="Upsilon" unicode="&#x3a5;" horiz-adv-x="1182" d="M1176 1434 L706 521 L706 0 L468 0 L468 516 L10 1434 L281 1434 L563 819 Q568 808 593 736 L596 736 Q605 768 629 819 L924 1434 L1176 1434 Z " />
<glyph glyph-name="Chi" unicode="&#x3a7;" horiz-adv-x="1268" d="M1249 0 L964 0 L670 526 Q657 550 641 594 L637 594 Q628 572 607 526 L304 0 L17 0 L487 721 L55 1434 L346 1434 L605 950 Q630 902 650 854 L653 854 Q682 917 703 954 L972 1434 L1240 1434 L798 723 L1249 0 Z " />
<glyph glyph-name="Psi" unicode="&#x3a8;" horiz-adv-x="1635" d="M923 1434 L923 576 L965 576 Q1282 576 1282 909 L1282 1434 L1500 1434 L1500 899 Q1500 667 1354 520 Q1208 373 965 373 L923 373 L923 0 L712 0 L712 373 L669 373 Q425 373 279.5 520 Q134 667 134 899 L134 1434 L352 1434 L352 909 Q352 576 669 576 L712 576 L712 1434 L923 1434 Z " />
<glyph glyph-name="uni03A9" unicode="&#x3a9;" horiz-adv-x="1556" d="M1465 0 L909 0 L909 198 Q1217 433 1217 782 Q1217 999 1095.5 1125.5 Q974 1252 782 1252 Q588 1252 464.5 1125 Q341 998 341 778 Q341 432 648 198 L648 0 L92 0 L92 198 L436 198 Q93 422 93 805 Q93 1109 281 1283.5 Q469 1458 776 1458 Q1090 1458 1277.5 1285 Q1465 1112 1465 807 Q1465 424 1118 198 L1465 198 L1465 0 Z " />
<glyph glyph-name="Iotadieresis" unicode="&#x3aa;" horiz-adv-x="592" d="M546 1434 L546 1242 L415 1242 L415 192 L546 192 L546 0 L46 0 L46 192 L177 192 L177 1242 L46 1242 L46 1434 L546 1434 Z M510 1551 Q460 1551 423.5 1584 Q387 1617 387 1668 Q387 1717 422 1750 Q457 1783 507 1783 Q560 1783 596.5 1749.5 Q633 1716 633 1668 Q633 1619 598 1585 Q563 1551 510 1551 Z M94 1551 Q42 1551 5 1585.5 Q-32 1620 -32 1668 Q-32 1717 3.5 1750 Q39 1783 90 1783 Q141 1783 178.5 1749.5 Q216 1716 216 1668 Q216 1619 180 1585 Q144 1551 94 1551 Z " />
<glyph glyph-name="Upsilondieresis" unicode="&#x3ab;" horiz-adv-x="1182" d="M1176 1434 L706 521 L706 0 L468 0 L468 516 L10 1434 L281 1434 L563 819 Q568 808 593 736 L596 736 Q605 768 629 819 L924 1434 L1176 1434 Z M798 1550 Q748 1550 711.5 1583 Q675 1616 675 1667 Q675 1716 710 1749 Q745 1782 795 1782 Q848 1782 884.5 1748.5 Q921 1715 921 1667 Q921 1618 886 1584 Q851 1550 798 1550 Z M382 1550 Q330 1550 293 1584.5 Q256 1619 256 1667 Q256 1716 291.5 1749 Q327 1782 378 1782 Q429 1782 466.5 1748.5 Q504 1715 504 1667 Q504 1618 468 1584 Q432 1550 382 1550 Z " />
<glyph glyph-name="alphatonos" unicode="&#x3ac;" horiz-adv-x="1279" d="M1252 8 Q1185 -11 1132 -11 Q957 -11 896 253 L891 253 Q750 -24 496 -24 Q308 -24 195 119.5 Q82 263 82 482 Q82 732 211 890 Q340 1048 560 1048 Q679 1048 772 982 Q865 916 913 796 L917 796 L993 1024 L1231 1024 L1026 514 Q1060 324 1098 255.5 Q1136 187 1197 187 Q1230 187 1254 197 L1252 8 Z M837 522 Q805 688 738.5 776.5 Q672 865 579 865 Q459 865 387.5 758.5 Q316 652 316 496 Q316 355 378 260 Q440 165 544 165 Q632 165 704.5 246 Q777 327 825 484 L837 522 Z M833 1524 L644 1171 L516 1171 L615 1524 L833 1524 Z " />
<glyph glyph-name="epsilontonos" unicode="&#x3ad;" horiz-adv-x="920" d="M852 21 Q716 -25 512 -25 Q309 -25 192 56.5 Q75 138 75 274 Q75 368 141.5 436.5 Q208 505 317 526 L317 530 Q235 548 174 613 Q113 678 113 761 Q113 897 224.5 973 Q336 1049 522 1049 Q673 1049 807 1005 L807 810 Q679 876 537 876 Q349 876 349 750 Q349 685 419.5 645.5 Q490 606 599 606 Q672 606 717 610 L717 438 Q644 442 574 442 Q311 442 311 290 Q311 225 373 186 Q435 147 548 147 Q712 147 852 217 L852 21 Z M735 1524 L546 1171 L418 1171 L517 1524 L735 1524 Z " />
<glyph glyph-name="etatonos" unicode="&#x3ae;" horiz-adv-x="1211" d="M1064 -436 L829 -436 L829 558 Q829 845 624 845 Q519 845 451 768.5 Q383 692 383 575 L383 0 L151 0 L151 694 Q151 928 113 1024 L351 1024 Q381 952 381 855 L385 855 Q494 1048 720 1048 Q1064 1048 1064 621 L1064 -436 Z M840 1524 L651 1171 L523 1171 L622 1524 L840 1524 Z " />
<glyph glyph-name="iotatonos" unicode="&#x3af;" horiz-adv-x="603" d="M580 12 Q503 -15 430 -15 Q161 -15 161 288 L161 1024 L392 1024 L392 312 Q392 177 488 177 Q531 177 580 198 L580 12 Z M505 1524 L316 1171 L188 1171 L287 1524 L505 1524 Z " />
<glyph glyph-name="upsilondieresistonos" unicode="&#x3b0;" horiz-adv-x="1195" d="M165 688 Q165 770 146 808 Q127 846 76 846 Q50 846 20 839 L20 1018 Q86 1036 151 1036 Q289 1036 343 962.5 Q397 889 397 725 L397 470 Q397 168 636 168 Q745 168 806 245 Q867 322 867 463 Q867 759 733 1024 L981 1024 Q1101 776 1101 469 Q1101 241 975.5 108 Q850 -25 632 -25 Q407 -25 286 94 Q165 213 165 437 L165 688 Z M776 1564 L589 1197 L469 1197 L562 1564 L776 1564 Z M852 1206 Q803 1206 768.5 1237.5 Q734 1269 734 1317 Q734 1365 768.5 1397 Q803 1429 851 1429 Q901 1429 936 1396.5 Q971 1364 971 1317 Q971 1269 936 1237.5 Q901 1206 852 1206 Z M310 1206 Q262 1206 227.5 1237.5 Q193 1269 193 1317 Q193 1365 227.5 1397 Q262 1429 310 1429 Q359 1429 394.5 1396.5 Q430 1364 430 1317 Q430 1269 395 1237.5 Q360 1206 310 1206 Z " />
<glyph glyph-name="beta" unicode="&#x3b2;" horiz-adv-x="1190" d="M383 36 L383 -477 L151 -477 L151 1084 Q151 1290 272.5 1411.5 Q394 1533 599 1533 Q795 1533 907.5 1437 Q1020 1341 1020 1171 Q1020 1054 943.5 952.5 Q867 851 745 813 L745 809 Q926 781 1021 676.5 Q1116 572 1116 410 Q1116 217 988.5 96.5 Q861 -24 653 -24 Q505 -24 383 36 Z M526 709 L526 880 Q639 895 712 972.5 Q785 1050 785 1147 Q785 1347 596 1347 Q493 1347 438 1277 Q383 1207 383 1080 L383 238 Q510 161 631 161 Q748 161 813.5 226 Q879 291 879 408 Q879 674 526 709 Z " />
<glyph glyph-name="gamma" unicode="&#x3b3;" horiz-adv-x="1107" d="M621 -71 Q621 -389 617 -481 L376 -481 Q393 -311 393 16 Q353 231 233.5 530.5 Q114 830 -9 1024 L258 1024 Q486 610 572 203 L575 203 Q710 430 761.5 590 Q813 750 813 903 Q813 961 803 1024 L1037 1024 Q1043 971 1043 939 Q1043 805 1013.5 675.5 Q984 546 922 419.5 Q860 293 812 222 L621 -71 Z " />
<glyph glyph-name="zeta" unicode="&#x3b6;" horiz-adv-x="927" d="M841 -309 L590 -309 Q696 -224 696 -143 Q696 -75 637 -42.5 Q578 -10 443 8 Q71 56 71 453 Q71 866 634 1336 L634 1340 L222 1340 L222 1516 L864 1516 L864 1338 Q310 855 310 472 Q310 235 577 190 Q777 154 848 82.5 Q919 11 919 -104 Q919 -217 841 -309 Z " />
<glyph glyph-name="eta" unicode="&#x3b7;" horiz-adv-x="1211" d="M1064 -436 L829 -436 L829 558 Q829 845 624 845 Q519 845 451 768.5 Q383 692 383 575 L383 0 L151 0 L151 694 Q151 928 113 1024 L351 1024 Q381 952 381 855 L385 855 Q494 1048 720 1048 Q1064 1048 1064 621 L1064 -436 Z " />
<glyph glyph-name="theta" unicode="&#x3b8;" horiz-adv-x="1224" d="M601 -24 Q357 -24 221 178.5 Q85 381 85 748 Q85 1129 225 1332 Q365 1535 628 1535 Q1138 1535 1138 771 Q1138 391 997.5 183.5 Q857 -24 601 -24 Z M898 854 Q882 1348 614 1348 Q486 1348 409.5 1214 Q333 1080 324 854 L898 854 Z M898 679 L323 679 Q327 427 403.5 294.5 Q480 162 615 162 Q746 162 820 296 Q894 430 898 679 Z " />
<glyph glyph-name="iota" unicode="&#x3b9;" horiz-adv-x="603" d="M580 12 Q503 -15 430 -15 Q161 -15 161 288 L161 1024 L392 1024 L392 312 Q392 177 488 177 Q531 177 580 198 L580 12 Z " />
<glyph glyph-name="kappa" unicode="&#x3ba;" horiz-adv-x="1116" d="M1099 0 L822 0 L501 464 L383 339 L383 0 L151 0 L151 1024 L383 1024 L383 560 L619 838 Q751 976 814.5 1007 Q878 1038 933 1038 Q990 1038 1028 1028 L1028 833 Q994 843 958 843 Q884 844 757 714 L662 611 L1099 0 Z " />
<glyph glyph-name="lambda" unicode="&#x3bb;" horiz-adv-x="1067" d="M1041 0 L795 0 L552 773 L253 0 L-2 0 L456 1016 L399 1179 Q347 1314 248 1314 Q190 1314 117 1287 L117 1496 Q196 1514 278 1514 Q405 1514 483.5 1445 Q562 1376 632 1182 L1041 0 Z " />
<glyph glyph-name="uni03BC" unicode="&#x3bc;" horiz-adv-x="1228" d="M826 168 Q746 -23 564 -23 Q439 -23 388 63 L384 63 L384 -442 L151 -442 L151 1024 L383 1024 L383 415 Q383 307 440 238.5 Q497 170 591 170 Q693 170 752 250 Q811 330 811 458 L811 1024 L1045 1024 L1044 348 Q1044 182 1151 182 Q1178 182 1198 189 L1198 6 Q1123 -11 1063 -11 Q966 -11 911.5 32.5 Q857 76 832 168 L826 168 Z " />
<glyph glyph-name="nu" unicode="&#x3bd;" horiz-adv-x="1103" d="M622 0 L404 0 L-4 1024 L246 1024 L549 200 Q773 498 773 772 Q773 918 731 1024 L970 1024 Q1001 944 1001 812 Q1001 446 622 0 Z " />
<glyph glyph-name="xi" unicode="&#x3be;" horiz-adv-x="941" d="M842 -312 L591 -312 Q697 -234 697 -150 Q697 -95 658 -61.5 Q619 -28 482 -9 Q285 16 178 123 Q71 230 71 402 Q71 538 157 643.5 Q243 749 401 806 Q298 834 242.5 896 Q187 958 187 1043 Q187 1143 270.5 1222 Q354 1301 496 1336 L496 1344 Q197 1339 161 1339 L161 1516 L815 1516 L815 1341 Q629 1312 518 1235.5 Q407 1159 407 1053 Q407 990 444.5 946.5 Q482 903 541 885.5 Q600 868 638 868 Q662 868 714 872 Q765 875 795 875 L795 679 Q741 682 669 682 Q515 682 412 612 Q309 542 309 425 Q309 230 566 190 Q766 157 843.5 86 Q921 15 921 -105 Q921 -222 842 -312 Z " />
<glyph glyph-name="omicron" unicode="&#x3bf;" horiz-adv-x="1223" d="M605 -24 Q368 -24 226.5 119.5 Q85 263 85 500 Q85 758 232.5 903 Q380 1048 630 1048 Q870 1048 1004 907 Q1138 766 1138 516 Q1138 271 993.5 123.5 Q849 -24 605 -24 Z M616 863 Q480 863 401 768 Q322 673 322 506 Q322 345 402 252.5 Q482 160 616 160 Q753 160 826.5 251 Q900 342 900 510 Q900 679 826.5 771 Q753 863 616 863 Z " />
<glyph glyph-name="rho" unicode="&#x3c1;" horiz-adv-x="1230" d="M382 85 L378 85 L378 -395 L146 -395 L146 517 Q146 768 269.5 908 Q393 1048 632 1048 Q865 1048 1004.5 899.5 Q1144 751 1144 524 Q1144 265 1021 120.5 Q898 -24 677 -24 Q492 -24 382 85 Z M378 280 Q412 228 482 194.5 Q552 161 628 161 Q906 161 906 516 Q906 668 828 765 Q750 862 630 862 Q507 862 442.5 776.5 Q378 691 378 531 L378 280 Z " />
<glyph glyph-name="sigma1" unicode="&#x3c2;" horiz-adv-x="968" d="M844 -312 L595 -312 Q702 -235 702 -145 Q702 -80 650.5 -50.5 Q599 -21 488 -5 Q291 20 185 137 Q79 254 79 434 Q79 713 235.5 881 Q392 1049 636 1049 Q771 1049 879 997 L879 785 Q770 863 646 863 Q504 863 411 747 Q318 631 318 457 Q318 395 335.5 348 Q353 301 382 275 Q411 249 441.5 235.5 Q472 222 743 140 Q923 75 923 -111 Q923 -224 844 -312 Z " />
<glyph glyph-name="upsilon" unicode="&#x3c5;" horiz-adv-x="1195" d="M165 688 Q165 770 146 808 Q127 846 76 846 Q50 846 20 839 L20 1018 Q86 1036 151 1036 Q289 1036 343 962.5 Q397 889 397 725 L397 470 Q397 168 636 168 Q745 168 806 245 Q867 322 867 463 Q867 759 733 1024 L981 1024 Q1101 776 1101 469 Q1101 241 975.5 108 Q850 -25 632 -25 Q407 -25 286 94 Q165 213 165 437 L165 688 Z " />
<glyph glyph-name="chi" unicode="&#x3c7;" horiz-adv-x="1117" d="M1112 -464 Q1058 -479 996 -479 Q904 -479 837.5 -418.5 Q771 -358 694 -203 L547 136 L246 -465 L-5 -465 L441 348 L276 715 Q214 853 146 853 Q95 853 53 834 L53 1033 Q92 1048 175 1048 Q264 1048 319.5 1010 Q375 972 428 872 L567 547 L798 1024 L1051 1024 L676 339 L898 -145 Q962 -284 1030 -284 Q1069 -284 1112 -265 L1112 -464 Z " />
<glyph glyph-name="psi" unicode="&#x3c8;" horiz-adv-x="1574" d="M1435 556 Q1435 288 1292 132.5 Q1149 -23 915 -23 L891 -23 L891 -482 L682 -482 L682 -23 L658 -23 Q422 -23 280 132 Q138 287 138 556 L138 1024 L363 1024 L363 557 Q363 381 448 273.5 Q533 166 662 166 L682 166 L682 1331 L891 1331 L891 166 L911 166 Q1039 166 1125 273 Q1211 380 1211 557 L1211 1024 L1435 1024 L1435 556 Z " />
<glyph glyph-name="omega" unicode="&#x3c9;" horiz-adv-x="1677" d="M840 168 L836 168 Q731 -23 526 -23 Q329 -23 218 107.5 Q107 238 107 468 Q107 721 234 1024 L479 1024 Q332 713 332 464 Q332 321 384.5 245 Q437 169 530 169 Q727 169 727 468 L727 750 L950 750 L950 468 Q950 169 1146 169 Q1238 169 1291 245 Q1344 321 1344 464 Q1344 713 1197 1024 L1441 1024 Q1570 720 1570 468 Q1570 237 1459 107 Q1348 -23 1148 -23 Q943 -23 840 168 Z " />
<glyph glyph-name="iotadieresis" unicode="&#x3ca;" horiz-adv-x="603" d="M580 12 Q503 -15 430 -15 Q161 -15 161 288 L161 1024 L392 1024 L392 312 Q392 177 488 177 Q531 177 580 198 L580 12 Z M507 1190 Q457 1190 420.5 1223 Q384 1256 384 1307 Q384 1356 419 1389 Q454 1422 504 1422 Q557 1422 593.5 1388.5 Q630 1355 630 1307 Q630 1258 595 1224 Q560 1190 507 1190 Z M91 1190 Q39 1190 2 1224.5 Q-35 1259 -35 1307 Q-35 1356 0.5 1389 Q36 1422 87 1422 Q138 1422 175.5 1388.5 Q213 1355 213 1307 Q213 1258 177 1224 Q141 1190 91 1190 Z " />
<glyph glyph-name="upsilondieresis" unicode="&#x3cb;" horiz-adv-x="1195" d="M165 688 Q165 770 146 808 Q127 846 76 846 Q50 846 20 839 L20 1018 Q86 1036 151 1036 Q289 1036 343 962.5 Q397 889 397 725 L397 470 Q397 168 636 168 Q745 168 806 245 Q867 322 867 463 Q867 759 733 1024 L981 1024 Q1101 776 1101 469 Q1101 241 975.5 108 Q850 -25 632 -25 Q407 -25 286 94 Q165 213 165 437 L165 688 Z M794 1190 Q744 1190 707.5 1223 Q671 1256 671 1307 Q671 1356 706 1389 Q741 1422 791 1422 Q844 1422 880.5 1388.5 Q917 1355 917 1307 Q917 1258 882 1224 Q847 1190 794 1190 Z M378 1190 Q326 1190 289 1224.5 Q252 1259 252 1307 Q252 1356 287.5 1389 Q323 1422 374 1422 Q425 1422 462.5 1388.5 Q500 1355 500 1307 Q500 1258 464 1224 Q428 1190 378 1190 Z " />
<glyph glyph-name="omicrontonos" unicode="&#x3cc;" horiz-adv-x="1223" d="M605 -24 Q368 -24 226.5 119.5 Q85 263 85 500 Q85 758 232.5 903 Q380 1048 630 1048 Q870 1048 1004 907 Q1138 766 1138 516 Q1138 271 993.5 123.5 Q849 -24 605 -24 Z M616 863 Q480 863 401 768 Q322 673 322 506 Q322 345 402 252.5 Q482 160 616 160 Q753 160 826.5 251 Q900 342 900 510 Q900 679 826.5 771 Q753 863 616 863 Z M815 1524 L626 1171 L498 1171 L597 1524 L815 1524 Z " />
<glyph glyph-name="upsilontonos" unicode="&#x3cd;" horiz-adv-x="1195" d="M165 688 Q165 770 146 808 Q127 846 76 846 Q50 846 20 839 L20 1018 Q86 1036 151 1036 Q289 1036 343 962.5 Q397 889 397 725 L397 470 Q397 168 636 168 Q745 168 806 245 Q867 322 867 463 Q867 759 733 1024 L981 1024 Q1101 776 1101 469 Q1101 241 975.5 108 Q850 -25 632 -25 Q407 -25 286 94 Q165 213 165 437 L165 688 Z M791 1524 L602 1171 L474 1171 L573 1524 L791 1524 Z " />
<glyph glyph-name="omegatonos" unicode="&#x3ce;" horiz-adv-x="1677" d="M840 168 L836 168 Q731 -23 526 -23 Q329 -23 218 107.5 Q107 238 107 468 Q107 721 234 1024 L479 1024 Q332 713 332 464 Q332 321 384.5 245 Q437 169 530 169 Q727 169 727 468 L727 750 L950 750 L950 468 Q950 169 1146 169 Q1238 169 1291 245 Q1344 321 1344 464 Q1344 713 1197 1024 L1441 1024 Q1570 720 1570 468 Q1570 237 1459 107 Q1348 -23 1148 -23 Q943 -23 840 168 Z M1033 1524 L844 1171 L716 1171 L815 1524 L1033 1524 Z " />
<glyph glyph-name="uni0401" unicode="&#x401;" horiz-adv-x="1060" d="M982 0 L177 0 L177 1434 L950 1434 L950 1232 L415 1232 L415 826 L908 826 L908 625 L415 625 L415 201 L982 201 L982 0 Z M788 1551 Q738 1551 701.5 1584 Q665 1617 665 1668 Q665 1717 700 1750 Q735 1783 785 1783 Q838 1783 874.5 1749.5 Q911 1716 911 1668 Q911 1619 876 1585 Q841 1551 788 1551 Z M372 1551 Q320 1551 283 1585.5 Q246 1620 246 1668 Q246 1717 281.5 1750 Q317 1783 368 1783 Q419 1783 456.5 1749.5 Q494 1716 494 1668 Q494 1619 458 1585 Q422 1551 372 1551 Z " />
<glyph glyph-name="uni0402" unicode="&#x402;" horiz-adv-x="1484" d="M813 9 L813 200 Q877 169 967 169 Q1049 169 1098 230 Q1147 291 1147 395 Q1147 518 1072 586.5 Q997 655 863 655 L642 655 L642 0 L404 0 L404 1231 L36 1231 L36 1434 L1096 1434 L1096 1231 L642 1231 L642 843 L894 843 Q1120 843 1251 726 Q1382 609 1382 397 Q1382 201 1279.5 92.5 Q1177 -16 990 -16 Q891 -16 813 9 Z " />
<glyph glyph-name="uni0403" unicode="&#x403;" horiz-adv-x="1003" d="M971 1228 L415 1228 L415 0 L177 0 L177 1434 L971 1434 L971 1228 Z M891 1894 L605 1566 L433 1566 L675 1894 L891 1894 Z " />
<glyph glyph-name="uni0404" unicode="&#x404;" horiz-adv-x="1270" d="M1171 55 Q1010 -24 771 -24 Q461 -24 273 173 Q85 370 85 688 Q85 1036 285 1247 Q485 1458 802 1458 Q1018 1458 1171 1401 L1171 1169 Q1011 1255 811 1255 Q616 1255 490 1137 Q364 1019 342 812 L939 812 L939 614 L342 614 Q357 410 481.5 293.5 Q606 177 802 177 Q1019 177 1171 272 L1171 55 Z " />
<glyph glyph-name="uni0405" unicode="&#x405;" horiz-adv-x="1115" d="M111 57 L111 302 Q144 272 189.5 248 Q235 224 286 207.5 Q337 191 388 182 Q439 173 482 173 Q632 173 705.5 223 Q779 273 779 368 Q779 419 754.5 456.5 Q730 494 686 525 Q642 556 582.5 584.5 Q523 613 455 644 Q382 683 319 723 Q256 763 209.5 811.5 Q163 860 136.5 921 Q110 982 110 1064 Q110 1165 155.5 1239.5 Q201 1314 275.5 1362.5 Q350 1411 445 1434.5 Q540 1458 639 1458 Q864 1458 967 1407 L967 1172 Q845 1260 653 1260 Q600 1260 547.5 1250 Q495 1240 453.5 1217 Q412 1194 386 1158 Q360 1122 360 1071 Q360 1023 380 988 Q400 953 438.5 924 Q477 895 532.5 867.5 Q588 840 661 808 Q736 769 802.5 726 Q869 683 919.5 631 Q970 579 999.5 515.5 Q1029 452 1029 371 Q1029 262 985 187 Q941 112 866.5 65 Q792 18 695 -3 Q598 -24 490 -24 Q454 -24 401.5 -18.5 Q349 -13 294 -2.5 Q239 8 190 23 Q141 38 111 57 Z " />
<glyph glyph-name="uni0407" unicode="&#x407;" horiz-adv-x="592" d="M546 1434 L546 1242 L415 1242 L415 192 L546 192 L546 0 L46 0 L46 192 L177 192 L177 1242 L46 1242 L46 1434 L546 1434 Z M511 1551 Q461 1551 424.5 1584 Q388 1617 388 1668 Q388 1717 423 1750 Q458 1783 508 1783 Q561 1783 597.5 1749.5 Q634 1716 634 1668 Q634 1619 599 1585 Q564 1551 511 1551 Z M95 1551 Q43 1551 6 1585.5 Q-31 1620 -31 1668 Q-31 1717 4.5 1750 Q40 1783 91 1783 Q142 1783 179.5 1749.5 Q217 1716 217 1668 Q217 1619 181 1585 Q145 1551 95 1551 Z " />
<glyph glyph-name="uni0409" unicode="&#x409;" horiz-adv-x="2058" d="M1252 852 L1525 852 Q1741 852 1859.5 746.5 Q1978 641 1978 445 Q1978 241 1845.5 120.5 Q1713 0 1482 0 L1014 0 L1014 1229 L666 1229 Q594 710 552 495.5 Q510 281 467 179.5 Q424 78 351 28.5 Q278 -21 175 -21 Q85 -21 19 3 L19 209 Q69 180 129 180 Q189 180 242 251 Q295 322 349.5 620.5 Q404 919 471 1434 L1252 1434 L1252 852 Z M1252 659 L1252 194 L1456 194 Q1587 194 1657.5 256.5 Q1728 319 1728 429 Q1728 659 1456 659 L1252 659 Z " />
<glyph glyph-name="uni040A" unicode="&#x40a;" horiz-adv-x="2072" d="M1029 0 L1029 642 L414 642 L414 0 L177 0 L177 1434 L414 1434 L414 849 L1029 849 L1029 1434 L1266 1434 L1266 856 L1512 856 Q1739 856 1865.5 750 Q1992 644 1992 447 Q1992 240 1857.5 120 Q1723 0 1489 0 L1029 0 Z M1266 659 L1266 195 L1471 195 Q1601 195 1671.5 257.5 Q1742 320 1742 431 Q1742 659 1471 659 L1266 659 Z " />
<glyph glyph-name="uni040B" unicode="&#x40b;" horiz-adv-x="1551" d="M1439 0 L1202 0 L1202 376 Q1202 641 936 641 L685 641 L685 0 L447 0 L447 1231 L36 1231 L36 1434 L1097 1434 L1097 1231 L685 1231 L685 845 L963 845 Q1439 845 1439 387 L1439 0 Z " />
<glyph glyph-name="uni040C" unicode="&#x40c;" horiz-adv-x="1251" d="M1262 0 L952 0 L453 656 Q425 693 419 706 L415 706 L415 0 L177 0 L177 1434 L415 1434 L415 760 L419 760 Q431 782 453 809 L934 1434 L1219 1434 L656 746 L1262 0 Z M989 1908 L703 1580 L531 1580 L773 1908 L989 1908 Z " />
<glyph glyph-name="uni040E" unicode="&#x40e;" horiz-adv-x="1206" d="M1216 1434 L770 441 Q646 170 530.5 72.5 Q415 -25 278 -25 Q169 -25 96 6 L96 233 Q183 181 263 181 Q334 181 393.5 235 Q453 289 522 425 L43 1434 L314 1434 L610 754 Q619 733 645 650 L647 650 Q650 660 685 754 L964 1434 L1216 1434 Z M1029 1888 Q1013 1738 905.5 1651.5 Q798 1565 636 1565 Q470 1565 365.5 1651.5 Q261 1738 251 1888 L444 1888 Q458 1706 639 1706 Q719 1706 771.5 1754 Q824 1802 836 1888 L1029 1888 Z " />
<glyph glyph-name="uni040F" unicode="&#x40f;" horiz-adv-x="1503" d="M1329 0 L856 0 L856 -387 L644 -387 L644 0 L177 0 L177 1434 L415 1434 L415 208 L1090 208 L1090 1434 L1329 1434 L1329 0 Z " />
<glyph glyph-name="uni0410" unicode="&#x410;" horiz-adv-x="1375" d="M1355 0 L1094 0 L965 365 L401 365 L277 0 L17 0 L554 1434 L822 1434 L1355 0 Z M902 559 L703 1131 Q694 1159 684 1221 L680 1221 Q671 1164 660 1131 L463 559 L902 559 Z " />
<glyph glyph-name="uni0411" unicode="&#x411;" horiz-adv-x="1236" d="M177 0 L177 1434 L1014 1434 L1014 1231 L415 1231 L415 839 L689 839 Q909 839 1031.5 735 Q1154 631 1154 440 Q1154 236 1023.5 118 Q893 0 668 0 L177 0 Z M415 650 L415 190 L630 190 Q761 190 832 252 Q903 314 903 425 Q903 650 634 650 L415 650 Z " />
<glyph glyph-name="uni0412" unicode="&#x412;" horiz-adv-x="1237" d="M177 0 L177 1434 L632 1434 Q840 1434 961.5 1343 Q1083 1252 1083 1106 Q1083 984 1014 894 Q945 804 823 766 L823 762 Q971 745 1059.5 652.5 Q1148 560 1148 412 Q1148 228 1003 114 Q858 0 637 0 L177 0 Z M414 1243 L414 835 L568 835 Q692 835 762.5 893.5 Q833 952 833 1059 Q833 1243 587 1243 L414 1243 Z M414 644 L414 190 L617 190 Q750 190 822.5 251.5 Q895 313 895 421 Q895 644 586 644 L414 644 Z " />
<glyph glyph-name="uni0413" unicode="&#x413;" horiz-adv-x="1003" d="M971 1228 L415 1228 L415 0 L177 0 L177 1434 L971 1434 L971 1228 Z " />
<glyph glyph-name="uni0414" unicode="&#x414;" horiz-adv-x="1495" d="M1424 -387 L1211 -387 L1211 0 L237 0 L237 -387 L25 -387 L25 202 L146 202 Q281 455 375 792.5 Q469 1130 481 1434 L1226 1434 L1226 202 L1424 202 L1424 -387 Z M988 202 L988 1229 L678 1229 Q664 1005 581 704 Q498 403 396 202 L988 202 Z " />
<glyph glyph-name="uni0415" unicode="&#x415;" horiz-adv-x="1060" d="M982 0 L177 0 L177 1434 L950 1434 L950 1232 L415 1232 L415 826 L908 826 L908 625 L415 625 L415 201 L982 201 L982 0 Z " />
<glyph glyph-name="uni0416" unicode="&#x416;" horiz-adv-x="1891" d="M1906 0 L1601 0 L1097 649 Q1076 677 1064 699 L1060 699 L1060 0 L830 0 L830 699 L826 699 Q813 674 793 649 L289 0 L-17 0 L591 746 L26 1434 L313 1434 L788 822 Q811 793 826 766 L830 766 L830 1434 L1060 1434 L1060 766 L1064 766 Q1077 791 1102 822 L1577 1434 L1863 1434 L1299 746 L1906 0 Z " />
<glyph glyph-name="uni0417" unicode="&#x417;" horiz-adv-x="1123" d="M85 56 L85 284 Q254 164 469 164 Q610 164 693.5 229.5 Q777 295 777 405 Q777 645 438 645 L273 645 L273 831 L428 831 Q572 831 651 891 Q730 951 730 1060 Q730 1154 663 1210.5 Q596 1267 479 1267 Q301 1267 132 1159 L132 1371 Q298 1458 515 1458 Q731 1458 855 1359.5 Q979 1261 979 1101 Q979 824 702 751 L702 747 Q850 730 937.5 637 Q1025 544 1025 407 Q1025 210 878 93 Q731 -24 476 -24 Q223 -24 85 56 Z " />
<glyph glyph-name="uni0418" unicode="&#x418;" horiz-adv-x="1572" d="M1393 0 L1164 0 L1164 955 Q1164 1084 1174 1137 L1168 1137 Q1151 1092 1126 1054 L438 0 L177 0 L177 1434 L407 1434 L407 522 Q407 365 399 317 L403 317 Q423 357 455 405 L1119 1434 L1393 1434 L1393 0 Z " />
<glyph glyph-name="uni0419" unicode="&#x419;" horiz-adv-x="1572" d="M1393 0 L1164 0 L1164 955 Q1164 1084 1174 1137 L1168 1137 Q1151 1092 1126 1054 L438 0 L177 0 L177 1434 L407 1434 L407 522 Q407 365 399 317 L403 317 Q423 357 455 405 L1119 1434 L1393 1434 L1393 0 Z M1185 1888 Q1169 1738 1061.5 1651.5 Q954 1565 792 1565 Q626 1565 521.5 1651.5 Q417 1738 407 1888 L600 1888 Q614 1706 795 1706 Q875 1706 927.5 1754 Q980 1802 992 1888 L1185 1888 Z " />
<glyph glyph-name="uni041A" unicode="&#x41a;" horiz-adv-x="1251" d="M1262 0 L952 0 L453 656 Q425 693 419 706 L415 706 L415 0 L177 0 L177 1434 L415 1434 L415 760 L419 760 Q431 782 453 809 L934 1434 L1219 1434 L656 746 L1262 0 Z " />
<glyph glyph-name="uni041B" unicode="&#x41b;" horiz-adv-x="1431" d="M1252 0 L1014 0 L1014 1229 L666 1229 Q593 710 551 495.5 Q509 281 466 179.5 Q423 78 349 28.5 Q275 -21 172 -21 Q84 -21 19 2 L19 205 Q67 180 126 180 Q187 180 240 251 Q293 322 348.5 620.5 Q404 919 471 1434 L1252 1434 L1252 0 Z " />
<glyph glyph-name="uni041C" unicode="&#x41c;" horiz-adv-x="1893" d="M1717 0 L1481 0 L1481 928 Q1481 1042 1495 1207 L1491 1207 Q1469 1113 1452 1072 L1024 0 L860 0 L431 1064 Q413 1111 393 1207 L389 1207 Q397 1121 397 926 L397 0 L177 0 L177 1434 L512 1434 L889 479 Q932 369 945 315 L950 315 Q987 428 1010 483 L1394 1434 L1717 1434 L1717 0 Z " />
<glyph glyph-name="uni041D" unicode="&#x41d;" horiz-adv-x="1506" d="M1329 0 L1090 0 L1090 622 L415 622 L415 0 L177 0 L177 1434 L415 1434 L415 831 L1090 831 L1090 1434 L1329 1434 L1329 0 Z " />
<glyph glyph-name="uni041E" unicode="&#x41e;" horiz-adv-x="1548" d="M768 -24 Q458 -24 271.5 177 Q85 378 85 700 Q85 1046 275 1252 Q465 1458 791 1458 Q1093 1458 1277.5 1258 Q1462 1058 1462 735 Q1462 384 1273 180 Q1084 -24 768 -24 Z M779 1249 Q582 1249 458.5 1102 Q335 955 335 715 Q335 476 455 330 Q575 184 769 184 Q975 184 1094 323 Q1213 462 1213 712 Q1213 969 1097.5 1109 Q982 1249 779 1249 Z " />
<glyph glyph-name="uni041F" unicode="&#x41f;" horiz-adv-x="1508" d="M1334 0 L1095 0 L1095 1221 L415 1221 L415 0 L177 0 L177 1434 L1334 1434 L1334 0 Z " />
<glyph glyph-name="uni0420" unicode="&#x420;" horiz-adv-x="1197" d="M414 520 L414 0 L177 0 L177 1434 L612 1434 Q859 1434 995 1319 Q1131 1204 1131 995 Q1131 786 989 653 Q847 520 605 520 L414 520 Z M414 1238 L414 714 L568 714 Q721 714 801 785 Q881 856 881 985 Q881 1238 587 1238 L414 1238 Z " />
<glyph glyph-name="uni0421" unicode="&#x421;" horiz-adv-x="1272" d="M1177 60 Q1015 -24 774 -24 Q462 -24 274 173 Q86 370 86 690 Q86 1034 297.5 1246 Q509 1458 832 1458 Q1040 1458 1177 1399 L1177 1163 Q1032 1249 857 1249 Q624 1249 479.5 1100 Q335 951 335 702 Q335 465 470 324.5 Q605 184 825 184 Q1028 184 1177 280 L1177 60 Z " />
<glyph glyph-name="uni0422" unicode="&#x422;" horiz-adv-x="1130" d="M1097 1232 L685 1232 L685 0 L447 0 L447 1232 L36 1232 L36 1434 L1097 1434 L1097 1232 Z " />
<glyph glyph-name="uni0423" unicode="&#x423;" horiz-adv-x="1206" d="M1216 1434 L770 441 Q646 170 530.5 72.5 Q415 -25 278 -25 Q169 -25 96 6 L96 233 Q183 181 263 181 Q334 181 393.5 235 Q453 289 522 425 L43 1434 L314 1434 L610 754 Q619 733 645 650 L647 650 Q650 660 685 754 L964 1434 L1216 1434 Z " />
<glyph glyph-name="uni0424" unicode="&#x424;" horiz-adv-x="1591" d="M914 174 L914 -4 L687 -4 L687 174 L659 174 Q409 174 246 339.5 Q83 505 83 747 Q83 979 242 1137.5 Q401 1296 649 1296 L687 1296 L687 1469 L914 1469 L914 1296 L944 1296 Q1198 1296 1357.5 1140 Q1517 984 1517 747 Q1517 508 1354 341 Q1191 174 941 174 L914 174 Z M914 1110 L914 365 L937 365 Q1089 365 1180 468 Q1271 571 1271 743 Q1271 908 1180 1009 Q1089 1110 935 1110 L914 1110 Z M687 365 L687 1110 L665 1110 Q514 1110 421.5 1007.5 Q329 905 329 743 Q329 570 420.5 467.5 Q512 365 663 365 L687 365 Z " />
<glyph glyph-name="uni0425" unicode="&#x425;" horiz-adv-x="1268" d="M1249 0 L964 0 L670 526 Q657 550 641 594 L637 594 Q628 572 607 526 L304 0 L17 0 L487 721 L55 1434 L346 1434 L605 950 Q630 902 650 854 L653 854 Q682 917 703 954 L972 1434 L1240 1434 L798 723 L1249 0 Z " />
<glyph glyph-name="uni0426" unicode="&#x426;" horiz-adv-x="1593" d="M1526 -388 L1313 -388 L1313 0 L177 0 L177 1434 L415 1434 L415 208 L1090 208 L1090 1434 L1329 1434 L1329 208 L1526 208 L1526 -388 Z " />
<glyph glyph-name="uni0427" unicode="&#x427;" horiz-adv-x="1414" d="M1226 0 L988 0 L988 611 Q763 495 570 495 Q371 495 262.5 595.5 Q154 696 154 878 L154 1434 L391 1434 L391 921 Q391 698 619 698 Q781 698 988 802 L988 1434 L1226 1434 L1226 0 Z " />
<glyph glyph-name="uni0428" unicode="&#x428;" horiz-adv-x="2001" d="M1822 0 L177 0 L177 1434 L415 1434 L415 208 L881 208 L881 1434 L1118 1434 L1118 208 L1584 208 L1584 1434 L1822 1434 L1822 0 Z " />
<glyph glyph-name="uni0429" unicode="&#x429;" horiz-adv-x="2087" d="M2020 -388 L1816 -388 L1816 0 L177 0 L177 1434 L415 1434 L415 208 L881 208 L881 1434 L1118 1434 L1118 208 L1584 208 L1584 1434 L1822 1434 L1822 208 L2020 208 L2020 -388 Z " />
<glyph glyph-name="uni042A" unicode="&#x42a;" horiz-adv-x="1493" d="M446 0 L446 1230 L36 1230 L36 1434 L685 1434 L685 857 L930 857 Q1157 857 1284 751.5 Q1411 646 1411 449 Q1411 241 1277.5 120.5 Q1144 0 914 0 L446 0 Z M685 664 L685 194 L890 194 Q1019 194 1090 257.5 Q1161 321 1161 433 Q1161 664 890 664 L685 664 Z " />
<glyph glyph-name="uni042B" unicode="&#x42b;" horiz-adv-x="1710" d="M1532 0 L1295 0 L1295 1434 L1532 1434 L1532 0 Z M177 0 L177 1434 L414 1434 L414 857 L659 857 Q887 857 1014 751 Q1141 645 1141 449 Q1141 241 1007.5 120.5 Q874 0 644 0 L177 0 Z M414 664 L414 194 L620 194 Q750 194 820.5 257 Q891 320 891 433 Q891 664 620 664 L414 664 Z " />
<glyph glyph-name="uni042C" unicode="&#x42c;" horiz-adv-x="1223" d="M177 0 L177 1434 L414 1434 L414 857 L659 857 Q887 857 1014 751 Q1141 645 1141 449 Q1141 241 1007.5 120.5 Q874 0 644 0 L177 0 Z M414 664 L414 194 L620 194 Q750 194 820.5 257 Q891 320 891 433 Q891 664 613 664 L414 664 Z " />
<glyph glyph-name="uni042D" unicode="&#x42d;" horiz-adv-x="1269" d="M96 55 L96 272 Q248 177 466 177 Q662 177 786.5 292.5 Q911 408 926 614 L328 614 L328 812 L926 812 Q902 1022 779 1138.5 Q656 1255 459 1255 Q259 1255 96 1170 L96 1398 Q253 1458 473 1458 Q789 1458 986 1252.5 Q1183 1047 1183 703 Q1183 381 993.5 178.5 Q804 -24 494 -24 Q258 -24 96 55 Z " />
<glyph glyph-name="uni042E" unicode="&#x42e;" horiz-adv-x="2128" d="M723 635 L414 635 L414 0 L177 0 L177 1434 L414 1434 L414 840 L729 840 Q759 1131 935.5 1294.5 Q1112 1458 1395 1458 Q1689 1458 1865 1259.5 Q2041 1061 2041 731 Q2041 378 1861 177 Q1681 -24 1371 -24 Q1082 -24 906.5 156.5 Q731 337 723 635 Z M1390 1249 Q1193 1249 1081.5 1108 Q970 967 970 720 Q970 465 1076 324.5 Q1182 184 1374 184 Q1573 184 1682 321.5 Q1791 459 1791 710 Q1791 971 1686 1110 Q1581 1249 1390 1249 Z " />
<glyph glyph-name="uni042F" unicode="&#x42f;" horiz-adv-x="1255" d="M1077 0 L839 0 L839 586 L685 586 Q626 586 581.5 553 Q537 520 486 406 L316 0 L38 0 L249 456 Q274 509 325.5 567.5 Q377 626 445 651 L445 655 Q297 686 214.5 785.5 Q132 885 132 1027 Q132 1211 269 1322.5 Q406 1434 629 1434 L1077 1434 L1077 0 Z M839 778 L839 1239 L640 1239 Q518 1239 451 1180 Q384 1121 384 1013 Q384 904 455.5 841 Q527 778 648 778 L839 778 Z " />
<glyph glyph-name="uni0430" unicode="&#x430;" horiz-adv-x="1069" d="M937 0 L712 0 L712 160 L708 160 Q602 -24 397 -24 Q246 -24 160.5 58 Q75 140 75 275 Q75 565 409 613 L713 656 Q713 875 505 875 Q322 875 175 749 L175 952 Q337 1048 549 1048 Q937 1048 937 666 L937 0 Z M713 503 L498 473 Q398 460 347.5 424.5 Q297 389 297 300 Q297 235 343.5 193.5 Q390 152 468 152 Q574 152 643.5 226.5 Q713 301 713 414 L713 503 Z " />
<glyph glyph-name="uni0431" unicode="&#x431;" horiz-adv-x="1213" d="M994 1533 L994 1336 Q954 1309 865 1296 Q645 1265 557.5 1236.5 Q470 1208 414 1115.5 Q358 1023 342 845 L346 845 Q460 999 672 999 Q877 999 1002 862.5 Q1127 726 1127 502 Q1127 264 988.5 120 Q850 -24 615 -24 Q367 -24 233.5 145 Q100 314 100 628 Q100 870 149 1038 Q198 1206 285 1291 Q372 1376 478 1408 Q584 1440 842 1483 Q944 1505 994 1533 Z M339 656 L339 528 Q340 457 360 387.5 Q380 318 417 265 Q454 212 505 186 Q556 160 621 160 Q741 160 815.5 251.5 Q890 343 890 486 Q890 639 814.5 729.5 Q739 820 610 820 Q430 820 339 656 Z " />
<glyph glyph-name="uni0432" unicode="&#x432;" horiz-adv-x="1131" d="M151 0 L151 1024 L640 1024 Q805 1024 901 957 Q997 890 997 774 Q997 578 796 536 Q1035 506 1035 300 Q1035 173 934 86.5 Q833 0 683 0 L151 0 Z M383 860 L383 605 L588 605 Q762 605 762 740 Q762 860 610 860 L383 860 Z M383 444 L383 165 L621 165 Q799 165 799 309 Q799 444 606 444 L383 444 Z " />
<glyph glyph-name="uni0433" unicode="&#x433;" horiz-adv-x="809" d="M765 839 L384 839 L384 0 L151 0 L151 1024 L765 1024 L765 839 Z " />
<glyph glyph-name="uni0434" unicode="&#x434;" horiz-adv-x="1187" d="M1131 -373 L938 -373 L938 0 L209 0 L209 -373 L18 -373 L18 177 L109 177 Q354 539 358 1024 L974 1024 L974 177 L1131 177 L1131 -373 Z M742 177 L742 848 L547 848 Q523 476 343 177 L742 177 Z " />
<glyph glyph-name="uni0435" unicode="&#x435;" horiz-adv-x="1088" d="M1018 449 L320 449 Q324 307 407.5 230 Q491 153 637 153 Q801 153 938 251 L938 64 Q798 -24 568 -24 Q342 -24 213.5 115.5 Q85 255 85 508 Q85 747 226.5 897.5 Q368 1048 578 1048 Q788 1048 903 913 Q1018 778 1018 538 L1018 449 Z M794 613 Q793 738 735 807.5 Q677 877 575 877 Q475 877 405.5 804 Q336 731 320 613 L794 613 Z " />
<glyph glyph-name="uni0436" unicode="&#x436;" horiz-adv-x="1622" d="M1618 0 L1328 0 L928 509 L924 509 L924 0 L698 0 L698 509 L695 509 L294 0 L6 0 L460 532 L27 1024 L309 1024 L694 542 L698 542 L698 1024 L924 1024 L924 542 L928 542 L1313 1024 L1595 1024 L1161 532 L1618 0 Z " />
<glyph glyph-name="uni0437" unicode="&#x437;" horiz-adv-x="945" d="M80 28 L80 219 Q210 147 384 147 Q629 147 629 295 Q629 443 340 443 L242 443 L242 607 L336 607 Q593 607 593 748 Q593 807 538.5 842 Q484 877 390 877 Q247 877 104 809 L104 991 Q277 1049 422 1049 Q829 1049 829 773 Q829 684 770.5 620 Q712 556 606 535 L606 530 Q723 521 794 454 Q865 387 865 284 Q865 144 743 61 Q621 -22 407 -22 Q193 -22 80 28 Z " />
<glyph glyph-name="uni0438" unicode="&#x438;" horiz-adv-x="1233" d="M1081 0 L871 0 L871 751 Q851 711 810 640 L379 0 L151 0 L151 1024 L364 1024 L364 288 Q375 314 411 378 L848 1024 L1081 1024 L1081 0 Z " />
<glyph glyph-name="uni0439" unicode="&#x439;" horiz-adv-x="1233" d="M1081 0 L871 0 L871 751 Q851 711 810 640 L379 0 L151 0 L151 1024 L364 1024 L364 288 Q375 314 411 378 L848 1024 L1081 1024 L1081 0 Z M1014 1517 Q998 1367 890.5 1280.5 Q783 1194 621 1194 Q455 1194 350.5 1280.5 Q246 1367 236 1517 L429 1517 Q443 1335 624 1335 Q704 1335 756.5 1383 Q809 1431 821 1517 L1014 1517 Z " />
<glyph glyph-name="uni043A" unicode="&#x43a;" horiz-adv-x="1075" d="M1081 0 L786 0 L388 499 L384 499 L384 0 L151 0 L151 1024 L384 1024 L384 553 L388 553 L764 1024 L1048 1024 L622 536 L1081 0 Z " />
<glyph glyph-name="uni043B" unicode="&#x43b;" horiz-adv-x="1149" d="M998 0 L765 0 L765 847 L556 847 Q512 372 405.5 179.5 Q299 -13 119 -13 Q59 -13 16 4 L16 177 Q51 160 91 160 Q306 160 367 1024 L998 1024 L998 0 Z " />
<glyph glyph-name="uni043C" unicode="&#x43c;" horiz-adv-x="1507" d="M1356 0 L1134 0 L1134 820 Q1114 758 1073 637 L842 0 L636 0 L401 639 Q382 691 340 822 L340 0 L151 0 L151 1024 L453 1024 L688 392 Q713 323 752 201 L816 388 L1046 1024 L1356 1024 L1356 0 Z " />
<glyph glyph-name="uni043D" unicode="&#x43d;" horiz-adv-x="1214" d="M1063 0 L830 0 L830 448 L384 448 L384 0 L151 0 L151 1024 L384 1024 L384 622 L830 622 L830 1024 L1063 1024 L1063 0 Z " />
<glyph glyph-name="uni043E" unicode="&#x43e;" horiz-adv-x="1223" d="M605 -24 Q368 -24 226.5 119.5 Q85 263 85 500 Q85 758 232.5 903 Q380 1048 630 1048 Q870 1048 1004 907 Q1138 766 1138 516 Q1138 271 993.5 123.5 Q849 -24 605 -24 Z M616 863 Q480 863 401 768 Q322 673 322 506 Q322 345 402 252.5 Q482 160 616 160 Q753 160 826.5 251 Q900 342 900 510 Q900 679 826.5 771 Q753 863 616 863 Z " />
<glyph glyph-name="uni043F" unicode="&#x43f;" horiz-adv-x="1214" d="M1063 0 L830 0 L830 847 L384 847 L384 0 L151 0 L151 1024 L1063 1024 L1063 0 Z " />
<glyph glyph-name="uni0440" unicode="&#x440;" horiz-adv-x="1234" d="M387 151 L383 151 L383 -471 L151 -471 L151 1024 L383 1024 L383 844 L387 844 Q506 1048 735 1048 Q930 1048 1039 911 Q1148 774 1148 543 Q1148 287 1025 133 Q902 -21 689 -21 Q493 -21 387 151 Z M381 555 L381 428 Q381 316 452.5 238 Q524 160 634 160 Q763 160 836.5 260.5 Q910 361 910 541 Q910 692 841.5 777.5 Q773 863 656 863 Q532 863 456.5 775 Q381 687 381 555 Z " />
<glyph glyph-name="uni0441" unicode="&#x441;" horiz-adv-x="963" d="M884 47 Q761 -24 593 -24 Q365 -24 225 118.5 Q85 261 85 488 Q85 741 235.5 894.5 Q386 1048 638 1048 Q778 1048 885 999 L885 783 Q778 863 657 863 Q510 863 416 763.5 Q322 664 322 503 Q322 344 410.5 252 Q499 160 648 160 Q773 160 884 249 L884 47 Z " />
<glyph glyph-name="uni0442" unicode="&#x442;" horiz-adv-x="881" d="M849 839 L557 839 L557 0 L324 0 L324 839 L30 839 L30 1024 L849 1024 L849 839 Z " />
<glyph glyph-name="uni0443" unicode="&#x443;" horiz-adv-x="1041" d="M1038 1024 L576 -164 Q432 -482 172 -482 Q99 -482 50 -469 L50 -276 Q105 -294 150 -294 Q280 -294 344 -166 L413 2 L6 1024 L263 1024 L507 280 Q511 266 525 206 L530 206 Q535 229 548 278 L804 1024 L1038 1024 Z " />
<glyph glyph-name="uni0444" unicode="&#x444;" horiz-adv-x="1495" d="M854 -18 L854 -478 L640 -478 L640 -18 L606 -18 Q372 -18 227.5 126 Q83 270 83 503 Q83 748 229 895 Q375 1042 615 1042 L640 1042 L640 1461 L854 1461 L854 1042 L877 1042 Q1119 1042 1265 896 Q1411 750 1411 503 Q1411 270 1267.5 126 Q1124 -18 891 -18 L854 -18 Z M854 866 L854 157 L873 157 Q1010 157 1092 251 Q1174 345 1174 506 Q1174 675 1093.5 770.5 Q1013 866 878 866 L854 866 Z M640 157 L640 866 L619 866 Q484 866 402 770 Q320 674 320 506 Q320 347 402 252 Q484 157 622 157 L640 157 Z " />
<glyph glyph-name="uni0445" unicode="&#x445;" horiz-adv-x="1026" d="M1007 1024 L666 506 L1003 0 L734 0 L554 317 Q537 346 514 391 L510 391 Q506 382 468 317 L285 0 L17 0 L365 502 L35 1024 L305 1024 L482 691 Q502 654 521 615 L524 615 L753 1024 L1007 1024 Z " />
<glyph glyph-name="uni0446" unicode="&#x446;" horiz-adv-x="1276" d="M1220 -373 L1026 -373 L1026 0 L151 0 L151 1024 L384 1024 L384 177 L830 177 L830 1024 L1063 1024 L1063 177 L1220 177 L1220 -373 Z " />
<glyph glyph-name="uni0447" unicode="&#x447;" horiz-adv-x="1190" d="M1038 0 L806 0 L806 386 Q631 291 484 291 Q138 291 138 667 L138 1024 L365 1024 L365 699 Q365 482 535 482 Q661 482 806 557 L806 1024 L1038 1024 L1038 0 Z " />
<glyph glyph-name="uni0448" unicode="&#x448;" horiz-adv-x="1695" d="M1544 0 L151 0 L151 1024 L384 1024 L384 177 L731 177 L731 1024 L964 1024 L964 177 L1311 177 L1311 1024 L1544 1024 L1544 0 Z " />
<glyph glyph-name="uni0449" unicode="&#x449;" horiz-adv-x="1759" d="M1702 -373 L1508 -373 L1508 0 L151 0 L151 1024 L384 1024 L384 177 L731 177 L731 1024 L964 1024 L964 177 L1312 177 L1312 1024 L1545 1024 L1545 177 L1702 177 L1702 -373 Z " />
<glyph glyph-name="uni044A" unicode="&#x44a;" horiz-adv-x="1263" d="M329 0 L329 839 L28 839 L28 1024 L563 1024 L563 646 L843 646 Q1002 646 1095.5 563 Q1189 480 1189 330 Q1189 177 1086.5 88.5 Q984 0 828 0 L329 0 Z M563 479 L563 167 L767 167 Q951 167 951 328 Q951 479 768 479 L563 479 Z " />
<glyph glyph-name="uni044B" unicode="&#x44b;" horiz-adv-x="1550" d="M1398 0 L1166 0 L1166 1024 L1398 1024 L1398 0 Z M151 0 L151 1024 L383 1024 L383 646 L663 646 Q822 646 916 562.5 Q1010 479 1010 330 Q1010 177 912.5 88.5 Q815 0 667 0 L151 0 Z M383 479 L383 167 L595 167 Q771 167 771 328 Q771 479 593 479 L383 479 Z " />
<glyph glyph-name="uni044C" unicode="&#x44c;" horiz-adv-x="1083" d="M151 0 L151 1024 L383 1024 L383 646 L656 646 Q819 646 914.5 562.5 Q1010 479 1010 330 Q1010 177 914.5 88.5 Q819 0 673 0 L151 0 Z M383 479 L383 167 L595 167 Q771 167 771 328 Q771 479 593 479 L383 479 Z " />
<glyph glyph-name="uni044D" unicode="&#x44d;" horiz-adv-x="962" d="M83 44 L83 230 Q195 150 340 150 Q473 150 555 226 Q637 302 644 431 L233 431 L233 592 L645 592 Q634 723 552 797.5 Q470 872 334 872 Q195 872 93 798 L93 993 Q205 1048 356 1048 Q609 1048 744.5 905.5 Q880 763 880 504 Q880 263 741 119.5 Q602 -24 367 -24 Q203 -24 83 44 Z " />
<glyph glyph-name="uni044E" unicode="&#x44e;" horiz-adv-x="1730" d="M638 444 L384 444 L384 0 L151 0 L151 1024 L384 1024 L384 622 L643 622 Q670 823 804.5 935.5 Q939 1048 1149 1048 Q1384 1048 1513.5 911 Q1643 774 1643 520 Q1643 269 1506.5 122.5 Q1370 -24 1130 -24 Q903 -24 776 99 Q649 222 638 444 Z M1138 864 Q872 864 872 513 Q872 160 1142 160 Q1406 160 1406 514 Q1406 864 1138 864 Z " />
</font>
</svg>
