<?xml version="1.0" encoding="UTF-8"?>
<svg xmlns="http://www.w3.org/2000/svg" xmlns:xlink="http://www.w3.org/1999/xlink" version="1.2" >
<font id="Segoe UI Italic">
<font-face  font-family="Segoe UI" units-per-em="2048" ascent="1491" descent="-431" font-style="italic" font-weight="400" font-stretch="normal" slope="-12" cap-height="1434" x-height="1024" underline-position="-178" underline-thickness="119" />
<missing-glyph  horiz-adv-x="1322" d="M166 0 L166 1398 L1156 1398 L1156 0 L166 0 Z M314 148 L1008 148 L1008 1250 L314 1250 L314 148 Z " />
<glyph glyph-name="null" unicode="&#xd;" d="" />
<glyph glyph-name="space" unicode="&#x20;" horiz-adv-x="563" d="" />
<glyph glyph-name="exclam" unicode="&#x21;" horiz-adv-x="653" d="M367 403 L231 403 L432 1434 L604 1434 L367 403 Z M354 92 Q354 69 345 49 Q336 29 321 14 Q306 -1 286 -9.5 Q266 -18 244 -18 Q221 -18 200.5 -9.5 Q180 -1 165 14 Q150 29 141.5 49 Q133 69 133 92 Q133 115 141.5 135.5 Q150 156 165 171 Q180 186 200.5 194.5 Q221 203 244 203 Q266 203 286 194.5 Q306 186 321 171 Q336 156 345 135.5 Q354 115 354 92 Z " />
<glyph glyph-name="quotedbl" unicode="&#x22;" horiz-adv-x="766" d="M684 987 L565 987 L557 1434 L694 1434 L684 987 Z M401 987 L285 987 L274 1434 L412 1434 L401 987 Z " />
<glyph glyph-name="numbersign" unicode="&#x23;" horiz-adv-x="1210" d="M1202 926 L942 926 L879 627 L1159 627 L1133 520 L858 520 L770 123 L643 123 L729 520 L479 520 L395 123 L270 123 L354 520 L92 520 L113 627 L377 627 L438 924 L162 924 L182 1032 L459 1032 L543 1434 L670 1434 L588 1032 L838 1032 L924 1434 L1047 1434 L965 1032 L1225 1032 L1202 926 Z M565 926 L500 627 L754 627 L817 926 L565 926 Z " />
<glyph glyph-name="dollar" unicode="&#x24;" horiz-adv-x="1104" d="M1018 1233 Q997 1245 969 1257.5 Q941 1270 908.5 1281 Q876 1292 841.5 1300 Q807 1308 774 1311 L655 758 Q708 719 758 678 Q808 637 846.5 591.5 Q885 546 908.5 494 Q932 442 932 381 Q932 314 910 245.5 Q888 177 836.5 120.5 Q785 64 700.5 26 Q616 -12 492 -16 L449 -209 L346 -209 L387 -14 Q345 -12 299 -4 Q253 4 211 15 Q169 26 133 38.5 Q97 51 74 63 L102 225 Q130 207 167.5 190 Q205 173 247 159 Q289 145 332 135 Q375 125 414 121 L528 651 Q467 695 415 737.5 Q363 780 325.5 827.5 Q288 875 267 932 Q246 989 246 1061 Q246 1143 278.5 1213.5 Q311 1284 370 1336 Q429 1388 512.5 1418.5 Q596 1449 698 1450 L733 1616 L838 1616 L801 1446 Q870 1441 936 1423 Q1002 1405 1047 1386 L1018 1233 Z M668 1313 Q605 1309 557.5 1287 Q510 1265 478 1230.5 Q446 1196 430 1153 Q414 1110 414 1065 Q414 1027 425 994 Q436 961 456 932 Q476 903 503.5 877 Q531 851 565 825 L668 1313 Z M764 365 Q764 394 756 420.5 Q748 447 731 473.5 Q714 500 686 527.5 Q658 555 618 586 L522 121 Q587 126 632.5 148.5 Q678 171 707.5 204.5 Q737 238 750.5 279.5 Q764 321 764 365 Z " />
<glyph glyph-name="percent" unicode="&#x25;" horiz-adv-x="1686" d="M1591 428 Q1591 344 1563 263.5 Q1535 183 1484.5 120 Q1434 57 1362.5 18.5 Q1291 -20 1204 -20 Q1117 -20 1060.5 9.5 Q1004 39 971 83 Q938 127 925.5 179 Q913 231 913 276 Q913 357 941 436.5 Q969 516 1020.5 579.5 Q1072 643 1145 682 Q1218 721 1309 721 Q1373 721 1425 701.5 Q1477 682 1514 644.5 Q1551 607 1571 552.5 Q1591 498 1591 428 Z M338 0 L190 0 L1419 1434 L1567 1434 L338 0 Z M848 1161 Q848 1077 820 996.5 Q792 916 741 853 Q690 790 619 751.5 Q548 713 461 713 Q403 713 358.5 726.5 Q314 740 281.5 763.5 Q249 787 227.5 817 Q206 847 193.5 880 Q181 913 175.5 946.5 Q170 980 170 1010 Q170 1064 182.5 1117.5 Q195 1171 219 1220.5 Q243 1270 277.5 1312.5 Q312 1355 355.5 1386.5 Q399 1418 452 1436 Q505 1454 565 1454 Q629 1454 681 1434.5 Q733 1415 770 1377.5 Q807 1340 827.5 1285.5 Q848 1231 848 1161 Z M1456 424 Q1456 460 1448 493.5 Q1440 527 1422 553 Q1404 579 1375 594.5 Q1346 610 1305 610 Q1244 610 1196.5 578 Q1149 546 1116 496.5 Q1083 447 1066 388 Q1049 329 1049 274 Q1049 239 1058 205.5 Q1067 172 1086 146.5 Q1105 121 1135 105.5 Q1165 90 1208 90 Q1264 90 1309.5 118.5 Q1355 147 1387.5 193.5 Q1420 240 1438 300 Q1456 360 1456 424 Z M713 1157 Q713 1193 705 1226.5 Q697 1260 679 1286 Q661 1312 632 1327.5 Q603 1343 561 1343 Q500 1343 452.5 1311 Q405 1279 372 1230 Q339 1181 322 1121.5 Q305 1062 305 1008 Q305 973 314 940 Q323 907 342 881 Q361 855 391.5 839 Q422 823 465 823 Q520 823 565.5 851.5 Q611 880 644 926.5 Q677 973 695 1033 Q713 1093 713 1157 Z " />
<glyph glyph-name="ampersand" unicode="&#x26;" horiz-adv-x="1576" d="M1336 -23 Q1279 -23 1235 -6 Q1191 11 1155 42 Q1119 73 1089.5 116 Q1060 159 1033 211 Q983 166 924 123.5 Q865 81 796 48.5 Q727 16 647.5 -3.5 Q568 -23 476 -23 Q373 -23 293.5 5.5 Q214 34 160 84 Q106 134 78.5 202 Q51 270 51 350 Q51 442 83 516.5 Q115 591 173 650.5 Q231 710 311.5 757 Q392 804 489 841 Q468 859 446.5 885.5 Q425 912 408 945 Q391 978 380 1016.5 Q369 1055 369 1098 Q369 1182 402.5 1248.5 Q436 1315 493 1361.5 Q550 1408 625.5 1433 Q701 1458 785 1458 Q860 1458 922 1437.5 Q984 1417 1028.5 1381 Q1073 1345 1097.5 1296 Q1122 1247 1122 1189 Q1122 1114 1098 1058.5 Q1074 1003 1028.5 960 Q983 917 918.5 883 Q854 849 773 817 Q832 786 879.5 744.5 Q927 703 965.5 655 Q1004 607 1035 554.5 Q1066 502 1091 448 Q1228 594 1299 760.5 Q1370 927 1378 1121 L1537 1121 Q1533 1002 1501 891 Q1469 780 1416.5 678.5 Q1364 577 1295 485.5 Q1226 394 1149 314 Q1173 266 1195 231 Q1217 196 1241 173.5 Q1265 151 1294 140 Q1323 129 1360 129 Q1390 129 1422 136 Q1454 143 1491 157 L1458 2 Q1435 -9 1404.5 -16 Q1374 -23 1336 -23 Z M484 119 Q563 119 631.5 137 Q700 155 761 185.5 Q822 216 875.5 256.5 Q929 297 978 341 Q942 426 905 489.5 Q868 553 825 602 Q782 651 730 688.5 Q678 726 612 757 Q540 733 470 699.5 Q400 666 345 618.5 Q290 571 256.5 507.5 Q223 444 223 360 Q223 304 241.5 259.5 Q260 215 294.5 183.5 Q329 152 377 135.5 Q425 119 484 119 Z M963 1169 Q963 1207 948 1236 Q933 1265 907.5 1285.5 Q882 1306 848 1316.5 Q814 1327 776 1327 Q719 1327 673 1310 Q627 1293 595 1262.5 Q563 1232 545.5 1190.5 Q528 1149 528 1101 Q528 1030 562.5 976.5 Q597 923 648 894 Q709 915 765.5 939.5 Q822 964 866 996.5 Q910 1029 936.5 1071 Q963 1113 963 1169 Z " />
<glyph glyph-name="quotesingle" unicode="&#x27;" horiz-adv-x="463" d="M393 987 L279 987 L268 1434 L403 1434 L393 987 Z " />
<glyph glyph-name="parenleft" unicode="&#x28;" horiz-adv-x="623" d="M813 1434 Q689 1312 589.5 1182 Q490 1052 420 913 Q350 774 312 624.5 Q274 475 274 313 Q274 233 284.5 151.5 Q295 70 316 -8.5 Q337 -87 367 -161 Q397 -235 436 -299 L295 -299 Q253 -233 221.5 -158.5 Q190 -84 169 -6 Q148 72 137.5 151 Q127 230 127 305 Q127 478 164 631.5 Q201 785 269 924 Q337 1063 434.5 1189.5 Q532 1316 653 1434 L813 1434 Z " />
<glyph glyph-name="parenright" unicode="&#x29;" horiz-adv-x="623" d="M504 829 Q504 657 467 503 Q430 349 361.5 210.5 Q293 72 195.5 -54.5 Q98 -181 -23 -299 L-184 -299 Q-60 -177 40 -47.5 Q140 82 210 221 Q280 360 318 509.5 Q356 659 356 821 Q356 901 345.5 982 Q335 1063 314.5 1142 Q294 1221 264 1295 Q234 1369 195 1434 L334 1434 Q376 1367 408 1292 Q440 1217 461 1139 Q482 1061 493 982.5 Q504 904 504 829 Z " />
<glyph glyph-name="asterisk" unicode="&#x2a;" horiz-adv-x="856" d="M600 1049 L791 805 L680 729 L524 993 L367 729 L256 805 L449 1049 L172 1104 L215 1229 L477 1130 L455 1434 L592 1434 L569 1130 L831 1229 L874 1104 L600 1049 Z " />
<glyph glyph-name="plus" unicode="&#x2b;" horiz-adv-x="1403" d="M793 530 L793 127 L662 127 L662 530 L256 530 L256 664 L662 664 L662 1067 L793 1067 L793 664 L1196 664 L1196 530 L793 530 Z " />
<glyph glyph-name="comma" unicode="&#x2c;" horiz-adv-x="446" d="M51 -264 L-78 -264 L123 227 L287 227 L51 -264 Z " />
<glyph glyph-name="&amp;#x2d;" unicode="&#x2d;" horiz-adv-x="819" d="M678 506 L131 506 L160 635 L707 635 L678 506 Z " />
<glyph glyph-name="&amp;#x2010;" unicode="&#x2010;" horiz-adv-x="819" d="M678 506 L131 506 L160 635 L707 635 L678 506 Z " />
<glyph glyph-name="period" unicode="&#x2e;" horiz-adv-x="446" d="M244 88 Q244 65 235.5 45 Q227 25 212 10 Q197 -5 176.5 -14 Q156 -23 133 -23 Q110 -23 90 -14 Q70 -5 55 10 Q40 25 31.5 45 Q23 65 23 88 Q23 111 31.5 131.5 Q40 152 55 167 Q70 182 90 190.5 Q110 199 133 199 Q156 199 176.5 190.5 Q197 182 212 167 Q227 152 235.5 131.5 Q244 111 244 88 Z " />
<glyph glyph-name="slash" unicode="&#x2f;" horiz-adv-x="811" d="M4 -238 L-164 -238 L877 1434 L1044 1434 L4 -238 Z " />
<glyph glyph-name="zero" unicode="0" horiz-adv-x="1104" d="M1098 1034 Q1098 959 1091 877.5 Q1084 796 1069 713 Q1054 630 1030.5 548.5 Q1007 467 974 391 Q941 315 898.5 247.5 Q856 180 803 125 Q659 -25 457 -25 Q376 -25 308.5 6.5 Q241 38 193 98.5 Q145 159 118.5 247.5 Q92 336 92 451 Q92 562 110 680.5 Q128 799 165 911.5 Q202 1024 257 1124 Q312 1224 387 1300 Q458 1375 546 1416.5 Q634 1458 745 1458 Q825 1458 890 1431 Q955 1404 1001.5 1350.5 Q1048 1297 1073 1218 Q1098 1139 1098 1034 Z M932 1020 Q932 1160 880 1239.5 Q828 1319 729 1319 Q670 1319 618 1293.5 Q566 1268 516 1217 Q477 1176 442.5 1119.5 Q408 1063 379.5 997.5 Q351 932 329 860 Q307 788 291.5 716 Q276 644 268 575 Q260 506 260 446 Q260 359 276.5 296.5 Q293 234 322 193.5 Q351 153 390.5 134 Q430 115 475 115 Q529 115 581 139 Q633 163 678 211 Q731 268 777 358.5 Q823 449 857.5 558 Q892 667 912 786.5 Q932 906 932 1020 Z " />
<glyph glyph-name="one" unicode="1" horiz-adv-x="1104" d="M51 0 L84 143 L408 143 L643 1249 L289 1153 L324 1311 L850 1458 L569 143 L893 143 L862 0 L51 0 Z " />
<glyph glyph-name="two" unicode="2" horiz-adv-x="1104" d="M1100 1130 Q1100 1044 1070.5 967.5 Q1041 891 985.5 816.5 Q930 742 851 667 Q772 592 672 510 L233 152 L233 147 L887 147 L856 0 L-10 0 L20 143 L580 612 Q670 688 736 750.5 Q802 813 845.5 870.5 Q889 928 910.5 985.5 Q932 1043 932 1110 Q932 1152 918 1190 Q904 1228 874.5 1256.5 Q845 1285 799.5 1302 Q754 1319 692 1319 Q647 1319 598.5 1308 Q550 1297 501.5 1278 Q453 1259 407.5 1235 Q362 1211 324 1184 L362 1362 Q391 1378 428.5 1395 Q466 1412 511.5 1426 Q557 1440 609 1449 Q661 1458 717 1458 Q818 1458 890.5 1431 Q963 1404 1009.5 1359 Q1056 1314 1078 1254.5 Q1100 1195 1100 1130 Z " />
<glyph glyph-name="three" unicode="3" horiz-adv-x="1104" d="M1051 1137 Q1051 1065 1029 1000.5 Q1007 936 960 884 Q913 832 840 794.5 Q767 757 666 739 L666 735 Q726 726 776 699 Q826 672 861.5 631 Q897 590 916.5 537 Q936 484 936 422 Q936 331 903 250 Q870 169 802.5 108 Q735 47 633.5 11 Q532 -25 395 -25 Q340 -25 287 -17.5 Q234 -10 187.5 1.5 Q141 13 102 27.5 Q63 42 35 57 L70 213 Q97 195 134.5 177 Q172 159 215.5 145.5 Q259 132 306.5 123.5 Q354 115 401 115 Q506 115 577 140.5 Q648 166 691 207.5 Q734 249 752 302.5 Q770 356 770 412 Q770 531 682 600.5 Q594 670 416 670 L307 670 L338 811 L457 811 Q561 811 640.5 832 Q720 853 774 891.5 Q828 930 855.5 985 Q883 1040 883 1108 Q883 1151 869 1189.5 Q855 1228 825.5 1256.5 Q796 1285 751.5 1302 Q707 1319 645 1319 Q594 1319 547.5 1311.5 Q501 1304 460 1292 Q419 1280 384 1265 Q349 1250 322 1235 L356 1399 Q382 1409 414 1419.5 Q446 1430 485 1438.5 Q524 1447 571 1452.5 Q618 1458 674 1458 Q775 1458 846 1430 Q917 1402 963 1356.5 Q1009 1311 1030 1253.5 Q1051 1196 1051 1137 Z " />
<glyph glyph-name="four" unicode="4" horiz-adv-x="1104" d="M864 514 L1053 514 L1022 381 L836 381 L756 0 L590 0 L670 379 L2 379 L27 492 L860 1434 L1059 1434 L864 514 Z M862 1270 Q847 1248 826 1217.5 Q805 1187 780 1159 L225 514 L698 514 L829 1122 Q833 1138 838 1157.5 Q843 1177 848 1197 Q853 1217 857.5 1236 Q862 1255 866 1270 L862 1270 Z " />
<glyph glyph-name="five" unicode="5" horiz-adv-x="1104" d="M1053 1284 L514 1284 L426 866 Q455 868 480 869 Q505 870 532 870 Q647 870 727.5 839.5 Q808 809 859 757.5 Q910 706 933 638 Q956 570 956 494 Q956 437 943.5 376.5 Q931 316 903 258 Q875 200 830.5 149 Q786 98 721.5 59 Q657 20 572.5 -2.5 Q488 -25 379 -25 Q334 -25 288 -21 Q242 -17 200 -9.5 Q158 -2 122 7.5 Q86 17 61 29 L98 190 Q122 174 156 160 Q190 146 229 136 Q268 126 309.5 120.5 Q351 115 391 115 Q505 115 581 149 Q657 183 703 235 Q749 287 768.5 348.5 Q788 410 788 465 Q788 594 716 660.5 Q644 727 487 727 Q457 727 422.5 726 Q388 725 354.5 723.5 Q321 722 290.5 720.5 Q260 719 238 717 L389 1434 L1083 1434 L1053 1284 Z " />
<glyph glyph-name="six" unicode="6" horiz-adv-x="1104" d="M1081 1262 Q1039 1286 980 1302.5 Q921 1319 852 1319 Q771 1319 698 1290 Q625 1261 563 1208 Q512 1166 469 1107.5 Q426 1049 391.5 981 Q357 913 332 839.5 Q307 766 293 694 L297 694 Q323 737 360 774 Q397 811 442.5 838.5 Q488 866 541.5 881.5 Q595 897 653 897 Q742 897 809 869 Q876 841 921 790 Q966 739 989 668 Q1012 597 1012 510 Q1012 410 980.5 314 Q949 218 887.5 142.5 Q826 67 736 21 Q646 -25 530 -25 Q438 -25 362 6 Q286 37 231.5 100 Q177 163 147 258 Q117 353 117 481 Q117 610 141.5 732.5 Q166 855 211.5 963.5 Q257 1072 321.5 1162.5 Q386 1253 467 1317 Q558 1389 662.5 1423.5 Q767 1458 872 1458 Q950 1458 1013.5 1444.5 Q1077 1431 1114 1417 L1081 1262 Z M844 496 Q844 551 829.5 598.5 Q815 646 785 681 Q755 716 708 736 Q661 756 596 756 Q519 756 461 727 Q403 698 364 651 Q325 604 305 545 Q285 486 285 426 Q285 355 303 297.5 Q321 240 354 199.5 Q387 159 434.5 137 Q482 115 541 115 Q613 115 669.5 147.5 Q726 180 764.5 233 Q803 286 823.5 355 Q844 424 844 496 Z " />
<glyph glyph-name="seven" unicode="7" horiz-adv-x="1104" d="M326 0 L139 0 L936 1286 L227 1286 L258 1434 L1188 1434 L1178 1382 L326 0 Z " />
<glyph glyph-name="eight" unicode="8" horiz-adv-x="1104" d="M1092 1137 Q1092 1054 1065.5 989.5 Q1039 925 992 876 Q945 827 879 792 Q813 757 735 731 Q857 664 919 578 Q981 492 981 373 Q981 297 951 225 Q921 153 859.5 97.5 Q798 42 703.5 8.5 Q609 -25 481 -25 Q385 -25 307.5 1.5 Q230 28 175 75.5 Q120 123 90.5 189 Q61 255 61 334 Q61 419 89 486.5 Q117 554 167.5 606.5 Q218 659 289 697.5 Q360 736 446 764 Q365 823 316.5 902 Q268 981 268 1075 Q268 1172 305.5 1244 Q343 1316 405 1363.5 Q467 1411 548 1434.5 Q629 1458 717 1458 Q812 1458 882 1431.5 Q952 1405 999 1360.5 Q1046 1316 1069 1258 Q1092 1200 1092 1137 Z M924 1118 Q924 1163 909 1200.5 Q894 1238 866 1264 Q838 1290 798 1304.5 Q758 1319 707 1319 Q640 1319 589 1301 Q538 1283 504 1251 Q470 1219 453 1175 Q436 1131 436 1079 Q436 992 481 927 Q526 862 604 811 Q682 831 741.5 857.5 Q801 884 841.5 920.5 Q882 957 903 1005.5 Q924 1054 924 1118 Z M813 369 Q813 420 795.5 465 Q778 510 745.5 548 Q713 586 668 618.5 Q623 651 567 678 Q398 630 312.5 550.5 Q227 471 227 342 Q227 302 242.5 261.5 Q258 221 290.5 188.5 Q323 156 373 135.5 Q423 115 492 115 Q570 115 630 134 Q690 153 730.5 186.5 Q771 220 792 267 Q813 314 813 369 Z " />
<glyph glyph-name="nine" unicode="9" horiz-adv-x="1104" d="M1071 961 Q1071 843 1049 720.5 Q1027 598 982 484.5 Q937 371 869.5 273 Q802 175 711 106 Q621 38 521 6.5 Q421 -25 309 -25 Q231 -25 168.5 -13 Q106 -1 74 16 L96 172 Q131 152 186.5 133.5 Q242 115 317 115 Q401 115 479 142.5 Q557 170 618 219 Q668 257 711 310 Q754 363 789.5 428 Q825 493 852 569 Q879 645 895 729 L891 729 Q863 684 826 646 Q789 608 745 581 Q701 554 650 539 Q599 524 543 524 Q438 524 366.5 562 Q295 600 251.5 658.5 Q208 717 189 788 Q170 859 170 924 Q170 984 182.5 1046.5 Q195 1109 221.5 1168.5 Q248 1228 288 1280.5 Q328 1333 382.5 1372.5 Q437 1412 507.5 1435 Q578 1458 664 1458 Q767 1458 843.5 1420.5 Q920 1383 970.5 1316 Q1021 1249 1046 1158.5 Q1071 1068 1071 961 Z M903 1004 Q903 1075 885 1133 Q867 1191 834 1232 Q801 1273 755 1296 Q709 1319 653 1319 Q578 1319 519.5 1287 Q461 1255 420.5 1202.5 Q380 1150 359 1081.5 Q338 1013 338 940 Q338 890 351 840.5 Q364 791 393 752 Q422 713 468.5 688.5 Q515 664 582 664 Q666 664 727 695 Q788 726 827 775.5 Q866 825 884.5 885.5 Q903 946 903 1004 Z " />
<glyph glyph-name="colon" unicode="&#x3a;" horiz-adv-x="446" d="M422 936 Q422 913 413 892.5 Q404 872 389 857 Q374 842 354 833.5 Q334 825 311 825 Q288 825 268 833.5 Q248 842 233 857 Q218 872 209.5 892.5 Q201 913 201 936 Q201 958 209.5 978 Q218 998 233 1013.5 Q248 1029 268 1038 Q288 1047 311 1047 Q334 1047 354.5 1038 Q375 1029 390 1013.5 Q405 998 413.5 978 Q422 958 422 936 Z M244 88 Q244 65 235.5 45 Q227 25 212 10 Q197 -5 176.5 -14 Q156 -23 133 -23 Q110 -23 90 -14 Q70 -5 55 10 Q40 25 31.5 45 Q23 65 23 88 Q23 111 31.5 131.5 Q40 152 55 167 Q70 182 90 190.5 Q110 199 133 199 Q156 199 176.5 190.5 Q197 182 212 167 Q227 152 235.5 131.5 Q244 111 244 88 Z " />
<glyph glyph-name="semicolon" unicode="&#x3b;" horiz-adv-x="446" d="M422 936 Q422 913 413 892.5 Q404 872 389 857 Q374 842 354 833.5 Q334 825 311 825 Q288 825 268 833.5 Q248 842 233 857 Q218 872 209.5 892.5 Q201 913 201 936 Q201 958 209.5 978 Q218 998 233 1013.5 Q248 1029 268 1038 Q288 1047 311 1047 Q334 1047 354.5 1038 Q375 1029 390 1013.5 Q405 998 413.5 978 Q422 958 422 936 Z M27 -264 L-102 -264 L100 227 L264 227 L27 -264 Z " />
<glyph glyph-name="less" unicode="&#x3c;" horiz-adv-x="1403" d="M238 559 L238 618 L1098 1100 L1098 950 L455 594 L455 590 L1098 276 L1098 127 L238 559 Z " />
<glyph glyph-name="equal" unicode="&#x3d;" horiz-adv-x="1403" d="M256 743 L256 877 L1196 877 L1196 743 L256 743 Z M256 317 L256 451 L1196 451 L1196 317 L256 317 Z " />
<glyph glyph-name="greater" unicode="&#x3e;" horiz-adv-x="1403" d="M330 127 L330 276 L973 588 L973 594 L330 948 L330 1100 L1188 618 L1188 559 L330 127 Z " />
<glyph glyph-name="question" unicode="&#x3f;" horiz-adv-x="881" d="M922 1145 Q922 1083 906.5 1029 Q891 975 858 925.5 Q825 876 774.5 828.5 Q724 781 655 733 Q602 696 565.5 662.5 Q529 629 503.5 591.5 Q478 554 461 508.5 Q444 463 432 403 L281 403 Q295 475 313.5 533 Q332 591 360.5 639.5 Q389 688 430.5 729.5 Q472 771 532 811 Q595 853 639 891.5 Q683 930 711 968.5 Q739 1007 751.5 1046 Q764 1085 764 1128 Q764 1165 751 1200.5 Q738 1236 711 1263.5 Q684 1291 643.5 1308 Q603 1325 549 1325 Q481 1325 408.5 1303 Q336 1281 268 1235 L297 1403 Q359 1431 431 1446.5 Q503 1462 578 1462 Q664 1462 728.5 1436 Q793 1410 836 1366 Q879 1322 900.5 1264.5 Q922 1207 922 1145 Z M414 92 Q414 69 405 49 Q396 29 380.5 14 Q365 -1 345 -9.5 Q325 -18 303 -18 Q280 -18 260 -9.5 Q240 -1 225 14 Q210 29 201.5 49 Q193 69 193 92 Q193 115 201.5 135.5 Q210 156 225 171 Q240 186 260 194.5 Q280 203 303 203 Q325 203 345 194.5 Q365 186 380.5 171 Q396 156 405 135.5 Q414 115 414 92 Z " />
<glyph glyph-name="at" unicode="&#x40;" horiz-adv-x="1966" d="M1825 797 Q1825 669 1790.5 556.5 Q1756 444 1693.5 360.5 Q1631 277 1545 228.5 Q1459 180 1356 180 Q1305 180 1266 194.5 Q1227 209 1200.5 234 Q1174 259 1160.5 292.5 Q1147 326 1147 365 Q1147 380 1148.5 389.5 Q1150 399 1153 418 L1149 418 Q1089 303 1013.5 242.5 Q938 182 838 182 Q784 182 738.5 204 Q693 226 660 266.5 Q627 307 608.5 364 Q590 421 590 492 Q590 609 628 715 Q666 821 731.5 902 Q797 983 884.5 1031 Q972 1079 1071 1079 Q1114 1079 1149 1069 Q1184 1059 1210 1042 Q1236 1025 1253.5 1001.5 Q1271 978 1280 952 L1284 952 Q1285 957 1289.5 973 Q1294 989 1299.5 1008 Q1305 1027 1309.5 1043.5 Q1314 1060 1315 1065 L1446 1065 Q1437 1034 1421.5 980.5 Q1406 927 1387 862.5 Q1368 798 1349 728.5 Q1330 659 1314 595.5 Q1298 532 1288 480.5 Q1278 429 1278 401 Q1278 341 1301.5 318 Q1325 295 1374 295 Q1446 295 1505.5 337.5 Q1565 380 1608.5 448.5 Q1652 517 1676 602 Q1700 687 1700 772 Q1700 843 1686 912.5 Q1672 982 1641.5 1044.5 Q1611 1107 1563 1160.5 Q1515 1214 1447.5 1252.5 Q1380 1291 1292.5 1313 Q1205 1335 1094 1335 Q994 1335 899 1310 Q804 1285 719.5 1238 Q635 1191 565 1123 Q495 1055 444 968.5 Q393 882 364.5 778.5 Q336 675 336 557 Q336 419 375.5 303.5 Q415 188 496 105 Q577 22 700.5 -24 Q824 -70 991 -70 Q1074 -70 1148.5 -61.5 Q1223 -53 1285.5 -40 Q1348 -27 1397 -11 Q1446 5 1477 20 L1452 -106 Q1424 -119 1380 -133 Q1336 -147 1278 -159 Q1220 -171 1147.5 -178.5 Q1075 -186 989 -186 Q804 -186 658.5 -134 Q513 -82 412 14.5 Q311 111 258 248.5 Q205 386 205 557 Q205 693 238 812 Q271 931 330.5 1031 Q390 1131 473.5 1209.5 Q557 1288 657.5 1342.5 Q758 1397 873.5 1425.5 Q989 1454 1112 1454 Q1291 1454 1424.5 1400.5 Q1558 1347 1647 1256.5 Q1736 1166 1780.5 1047 Q1825 928 1825 797 Z M1221 811 Q1221 886 1181 927.5 Q1141 969 1075 969 Q1005 969 942.5 931.5 Q880 894 833.5 829 Q787 764 760 678 Q733 592 733 494 Q733 447 744.5 410.5 Q756 374 775.5 349.5 Q795 325 821 312 Q847 299 877 299 Q937 299 989 331.5 Q1041 364 1083 421 Q1125 478 1157 554 Q1189 630 1208 717 Q1221 768 1221 811 Z " />
<glyph glyph-name="A" unicode="A" horiz-adv-x="1294" d="M999 0 L934 401 L326 401 L94 0 L-104 0 L750 1434 L926 1434 L1176 0 L999 0 Z M815 1163 Q814 1173 813.5 1186 Q813 1199 813 1212 Q813 1226 813 1238 Q813 1251 813 1260 L809 1260 Q806 1251 801 1238.5 Q796 1226 790 1212.5 Q784 1199 777.5 1186 Q771 1173 766 1163 L412 553 L907 553 L815 1163 Z " />
<glyph glyph-name="B" unicode="B" horiz-adv-x="1174" d="M1126 1124 Q1126 1057 1107 995.5 Q1088 934 1048.5 884 Q1009 834 947.5 797.5 Q886 761 801 745 L801 741 Q863 731 909.5 704.5 Q956 678 987 640 Q1018 602 1033.5 554.5 Q1049 507 1049 453 Q1049 342 1008.5 257.5 Q968 173 896 116 Q824 59 725.5 29.5 Q627 0 512 0 L74 0 L377 1434 L772 1434 Q858 1434 924 1410 Q990 1386 1035 1344 Q1080 1302 1103 1245.5 Q1126 1189 1126 1124 Z M950 1092 Q950 1130 938 1164 Q926 1198 899.5 1224.5 Q873 1251 830.5 1266.5 Q788 1282 727 1282 L518 1282 L418 819 L606 819 Q692 819 756.5 839 Q821 859 863.5 895 Q906 931 927 981 Q948 1031 948 1092 L950 1092 Z M872 442 Q872 547 799 607.5 Q726 668 575 668 L385 668 L279 152 L510 152 Q604 152 672 172.5 Q740 193 784.5 231 Q829 269 850.5 322.5 Q872 376 872 442 Z " />
<glyph glyph-name="C" unicode="C" horiz-adv-x="1309" d="M1325 1196 Q1296 1215 1258.5 1235 Q1221 1255 1176 1271 Q1131 1287 1077.5 1297 Q1024 1307 963 1307 Q813 1307 692.5 1254 Q572 1201 488 1108 Q404 1015 358.5 889.5 Q313 764 313 618 Q313 499 346 407.5 Q379 316 440 253.5 Q501 191 586 159 Q671 127 774 127 Q840 127 894 134.5 Q948 142 994 155.5 Q1040 169 1080.5 187.5 Q1121 206 1159 227 L1120 51 Q1039 14 946.5 -5.5 Q854 -25 739 -25 Q603 -25 491.5 20 Q380 65 301.5 147.5 Q223 230 180 346 Q137 462 137 604 Q137 792 196.5 949 Q256 1106 365.5 1219 Q475 1332 628.5 1395 Q782 1458 969 1458 Q1097 1458 1195.5 1430.5 Q1294 1403 1362 1368 L1325 1196 Z " />
<glyph glyph-name="D" unicode="D" horiz-adv-x="1458" d="M1401 854 Q1401 748 1379.5 643 Q1358 538 1313.5 443 Q1269 348 1199 267 Q1129 186 1032 126.5 Q935 67 809.5 33.5 Q684 0 528 0 L74 0 L379 1434 L778 1434 Q918 1434 1033 1394.5 Q1148 1355 1229.5 1280 Q1311 1205 1356 1097.5 Q1401 990 1401 854 Z M1225 842 Q1225 1052 1102 1167 Q979 1282 737 1282 L518 1282 L276 152 L543 152 Q712 152 839.5 206 Q967 260 1052.5 354 Q1138 448 1181.5 573.5 Q1225 699 1225 842 Z " />
<glyph glyph-name="E" unicode="E" horiz-adv-x="1022" d="M1071 1282 L518 1282 L414 793 L926 793 L893 641 L381 641 L276 152 L864 152 L834 0 L74 0 L377 1434 L1104 1434 L1071 1282 Z " />
<glyph glyph-name="F" unicode="F" horiz-adv-x="1001" d="M1071 1278 L518 1278 L412 788 L926 788 L893 633 L379 633 L246 0 L74 0 L377 1434 L1104 1434 L1071 1278 Z " />
<glyph glyph-name="G" unicode="G" horiz-adv-x="1409" d="M1350 1190 Q1317 1212 1274.5 1233 Q1232 1254 1181 1270.5 Q1130 1287 1070.5 1297 Q1011 1307 944 1307 Q795 1307 678 1254 Q561 1201 480 1109.5 Q399 1018 356 894 Q313 770 313 629 Q313 512 345.5 419 Q378 326 439 261 Q500 196 586.5 161.5 Q673 127 782 127 Q857 127 917.5 139.5 Q978 152 1030 172 L1116 590 L784 590 L817 739 L1321 739 L1180 78 Q1095 33 992 3 Q889 -27 762 -27 Q615 -27 499 22 Q383 71 302.5 156.5 Q222 242 179.5 358.5 Q137 475 137 610 Q137 726 161 834 Q185 942 232 1036.5 Q279 1131 349 1208.5 Q419 1286 511 1341.5 Q603 1397 716.5 1427.5 Q830 1458 965 1458 Q1039 1458 1102.5 1449 Q1166 1440 1218.5 1426 Q1271 1412 1312 1395.5 Q1353 1379 1382 1364 L1350 1190 Z " />
<glyph glyph-name="H" unicode="H" horiz-adv-x="1450" d="M1151 0 L979 0 L1116 647 L383 647 L248 0 L74 0 L377 1434 L551 1434 L416 805 L1149 805 L1284 1434 L1456 1434 L1151 0 Z " />
<glyph glyph-name="I" unicode="I" horiz-adv-x="545" d="M246 0 L74 0 L377 1434 L551 1434 L246 0 Z " />
<glyph glyph-name="J" unicode="J" horiz-adv-x="709" d="M535 508 Q507 378 465.5 278 Q424 178 366 111 Q308 44 232 9.5 Q156 -25 59 -25 Q41 -25 16 -22 Q-9 -19 -33 -13.5 Q-57 -8 -77 -2 Q-97 4 -106 10 L-78 170 Q-67 161 -51.5 152.5 Q-36 144 -18 138 Q0 132 20 128.5 Q40 125 59 125 Q113 125 159 144.5 Q205 164 242.5 208.5 Q280 253 310 324.5 Q340 396 362 500 L559 1434 L731 1434 L535 508 Z " />
<glyph glyph-name="K" unicode="K" horiz-adv-x="1228" d="M573 723 L1071 0 L862 0 L428 653 Q422 664 413 680 Q404 696 399 707 L395 707 L246 0 L74 0 L377 1434 L551 1434 L408 760 L412 760 Q423 772 435.5 785 Q448 798 459 809 L1118 1434 L1346 1434 L573 723 Z " />
<glyph glyph-name="L" unicode="L" horiz-adv-x="948" d="M817 0 L74 0 L377 1434 L551 1434 L279 156 L850 156 L817 0 Z " />
<glyph glyph-name="M" unicode="M" horiz-adv-x="1675" d="M1376 0 L1209 0 L1413 962 Q1425 1019 1444 1091.5 Q1463 1164 1488 1247 L1484 1247 Q1472 1223 1454 1193.5 Q1436 1164 1416.5 1136.5 Q1397 1109 1381 1087 Q1365 1065 1358 1054 L845 374 L763 374 L539 1052 Q537 1064 529.5 1086.5 Q522 1109 515 1136.5 Q508 1164 502.5 1193 Q497 1222 497 1247 L493 1247 Q487 1204 473.5 1131 Q460 1058 440 960 L236 0 L74 0 L378 1434 L578 1434 L805 752 Q820 707 828.5 668 Q837 629 839 600 L845 600 Q861 630 884 670 Q907 710 943 756 L1458 1434 L1680 1434 L1376 0 Z " />
<glyph glyph-name="N" unicode="N" horiz-adv-x="1538" d="M1241 0 L1055 0 L526 1149 Q523 1157 519 1168.5 Q515 1180 511 1193 Q507 1206 504 1218 Q501 1230 500 1237 L494 1237 Q493 1227 491.5 1212.5 Q490 1198 488 1183 Q486 1168 483.5 1153.5 Q481 1139 479 1128 L240 0 L74 0 L377 1434 L578 1434 L1085 309 Q1090 300 1095 287.5 Q1100 275 1105 261.5 Q1110 248 1114.5 235 Q1119 222 1122 213 L1126 213 Q1127 225 1129 241 Q1131 257 1133 274.5 Q1135 292 1138 309 Q1141 326 1143 338 L1376 1434 L1546 1434 L1241 0 Z " />
<glyph glyph-name="O" unicode="O" horiz-adv-x="1544" d="M1487 852 Q1487 759 1470 667.5 Q1453 576 1421 491 Q1389 406 1342.5 330 Q1296 254 1237 193 Q1189 143 1133 102.5 Q1077 62 1013 33.5 Q949 5 876 -10 Q803 -25 719 -25 Q584 -25 476 21.5 Q368 68 292.5 149.5 Q217 231 177 343 Q137 455 137 586 Q137 794 204.5 959 Q272 1124 393 1245 Q491 1343 619.5 1400.5 Q748 1458 911 1458 Q1043 1458 1149.5 1413 Q1256 1368 1331 1287 Q1406 1206 1446.5 1095 Q1487 984 1487 852 Z M1309 846 Q1309 953 1280 1038 Q1251 1123 1197 1183 Q1143 1243 1067 1275 Q991 1307 897 1307 Q786 1307 685 1259 Q584 1211 506 1126 Q462 1078 426.5 1016 Q391 954 365.5 884 Q340 814 326.5 738 Q313 662 313 584 Q313 484 340.5 400 Q368 316 420.5 255.5 Q473 195 550 161 Q627 127 727 127 Q838 127 939.5 171.5 Q1041 216 1118 303 Q1166 357 1201.5 423.5 Q1237 490 1261 561.5 Q1285 633 1297 706 Q1309 779 1309 846 Z " />
<glyph glyph-name="P" unicode="P" horiz-adv-x="1178" d="M1176 1057 Q1176 951 1140 857.5 Q1104 764 1030.5 694 Q957 624 844 583.5 Q731 543 578 543 L360 543 L246 0 L74 0 L377 1434 L748 1434 Q863 1434 944.5 1402.5 Q1026 1371 1077.5 1318.5 Q1129 1266 1152.5 1198 Q1176 1130 1176 1057 Z M999 1042 Q999 1096 980.5 1140.5 Q962 1185 926 1216.5 Q890 1248 836.5 1265 Q783 1282 713 1282 L518 1282 L393 694 L594 694 Q700 694 776.5 720.5 Q853 747 902.5 793.5 Q952 840 975.5 903.5 Q999 967 999 1042 Z " />
<glyph glyph-name="Q" unicode="Q" horiz-adv-x="1544" d="M1309 842 Q1309 949 1280.5 1034.5 Q1252 1120 1199 1181 Q1146 1242 1070.5 1274.5 Q995 1307 901 1307 Q792 1307 690 1261 Q588 1215 510 1130 Q416 1027 364.5 886 Q313 745 313 582 Q313 483 340.5 399.5 Q368 316 420.5 255.5 Q473 195 550 161 Q627 127 727 127 Q844 127 944 173.5 Q1044 220 1116 301 Q1164 355 1200 420 Q1236 485 1260 555.5 Q1284 626 1296.5 699 Q1309 772 1309 842 Z M909 0 Q949 -56 985.5 -99 Q1022 -142 1061.5 -171.5 Q1101 -201 1146.5 -216 Q1192 -231 1251 -231 Q1283 -231 1325.5 -224.5 Q1368 -218 1400 -206 L1366 -368 Q1331 -377 1286 -382.5 Q1241 -388 1207 -388 Q1111 -388 1041 -359.5 Q971 -331 914.5 -281.5 Q858 -232 810 -166 Q762 -100 711 -24 Q571 -21 464 28 Q357 77 284 159 Q211 241 174 350 Q137 459 137 582 Q137 791 203.5 957 Q270 1123 391 1243 Q438 1289 492.5 1328.5 Q547 1368 611 1396.5 Q675 1425 750.5 1441.5 Q826 1458 915 1458 Q1047 1458 1153 1412 Q1259 1366 1333.5 1285 Q1408 1204 1447.5 1092 Q1487 980 1487 848 Q1487 753 1470.5 660 Q1454 567 1421 481 Q1388 395 1339 318.5 Q1290 242 1226 179.5 Q1162 117 1082.5 71 Q1003 25 909 0 Z " />
<glyph glyph-name="R" unicode="R" horiz-adv-x="1192" d="M1169 1079 Q1169 986 1136.5 911 Q1104 836 1047 782 Q990 728 911 695.5 Q832 663 739 655 L739 651 Q786 636 821.5 588 Q857 540 879 459 L999 0 L815 0 L709 428 Q686 522 635.5 566 Q585 610 502 610 L377 610 L246 0 L74 0 L377 1434 L772 1434 Q877 1434 952 1406 Q1027 1378 1075 1329.5 Q1123 1281 1146 1216.5 Q1169 1152 1169 1079 Z M993 1061 Q993 1109 978 1149.5 Q963 1190 932 1219.5 Q901 1249 853 1265.5 Q805 1282 739 1282 L518 1282 L408 762 L606 762 Q711 762 784.5 787 Q858 812 904.5 853 Q951 894 972 948.5 Q993 1003 993 1061 Z " />
<glyph glyph-name="S" unicode="S" horiz-adv-x="1018" d="M991 1219 Q966 1237 931.5 1253 Q897 1269 857.5 1281 Q818 1293 775 1300 Q732 1307 690 1307 Q610 1307 555.5 1284.5 Q501 1262 468 1227.5 Q435 1193 420.5 1152 Q406 1111 406 1075 Q406 1028 419 990 Q432 952 458 917 Q484 882 525 847 Q566 812 621 772 Q683 727 731.5 683 Q780 639 814 592.5 Q848 546 865.5 494.5 Q883 443 883 383 Q883 346 875.5 301.5 Q868 257 848.5 212 Q829 167 795 124 Q761 81 708.5 48 Q656 15 582 -5 Q508 -25 408 -25 Q352 -25 298 -17 Q244 -9 195.5 4 Q147 17 106.5 33.5 Q66 50 37 66 L66 240 Q98 217 139 196.5 Q180 176 226 160.5 Q272 145 321 136 Q370 127 418 127 Q494 127 548.5 145 Q603 163 638.5 194.5 Q674 226 690.5 269 Q707 312 707 362 Q707 407 693 443 Q679 479 650 513.5 Q621 548 576.5 583.5 Q532 619 471 662 Q422 697 377.5 737.5 Q333 778 299.5 826 Q266 874 246.5 930.5 Q227 987 227 1053 Q227 1135 257.5 1208.5 Q288 1282 348 1337.5 Q408 1393 496.5 1425.5 Q585 1458 702 1458 Q747 1458 791.5 1452.5 Q836 1447 878 1437.5 Q920 1428 957.5 1416.5 Q995 1405 1024 1393 L991 1219 Z " />
<glyph glyph-name="T" unicode="T" horiz-adv-x="1077" d="M1190 1282 L782 1282 L512 0 L340 0 L612 1282 L195 1282 L227 1434 L1223 1434 L1190 1282 Z " />
<glyph glyph-name="U" unicode="U" horiz-adv-x="1411" d="M1247 563 Q1217 423 1171.5 313.5 Q1126 204 1054.5 129 Q983 54 880 14.5 Q777 -25 633 -25 Q522 -25 435 10 Q348 45 289 106 Q230 167 199 250 Q168 333 168 430 Q168 473 173.5 527 Q179 581 188 629 L362 1434 L535 1434 L362 639 Q358 616 353.5 589 Q349 562 345.5 535 Q342 508 340 484 Q338 460 338 442 Q338 362 362 303 Q386 244 428.5 205 Q471 166 528.5 146.5 Q586 127 653 127 Q738 127 805 151 Q872 175 923 226 Q974 277 1010.5 356 Q1047 435 1071 545 L1262 1434 L1434 1434 L1247 563 Z " />
<glyph glyph-name="V" unicode="V" horiz-adv-x="1286" d="M596 0 L428 0 L213 1434 L387 1434 L545 311 Q550 283 552 247.5 Q554 212 551 186 L555 186 Q560 199 566.5 215 Q573 231 581.5 247.5 Q590 264 598.5 280.5 Q607 297 614 311 L1255 1434 L1448 1434 L596 0 Z " />
<glyph glyph-name="W" unicode="W" horiz-adv-x="1903" d="M1362 0 L1184 0 L1092 1063 Q1090 1094 1092.5 1133 Q1095 1172 1098 1206 L1094 1206 Q1084 1174 1069 1134 Q1054 1094 1038 1065 L494 0 L311 0 L197 1434 L375 1434 L449 342 Q451 308 449 269 Q447 230 442 199 L446 199 Q451 213 458 231 Q465 249 473 268.5 Q481 288 489.5 307 Q498 326 506 342 L1063 1434 L1217 1434 L1307 334 Q1310 306 1309 268 Q1308 230 1305 199 L1309 199 Q1314 215 1320.5 233.5 Q1327 252 1334.5 270.5 Q1342 289 1349.5 306.5 Q1357 324 1364 338 L1890 1434 L2077 1434 L1362 0 Z " />
<glyph glyph-name="X" unicode="X" horiz-adv-x="1210" d="M1364 1434 Q1357 1425 1329 1392 Q1301 1359 1260 1310 Q1219 1261 1168 1201.5 Q1117 1142 1064 1080 Q1011 1018 959.5 957.5 Q908 897 866 848 Q824 799 795 764.5 Q766 730 758 719 Q761 709 775 675 Q789 641 810 591.5 Q831 542 856.5 481.5 Q882 421 908.5 358.5 Q935 296 960.5 236 Q986 176 1007 126.5 Q1028 77 1042.5 43.5 Q1057 10 1061 0 L866 0 L653 549 Q651 554 648 563.5 Q645 573 642 584 Q639 595 637 605.5 Q635 616 633 623 L629 623 Q626 617 621 607.5 Q616 598 609.5 586.5 Q603 575 596 564 Q589 553 582 545 L127 0 L-88 0 Q-81 8 -52 41.5 Q-23 75 20 124 Q63 173 116 233.5 Q169 294 224 357.5 Q279 421 333 482.5 Q387 544 431.5 595.5 Q476 647 508 683.5 Q540 720 551 733 Q546 748 530.5 784.5 Q515 821 493.5 870.5 Q472 920 446.5 978.5 Q421 1037 394.5 1097 Q368 1157 343 1214 Q318 1271 298 1317.5 Q278 1364 264.5 1395 Q251 1426 248 1434 L446 1434 L649 899 Q652 892 655.5 882.5 Q659 873 662 862.5 Q665 852 668 842 Q671 832 672 825 L676 825 Q679 831 684 840.5 Q689 850 695.5 860.5 Q702 871 709 882 Q716 893 723 901 L1163 1434 L1364 1434 Z " />
<glyph glyph-name="Y" unicode="Y" horiz-adv-x="1135" d="M651 545 L537 0 L365 0 L479 541 L211 1434 L393 1434 L571 774 Q578 751 582.5 727.5 Q587 704 590 688 L592 688 Q600 704 614 726.5 Q628 749 643 772 L1120 1434 L1313 1434 L651 545 Z " />
<glyph glyph-name="Z" unicode="Z" horiz-adv-x="1167" d="M1309 1391 L227 152 L1026 152 L993 0 L-78 0 L-68 51 L1006 1282 L262 1282 L293 1434 L1319 1434 L1309 1391 Z " />
<glyph glyph-name="bracketleft" unicode="&#x5b;" horiz-adv-x="623" d="M752 1315 L530 1315 L207 -207 L428 -207 L403 -326 L35 -326 L410 1434 L778 1434 L752 1315 Z " />
<glyph glyph-name="backslash" unicode="&#x5c;" horiz-adv-x="791" d="M506 -240 L158 1434 L305 1434 L649 -240 L506 -240 Z " />
<glyph glyph-name="bracketright" unicode="&#x5d;" horiz-adv-x="623" d="M215 -326 L-152 -326 L-127 -207 L94 -207 L418 1313 L197 1313 L221 1434 L590 1434 L215 -326 Z " />
<glyph glyph-name="asciicircum" unicode="&#x5e;" horiz-adv-x="1403" d="M1055 625 L723 1243 L717 1243 L410 625 L262 625 L684 1458 L750 1458 L1206 625 L1055 625 Z " />
<glyph glyph-name="underscore" unicode="&#x5f;" horiz-adv-x="850" d="M-172 -297 L-147 -178 L702 -178 L678 -297 L-172 -297 Z " />
<glyph glyph-name="grave" unicode="&#x60;" horiz-adv-x="715" d="M528 1219 L289 1546 L442 1546 L649 1219 L528 1219 Z " />
<glyph glyph-name="a" unicode="a" horiz-adv-x="1110" d="M905 328 Q897 290 889.5 242.5 Q882 195 876.5 148.5 Q871 102 867.5 62 Q864 22 864 0 L694 0 Q695 20 697 48 Q699 76 702.5 106 Q706 136 709.5 165 Q713 194 717 215 L713 215 Q682 166 650 122.5 Q618 79 579 46 Q540 13 492 -6 Q444 -25 379 -25 Q312 -25 256.5 -1 Q201 23 161 70.5 Q121 118 99.5 189.5 Q78 261 78 356 Q78 414 90 488 Q102 562 130.5 639 Q159 716 206.5 789.5 Q254 863 324.5 921 Q395 979 491 1014 Q587 1049 713 1049 Q793 1049 878 1037 Q963 1025 1047 1008 L905 328 Z M858 889 Q823 897 776 903 Q729 909 688 909 Q601 909 534.5 881.5 Q468 854 419 809.5 Q370 765 336.5 707 Q303 649 283 588.5 Q263 528 254.5 469 Q246 410 246 362 Q246 305 256 259.5 Q266 214 287.5 182 Q309 150 342.5 132.5 Q376 115 422 115 Q472 115 515.5 135.5 Q559 156 597 191 Q635 226 666 272 Q697 318 722 369.5 Q747 421 764.5 474.5 Q782 528 793 578 L858 889 Z " />
<glyph glyph-name="b" unicode="b" horiz-adv-x="1110" d="M1032 666 Q1032 598 1018 520.5 Q1004 443 973 366.5 Q942 290 894 219 Q846 148 778.5 94 Q711 40 622.5 7.5 Q534 -25 422 -25 Q376 -25 327 -18.5 Q278 -12 231 0 Q184 12 141 29 Q98 46 63 68 L371 1516 L537 1516 L434 1026 Q423 977 411.5 923 Q400 869 389 827 L391 827 Q423 878 459 919 Q495 960 536.5 989 Q578 1018 625.5 1033.5 Q673 1049 729 1049 Q875 1049 953.5 949 Q1032 849 1032 666 Z M864 662 Q864 719 853.5 765 Q843 811 820.5 843 Q798 875 763 892 Q728 909 678 909 Q615 909 557 872 Q499 835 451 774 Q403 713 368 636 Q333 559 317 479 L250 160 Q284 141 335.5 128 Q387 115 442 115 Q513 115 572 138.5 Q631 162 678 203 Q725 244 760 298 Q795 352 818 412.5 Q841 473 852.5 537.5 Q864 602 864 662 Z " />
<glyph glyph-name="c" unicode="c" horiz-adv-x="893" d="M864 821 Q822 858 762.5 883.5 Q703 909 631 909 Q562 909 506.5 885 Q451 861 408 821 Q365 781 334 729 Q303 677 283 621 Q263 565 253.5 509.5 Q244 454 244 406 Q244 263 307 189 Q370 115 479 115 Q545 115 616 142.5 Q687 170 750 213 L715 49 Q650 14 585.5 -5.5 Q521 -25 449 -25 Q355 -25 285.5 7 Q216 39 170 95 Q124 151 101 227.5 Q78 304 78 393 Q78 477 95 558.5 Q112 640 145.5 712.5 Q179 785 228 847 Q277 909 340.5 953.5 Q404 998 482 1023.5 Q560 1049 651 1049 Q694 1049 733 1043 Q772 1037 804 1027 Q836 1017 861 1005.5 Q886 994 901 983 L864 821 Z " />
<glyph glyph-name="d" unicode="d" horiz-adv-x="1110" d="M901 315 Q894 283 887.5 238 Q881 193 876 147.5 Q871 102 867.5 62 Q864 22 864 0 L694 0 Q694 17 696.5 45.5 Q699 74 702.5 105 Q706 136 710 164.5 Q714 193 717 211 L713 211 Q677 153 641 108.5 Q605 64 565 34.5 Q525 5 480 -10 Q435 -25 381 -25 Q311 -25 255 0 Q199 25 159.5 73.5 Q120 122 99 193.5 Q78 265 78 358 Q78 432 93.5 512 Q109 592 141.5 669 Q174 746 224 815 Q274 884 343 936 Q412 988 501 1018.5 Q590 1049 700 1049 Q756 1049 804 1041.5 Q852 1034 887 1026 L991 1516 L1153 1516 L901 315 Z M858 885 Q820 896 778.5 902.5 Q737 909 690 909 Q603 909 536.5 882 Q470 855 420.5 810 Q371 765 337.5 707.5 Q304 650 283.5 589.5 Q263 529 254.5 470.5 Q246 412 246 365 Q246 309 255.5 263 Q265 217 286.5 184 Q308 151 342 133 Q376 115 424 115 Q474 115 517.5 136 Q561 157 599 193 Q637 229 668 276 Q699 323 724 376 Q749 429 766.5 483.5 Q784 538 795 588 L858 885 Z " />
<glyph glyph-name="e" unicode="e" horiz-adv-x="997" d="M958 784 Q958 703 922 636.5 Q886 570 803 522.5 Q720 475 584 449 Q448 423 248 422 Q246 411 246 399 Q246 388 246 379 Q246 325 261 277 Q276 229 307.5 193 Q339 157 388.5 136 Q438 115 506 115 Q575 115 657.5 141.5 Q740 168 815 217 L784 55 Q729 23 653 -1 Q577 -25 483 -25 Q370 -25 292.5 10 Q215 45 167.5 103.5 Q120 162 99 238.5 Q78 315 78 399 Q78 489 98 572.5 Q118 656 154.5 728 Q191 800 242 859.5 Q293 919 355 961 Q417 1003 488 1026 Q559 1049 635 1049 Q714 1049 774.5 1028 Q835 1007 875.5 970.5 Q916 934 937 886 Q958 838 958 784 Z M791 776 Q791 839 744.5 874 Q698 909 621 909 Q560 909 503 882.5 Q446 856 398 809.5 Q350 763 315 698.5 Q280 634 264 559 Q407 559 507 573.5 Q607 588 670 616 Q733 644 762 684.5 Q791 725 791 776 Z " />
<glyph glyph-name="f" unicode="f" horiz-adv-x="604" d="M823 1374 Q813 1379 799 1383.5 Q785 1388 769 1392 Q753 1396 735.5 1398.5 Q718 1401 702 1401 Q620 1401 575.5 1347.5 Q531 1294 508 1188 L471 1024 L713 1024 L680 885 L438 885 L176 -340 L10 -340 L274 885 L98 885 L129 1024 L305 1024 L346 1214 Q365 1302 399 1364 Q433 1426 480 1465 Q527 1504 586.5 1522 Q646 1540 717 1540 Q754 1540 789.5 1534 Q825 1528 850 1520 L823 1374 Z " />
<glyph glyph-name="g" unicode="g" horiz-adv-x="1110" d="M850 74 Q825 -46 784 -147.5 Q743 -249 675.5 -323.5 Q608 -398 509 -439.5 Q410 -481 268 -481 Q170 -481 97.5 -458 Q25 -435 -35 -403 L-4 -250 Q59 -288 130 -314 Q201 -340 283 -340 Q372 -340 437.5 -314 Q503 -288 550.5 -237.5 Q598 -187 629.5 -114 Q661 -41 682 53 L717 213 L713 213 Q675 152 638.5 107.5 Q602 63 562 33.5 Q522 4 478 -10.5 Q434 -25 381 -25 Q312 -25 256 -0.5 Q200 24 160.5 72 Q121 120 99.5 192 Q78 264 78 358 Q78 447 97.5 533 Q117 619 154 696 Q191 773 244.5 837.5 Q298 902 366 949 Q434 996 515.5 1022.5 Q597 1049 690 1049 Q783 1049 876 1037 Q969 1025 1047 1010 L850 74 Z M858 889 Q824 897 775.5 903 Q727 909 672 909 Q578 909 500 865.5 Q422 822 365.5 747.5 Q309 673 277.5 574 Q246 475 246 365 Q246 311 255.5 265 Q265 219 285.5 186 Q306 153 338.5 134 Q371 115 418 115 Q473 115 519.5 138 Q566 161 605 199 Q644 237 674.5 285.5 Q705 334 728.5 385 Q752 436 768 485.5 Q784 535 793 575 L858 889 Z " />
<glyph glyph-name="h" unicode="h" horiz-adv-x="1141" d="M1036 766 Q1036 753 1032.5 726.5 Q1029 700 1024.5 670 Q1020 640 1014.5 610.5 Q1009 581 1004 561 L885 0 L719 0 L844 600 Q848 616 852 637 Q856 658 859 679 Q862 700 864 717.5 Q866 735 866 745 Q866 823 830.5 866 Q795 909 721 909 Q657 909 593 871.5 Q529 834 474 774.5 Q419 715 378.5 641.5 Q338 568 322 496 L215 0 L49 0 L373 1516 L537 1516 L381 784 L385 784 Q422 841 466 889.5 Q510 938 559.5 973.5 Q609 1009 663.5 1029 Q718 1049 776 1049 Q904 1049 970 973.5 Q1036 898 1036 766 Z " />
<glyph glyph-name="i" unicode="i" horiz-adv-x="530" d="M416 4 Q391 -4 359.5 -9 Q328 -14 297 -14 Q196 -14 146 36.5 Q96 87 96 172 Q96 197 101 231 Q106 265 117 315 L266 1024 L432 1024 L282 311 Q273 269 269.5 246 Q266 223 266 207 Q266 166 288.5 144.5 Q311 123 360 123 Q386 123 405.5 126 Q425 129 442 135 L416 4 Z M533 1389 Q533 1344 502.5 1312 Q472 1280 427 1280 Q383 1280 350.5 1311.5 Q318 1343 318 1389 Q318 1435 350.5 1464 Q383 1493 427 1493 Q471 1493 502 1463.5 Q533 1434 533 1389 Z " />
<glyph glyph-name="j" unicode="j" horiz-adv-x="492" d="M225 47 Q170 -217 54.5 -349 Q-61 -481 -244 -481 Q-261 -481 -280.5 -479 Q-300 -477 -319.5 -473 Q-339 -469 -357.5 -463.5 Q-376 -458 -391 -451 L-362 -297 Q-350 -305 -334 -313 Q-318 -321 -300 -327.5 Q-282 -334 -263.5 -338 Q-245 -342 -229 -342 Q-126 -342 -55 -253 Q16 -164 53 16 L268 1024 L432 1024 L225 47 Z M533 1389 Q533 1344 502.5 1312 Q472 1280 427 1280 Q383 1280 350.5 1311.5 Q318 1343 318 1389 Q318 1435 350.5 1464 Q383 1493 427 1493 Q471 1493 502 1463.5 Q533 1434 533 1389 Z " />
<glyph glyph-name="k" unicode="k" horiz-adv-x="1004" d="M498 551 L860 0 L670 0 L334 541 L330 541 L215 0 L49 0 L373 1516 L537 1516 L340 590 L344 590 L854 1024 L1067 1024 L498 551 Z " />
<glyph glyph-name="l" unicode="l" horiz-adv-x="530" d="M416 4 Q391 -4 359.5 -9 Q328 -14 297 -14 Q196 -14 146 36.5 Q96 87 96 172 Q96 197 101 231 Q106 265 117 315 L373 1517 L539 1517 L282 311 Q273 269 269.5 246 Q266 223 266 207 Q266 166 288.5 144.5 Q311 123 360 123 Q386 123 405.5 126 Q425 129 442 135 L416 4 Z " />
<glyph glyph-name="m" unicode="m" horiz-adv-x="1757" d="M1653 766 Q1653 753 1649.5 726.5 Q1646 700 1640.5 670 Q1635 640 1629.5 610.5 Q1624 581 1620 561 L1499 0 L1335 0 L1460 600 Q1464 617 1468 638 Q1472 659 1475.5 679.5 Q1479 700 1481 717.5 Q1483 735 1483 745 Q1483 824 1449 866.5 Q1415 909 1343 909 Q1305 909 1264.5 891.5 Q1224 874 1185.5 844 Q1147 814 1111.5 774 Q1076 734 1046.5 688.5 Q1017 643 996 595.5 Q975 548 965 502 L858 0 L692 0 L819 600 Q823 617 827 638 Q831 659 834.5 679.5 Q838 700 840 717.5 Q842 735 842 745 Q842 824 807 866.5 Q772 909 702 909 Q663 909 622 891.5 Q581 874 542 843.5 Q503 813 467.5 772.5 Q432 732 402.5 686.5 Q373 641 352.5 593.5 Q332 546 322 500 L215 0 L49 0 L207 731 Q215 770 223 812.5 Q231 855 238 894.5 Q245 934 250 968 Q255 1002 258 1024 L418 1024 Q413 985 406 942.5 Q399 900 394 864 Q388 822 381 782 L385 782 Q421 840 463 889 Q505 938 552 973.5 Q599 1009 650 1029 Q701 1049 756 1049 Q820 1049 866 1030 Q912 1011 942.5 976.5 Q973 942 989 893 Q1005 844 1008 784 Q1045 840 1087.5 888.5 Q1130 937 1178.5 972.5 Q1227 1008 1281.5 1028.5 Q1336 1049 1397 1049 Q1525 1049 1589 974.5 Q1653 900 1653 766 Z " />
<glyph glyph-name="n" unicode="n" horiz-adv-x="1151" d="M1046 768 Q1046 753 1042.5 727 Q1039 701 1033.5 671 Q1028 641 1022.5 611.5 Q1017 582 1012 561 L893 0 L727 0 L852 600 Q856 616 860 637 Q864 658 867 679 Q870 700 872 717.5 Q874 735 874 745 Q874 821 837.5 865 Q801 909 729 909 Q663 909 598 870 Q533 831 478 771 Q423 711 383.5 639 Q344 567 330 500 L223 0 L57 0 L215 731 Q223 770 231 812.5 Q239 855 246 894.5 Q253 934 258 968 Q263 1002 266 1024 L426 1024 Q421 985 414 942.5 Q407 900 402 864 Q396 822 389 782 L393 782 Q428 837 470.5 885.5 Q513 934 562.5 970.5 Q612 1007 667.5 1028 Q723 1049 784 1049 Q852 1049 901 1028.5 Q950 1008 982.5 971 Q1015 934 1030.5 882 Q1046 830 1046 768 Z " />
<glyph glyph-name="o" unicode="o" horiz-adv-x="1096" d="M1018 645 Q1018 509 979.5 387 Q941 265 868.5 173.5 Q796 82 692.5 28.5 Q589 -25 459 -25 Q371 -25 300.5 3 Q230 31 180.5 83.5 Q131 136 104.5 210.5 Q78 285 78 379 Q78 520 118.5 642.5 Q159 765 232.5 855.5 Q306 946 408.5 997.5 Q511 1049 635 1049 Q722 1049 792.5 1021 Q863 993 913 940.5 Q963 888 990.5 813.5 Q1018 739 1018 645 Z M850 637 Q850 702 834 752.5 Q818 803 789 837.5 Q760 872 719 890.5 Q678 909 627 909 Q539 909 468 864 Q397 819 348 745.5 Q299 672 272.5 578.5 Q246 485 246 387 Q246 325 261.5 274.5 Q277 224 305.5 188.5 Q334 153 375.5 134 Q417 115 469 115 Q558 115 629 159.5 Q700 204 749 277.5 Q798 351 824 445 Q850 539 850 637 Z " />
<glyph glyph-name="p" unicode="p" horiz-adv-x="1110" d="M1032 666 Q1032 592 1016 512.5 Q1000 433 967 356 Q934 279 884.5 210 Q835 141 768 88.5 Q701 36 616 5.5 Q531 -25 428 -25 Q369 -25 311.5 -14 Q254 -3 211 12 L109 -475 L-57 -475 L193 709 Q200 741 206 786 Q212 831 216.5 876.5 Q221 922 224 962 Q227 1002 227 1024 L395 1024 Q395 1007 392.5 978 Q390 949 386 917.5 Q382 886 378 856.5 Q374 827 371 809 L375 809 Q446 930 535 989.5 Q624 1049 729 1049 Q799 1049 855 1025 Q911 1001 950.5 953 Q990 905 1011 833 Q1032 761 1032 666 Z M864 659 Q864 713 854.5 759 Q845 805 823 838 Q801 871 766.5 890 Q732 909 682 909 Q630 909 584.5 887.5 Q539 866 500 830 Q461 794 429 746.5 Q397 699 372 648 Q347 597 329.5 545.5 Q312 494 303 449 L240 152 Q258 144 283 137.5 Q308 131 335 126 Q362 121 390 118 Q418 115 442 115 Q511 115 569.5 138 Q628 161 674.5 200.5 Q721 240 756.5 293.5 Q792 347 816 407.5 Q840 468 852 532.5 Q864 597 864 659 Z " />
<glyph glyph-name="q" unicode="q" horiz-adv-x="1110" d="M735 -475 L569 -475 L670 -2 Q679 47 691.5 101 Q704 155 715 197 L713 197 Q679 145 642.5 103.5 Q606 62 565.5 33.5 Q525 5 479.5 -10 Q434 -25 381 -25 Q311 -25 254.5 0 Q198 25 159 74 Q120 123 99 194 Q78 265 78 358 Q78 424 91.5 501 Q105 578 135.5 655 Q166 732 214.5 803 Q263 874 333 928.5 Q403 983 496 1016 Q589 1049 707 1049 Q761 1049 811.5 1044 Q862 1039 905.5 1032 Q949 1025 985 1016.5 Q1021 1008 1047 1001 L735 -475 Z M858 885 Q823 894 782 901.5 Q741 909 688 909 Q603 909 537 882 Q471 855 421.5 810.5 Q372 766 338.5 709 Q305 652 284.5 591.5 Q264 531 255 472 Q246 413 246 365 Q246 311 255 265 Q264 219 285 186 Q306 153 340 134 Q374 115 424 115 Q476 115 521 137 Q566 159 604 195.5 Q642 232 673 279 Q704 326 727.5 377.5 Q751 429 767.5 480 Q784 531 793 575 L858 885 Z " />
<glyph glyph-name="r" unicode="r" horiz-adv-x="727" d="M766 850 L762 850 Q742 862 709.5 873.5 Q677 885 645 885 Q587 885 534 847.5 Q481 810 437.5 748.5 Q394 687 361.5 608 Q329 529 311 446 L215 0 L51 0 L195 680 Q204 722 213 768 Q222 814 229.5 860 Q237 906 243 948 Q249 990 252 1024 L414 1024 Q411 994 407 960.5 Q403 927 399 895.5 Q395 864 391 838.5 Q387 813 385 799 L389 799 Q421 856 454 902 Q487 948 523.5 980.5 Q560 1013 601 1031 Q642 1049 690 1049 Q718 1049 745.5 1043.5 Q773 1038 795 1032 L766 850 Z " />
<glyph glyph-name="s" unicode="s" horiz-adv-x="809" d="M725 844 Q680 873 624 891 Q568 909 512 909 Q418 909 366.5 866 Q315 823 315 752 Q315 723 324.5 699 Q334 675 352.5 653.5 Q371 632 399.5 612 Q428 592 465 569 Q577 504 626.5 435.5 Q676 367 676 281 Q676 223 654.5 167.5 Q633 112 586 69.5 Q539 27 464.5 1 Q390 -25 283 -25 Q253 -25 217 -21 Q181 -17 144.5 -9 Q108 -1 74.5 10.5 Q41 22 16 37 L49 193 Q69 179 98.5 165 Q128 151 162.5 140 Q197 129 234.5 122 Q272 115 309 115 Q409 115 458.5 155 Q508 195 508 266 Q508 292 500.5 314 Q493 336 474 358 Q455 380 424 402.5 Q393 425 346 453 Q244 515 195.5 582.5 Q147 650 147 735 Q147 797 170 853.5 Q193 910 238.5 953.5 Q284 997 353 1023 Q422 1049 514 1049 Q586 1049 650.5 1035 Q715 1021 760 999 L725 844 Z " />
<glyph glyph-name="t" unicode="t" horiz-adv-x="662" d="M690 885 L432 885 L317 342 Q311 311 305 275 Q299 239 299 217 Q299 166 321.5 143.5 Q344 121 393 121 Q405 121 424 125 Q443 129 463 135 Q483 141 502.5 148.5 Q522 156 537 162 L506 18 Q471 3 426.5 -7.5 Q382 -18 342 -18 Q285 -18 245 -3.5 Q205 11 179.5 38 Q154 65 142.5 103.5 Q131 142 131 190 Q131 219 136.5 257.5 Q142 296 150 328 L268 885 L98 885 L129 1024 L297 1024 L350 1274 Q354 1276 380.5 1283.5 Q407 1291 438.5 1300.5 Q470 1310 496.5 1318 Q523 1326 526 1327 L463 1024 L721 1024 L690 885 Z " />
<glyph glyph-name="u" unicode="u" horiz-adv-x="1143" d="M930 291 Q921 252 913.5 210 Q906 168 899 129 Q892 90 887 56 Q882 22 879 0 L719 0 Q724 39 730.5 81.5 Q737 124 743 160 Q750 202 756 242 L752 242 Q717 187 674.5 138.5 Q632 90 582.5 53.5 Q533 17 477.5 -4 Q422 -25 362 -25 Q296 -25 246.5 -4.5 Q197 16 164 53 Q131 90 114.5 142 Q98 194 98 258 Q98 271 102 297 Q106 323 111 353 Q116 383 122.5 412.5 Q129 442 133 463 L252 1024 L418 1024 L291 424 Q287 408 283 387 Q279 366 275.5 345 Q272 324 270 306.5 Q268 289 268 279 Q268 204 304.5 159.5 Q341 115 414 115 Q458 115 502 133 Q546 151 587.5 181.5 Q629 212 666 252.5 Q703 293 733 338.5 Q763 384 784 432 Q805 480 815 524 L922 1024 L1087 1024 L930 291 Z " />
<glyph glyph-name="v" unicode="v" horiz-adv-x="969" d="M438 0 L299 0 L137 1024 L303 1024 L393 379 Q396 360 398.5 336 Q401 312 403.5 287 Q406 262 407 238 Q408 214 408 195 L412 195 Q420 213 430.5 236 Q441 259 454 283.5 Q467 308 480.5 333 Q494 358 506 379 L872 1024 L1059 1024 L438 0 Z " />
<glyph glyph-name="w" unicode="w" horiz-adv-x="1475" d="M1024 0 L862 0 L803 727 Q802 736 802 750 Q802 764 802.5 778 Q803 792 804.5 805.5 Q806 819 807 827 L803 827 Q800 817 795 804 Q790 791 784 776.5 Q778 762 771.5 748.5 Q765 735 760 725 L377 0 L215 0 L125 1024 L283 1024 L332 258 Q334 236 332.5 210.5 Q331 185 328 162 L334 162 Q342 185 352.5 213.5 Q363 242 373 262 L772 1024 L918 1024 L975 256 Q977 233 974.5 206.5 Q972 180 969 160 L977 160 Q979 170 983.5 182.5 Q988 195 993 208.5 Q998 222 1003.5 235 Q1009 248 1014 258 L1382 1024 L1548 1024 L1024 0 Z " />
<glyph glyph-name="x" unicode="x" horiz-adv-x="932" d="M559 500 L795 0 L614 -2 L485 319 Q479 335 468.5 362 Q458 389 449 412 L444 412 Q437 402 427.5 389.5 Q418 377 409 365 Q400 353 391.5 342.5 Q383 332 377 324 L109 0 L-86 0 L375 510 L145 1024 L326 1024 L449 698 Q458 674 467 646 Q476 618 481 602 L485 602 Q491 609 499 619.5 Q507 630 516 642 Q525 654 534.5 666 Q544 678 553 688 L831 1024 L1018 1024 L559 500 Z " />
<glyph glyph-name="y" unicode="y" horiz-adv-x="991" d="M367 -170 Q321 -245 274 -302.5 Q227 -360 175.5 -400 Q124 -440 65.5 -460.5 Q7 -481 -63 -481 Q-86 -481 -114.5 -476.5 Q-143 -472 -160 -467 L-129 -322 Q-114 -330 -90 -335 Q-66 -340 -43 -340 Q26 -340 81.5 -302 Q137 -264 186 -186 L309 4 L123 1024 L293 1024 L412 238 Q415 216 415.5 195.5 Q416 175 414 160 L420 160 Q425 172 435.5 194 Q446 216 459 236 L913 1024 L1094 1024 L367 -170 Z " />
<glyph glyph-name="z" unicode="z" horiz-adv-x="926" d="M981 975 L213 139 L795 139 L764 0 L-78 0 L-66 53 L702 885 L168 885 L199 1024 L991 1024 L981 975 Z " />
<glyph glyph-name="braceleft" unicode="&#x7b;" horiz-adv-x="623" d="M709 1309 Q632 1309 581.5 1264 Q531 1219 508 1112 L446 829 Q422 717 373 647.5 Q324 578 250 555 L250 551 Q288 532 314 489.5 Q340 447 340 373 Q340 351 338 328 Q336 305 330 279 L274 20 Q269 -6 265.5 -29 Q262 -52 262 -72 Q262 -132 293.5 -159.5 Q325 -187 391 -190 L365 -311 Q299 -310 251.5 -293 Q204 -276 173.5 -246.5 Q143 -217 129 -177.5 Q115 -138 115 -90 Q115 -68 117.5 -46.5 Q120 -25 125 -2 L186 283 Q191 304 193 324 Q195 344 195 362 Q195 425 165 462 Q135 499 72 504 L98 618 Q181 623 229.5 672.5 Q278 722 301 829 L362 1118 Q382 1213 418 1273.5 Q454 1334 502.5 1369.5 Q551 1405 610 1419 Q669 1433 735 1434 L709 1309 Z " />
<glyph glyph-name="bar" unicode="&#x7c;" horiz-adv-x="492" d="M174 -481 L174 1567 L319 1567 L319 -481 L174 -481 Z " />
<glyph glyph-name="braceright" unicode="&#x7d;" horiz-adv-x="623" d="M524 504 Q483 502 450.5 489 Q418 476 393 450.5 Q368 425 350.5 386 Q333 347 322 293 L260 6 Q240 -89 204.5 -150 Q169 -211 121 -246 Q73 -281 14 -295 Q-45 -309 -111 -309 L-86 -186 Q-8 -185 43 -140 Q94 -95 117 12 L176 293 Q201 405 250 475.5 Q299 546 375 569 L375 573 Q337 592 310 634.5 Q283 677 283 752 Q283 772 285.5 796 Q288 820 293 846 L348 1104 Q360 1154 360 1194 Q360 1254 330 1282.5 Q300 1311 233 1313 L258 1434 Q325 1433 372.5 1416.5 Q420 1400 450 1371 Q480 1342 494 1302 Q508 1262 508 1214 Q508 1193 505.5 1171 Q503 1149 498 1126 L438 842 Q433 819 430.5 799.5 Q428 780 428 762 Q428 697 458.5 660.5 Q489 624 551 621 L524 504 Z " />
<glyph glyph-name="asciitilde" unicode="&#x7e;" horiz-adv-x="1403" d="M1210 750 Q1207 683 1188.5 626 Q1170 569 1135.5 528 Q1101 487 1049.5 463.5 Q998 440 930 440 Q891 440 857 448.5 Q823 457 791.5 472 Q760 487 730 507 Q700 527 668 549 Q650 561 630.5 572.5 Q611 584 590.5 594 Q570 604 548.5 610 Q527 616 506 616 Q437 616 400.5 570.5 Q364 525 360 440 L225 440 Q228 508 247 565 Q266 622 301 663 Q336 704 387.5 727 Q439 750 506 750 Q544 750 577 742.5 Q610 735 638.5 722.5 Q667 710 692 694 Q717 678 741 662 Q774 640 799.5 622.5 Q825 605 847 594 Q869 583 891 577 Q913 571 938 571 Q969 571 994 584 Q1019 597 1036.5 621 Q1054 645 1064 678 Q1074 711 1075 750 L1210 750 Z " />
<glyph glyph-name="Adieresis" unicode="&#xc4;" horiz-adv-x="1294" d="M999 0 L934 401 L326 401 L94 0 L-104 0 L750 1434 L926 1434 L1176 0 L999 0 Z M815 1163 Q814 1173 813.5 1186 Q813 1199 813 1212 Q813 1226 813 1238 Q813 1251 813 1260 L809 1260 Q806 1251 801 1238.5 Q796 1226 790 1212.5 Q784 1199 777.5 1186 Q771 1173 766 1163 L412 553 L907 553 L815 1163 Z M1151 1665 Q1151 1623 1122 1595 Q1093 1567 1052 1567 Q1012 1567 983 1594.5 Q954 1622 954 1665 Q954 1686 962 1704 Q970 1722 983 1735 Q996 1748 1013.5 1755.5 Q1031 1763 1050 1763 Q1071 1763 1089.5 1755.5 Q1108 1748 1121.5 1734.5 Q1135 1721 1143 1703.5 Q1151 1686 1151 1665 Z M766 1665 Q766 1644 758 1626.5 Q750 1609 736.5 1595.5 Q723 1582 704.5 1574.5 Q686 1567 665 1567 Q646 1567 628 1574.5 Q610 1582 596.5 1595 Q583 1608 575 1626 Q567 1644 567 1665 Q567 1686 575 1704 Q583 1722 596.5 1735 Q610 1748 628 1755.5 Q646 1763 665 1763 Q686 1763 704.5 1755.5 Q723 1748 736.5 1734.5 Q750 1721 758 1703.5 Q766 1686 766 1665 Z " />
<glyph glyph-name="Aring" unicode="&#xc5;" horiz-adv-x="1294" d="M999 0 L934 401 L326 401 L94 0 L-104 0 L721 1384 Q683 1407 659 1447.5 Q635 1488 635 1542 Q635 1587 651.5 1624 Q668 1661 696.5 1687 Q725 1713 763 1727 Q801 1741 844 1741 Q889 1741 926 1726.5 Q963 1712 990 1686.5 Q1017 1661 1032 1625.5 Q1047 1590 1047 1548 Q1047 1489 1016 1444 Q985 1399 936 1376 L1176 0 L999 0 Z M954 1548 Q954 1573 945 1593.5 Q936 1614 920.5 1628.5 Q905 1643 884.5 1651 Q864 1659 840 1659 Q789 1659 758 1627.5 Q727 1596 727 1548 Q727 1493 758.5 1463.5 Q790 1434 840 1434 Q889 1434 921.5 1466.5 Q954 1499 954 1548 Z M815 1163 Q814 1173 813.5 1186 Q813 1199 813 1212 Q813 1226 813 1238 Q813 1251 813 1260 L809 1260 Q806 1251 801 1238.5 Q796 1226 790 1212.5 Q784 1199 777.5 1186 Q771 1173 766 1163 L412 553 L907 553 L815 1163 Z " />
<glyph glyph-name="Ccedilla" unicode="&#xc7;" horiz-adv-x="1309" d="M1116 51 Q1029 13 940.5 -6 Q852 -25 750 -25 L733 -104 Q769 -104 801.5 -112.5 Q834 -121 858 -138 Q882 -155 896.5 -180 Q911 -205 911 -238 Q911 -327 836.5 -380.5 Q762 -434 618 -434 Q598 -434 575 -432.5 Q552 -431 530 -428 L549 -340 Q588 -346 625 -346 Q711 -346 753 -321 Q795 -296 795 -254 Q795 -219 766.5 -198.5 Q738 -178 676 -178 Q663 -178 649 -179 Q635 -180 621 -182 L655 -20 Q536 -7 439.5 43 Q343 93 275 174 Q207 255 170 364 Q133 473 133 604 Q133 792 192.5 949 Q252 1106 361.5 1219 Q471 1332 624.5 1395 Q778 1458 965 1458 Q1093 1458 1191.5 1430.5 Q1290 1403 1358 1368 L1321 1196 Q1292 1215 1255 1235 Q1218 1255 1172.5 1271 Q1127 1287 1073.5 1297 Q1020 1307 958 1307 Q808 1307 688.5 1254 Q569 1201 485 1108 Q401 1015 356 889.5 Q311 764 311 618 Q311 499 344 407.5 Q377 316 437.5 253.5 Q498 191 582.5 159 Q667 127 770 127 Q836 127 890 134.5 Q944 142 990 155.5 Q1036 169 1076.5 187.5 Q1117 206 1155 227 L1116 51 Z " />
<glyph glyph-name="Eacute" unicode="&#xc9;" horiz-adv-x="1022" d="M1071 1282 L518 1282 L414 793 L926 793 L893 641 L381 641 L276 152 L864 152 L834 0 L74 0 L377 1434 L1104 1434 L1071 1282 Z M768 1567 L645 1567 L934 1894 L1095 1894 L768 1567 Z " />
<glyph glyph-name="Ntilde" unicode="&#xd1;" horiz-adv-x="1538" d="M1241 0 L1055 0 L526 1149 Q523 1157 519 1168.5 Q515 1180 511 1193 Q507 1206 504 1218 Q501 1230 500 1237 L494 1237 Q493 1227 491.5 1212.5 Q490 1198 488 1183 Q486 1168 483.5 1153.5 Q481 1139 479 1128 L240 0 L74 0 L377 1434 L578 1434 L1085 309 Q1090 300 1095 287.5 Q1100 275 1105 261.5 Q1110 248 1114.5 235 Q1119 222 1122 213 L1126 213 Q1127 225 1129 241 Q1131 257 1133 274.5 Q1135 292 1138 309 Q1141 326 1143 338 L1376 1434 L1546 1434 L1241 0 Z M1325 1806 Q1322 1761 1304.5 1721 Q1287 1681 1258.5 1651 Q1230 1621 1191.5 1604 Q1153 1587 1108 1587 Q1060 1587 1027.5 1601.5 Q995 1616 969.5 1633 Q944 1650 920.5 1664.5 Q897 1679 866 1679 Q815 1679 785.5 1646 Q756 1613 751 1567 L655 1567 Q658 1615 676.5 1656 Q695 1697 725 1726 Q755 1755 795.5 1771.5 Q836 1788 883 1788 Q927 1788 956.5 1773 Q986 1758 1011 1739.5 Q1036 1721 1060.5 1706 Q1085 1691 1118 1691 Q1140 1691 1159 1700 Q1178 1709 1193 1724.5 Q1208 1740 1217 1761 Q1226 1782 1229 1806 L1325 1806 Z " />
<glyph glyph-name="Odieresis" unicode="&#xd6;" horiz-adv-x="1544" d="M1487 852 Q1487 759 1470 667.5 Q1453 576 1421 491 Q1389 406 1342.5 330 Q1296 254 1237 193 Q1189 143 1133 102.5 Q1077 62 1013 33.5 Q949 5 876 -10 Q803 -25 719 -25 Q584 -25 476 21.5 Q368 68 292.5 149.5 Q217 231 177 343 Q137 455 137 586 Q137 794 204.5 959 Q272 1124 393 1245 Q491 1343 619.5 1400.5 Q748 1458 911 1458 Q1043 1458 1149.5 1413 Q1256 1368 1331 1287 Q1406 1206 1446.5 1095 Q1487 984 1487 852 Z M1309 846 Q1309 953 1280 1038 Q1251 1123 1197 1183 Q1143 1243 1067 1275 Q991 1307 897 1307 Q786 1307 685 1259 Q584 1211 506 1126 Q462 1078 426.5 1016 Q391 954 365.5 884 Q340 814 326.5 738 Q313 662 313 584 Q313 484 340.5 400 Q368 316 420.5 255.5 Q473 195 550 161 Q627 127 727 127 Q838 127 939.5 171.5 Q1041 216 1118 303 Q1166 357 1201.5 423.5 Q1237 490 1261 561.5 Q1285 633 1297 706 Q1309 779 1309 846 Z M1237 1665 Q1237 1623 1208 1595 Q1179 1567 1138 1567 Q1098 1567 1069 1594.5 Q1040 1622 1040 1665 Q1040 1686 1048 1704 Q1056 1722 1069 1735 Q1082 1748 1099.5 1755.5 Q1117 1763 1136 1763 Q1157 1763 1175.5 1755.5 Q1194 1748 1207.5 1734.5 Q1221 1721 1229 1703.5 Q1237 1686 1237 1665 Z M852 1665 Q852 1644 844 1626.5 Q836 1609 822.5 1595.5 Q809 1582 790.5 1574.5 Q772 1567 751 1567 Q732 1567 714 1574.5 Q696 1582 682.5 1595 Q669 1608 661 1626 Q653 1644 653 1665 Q653 1686 661 1704 Q669 1722 682.5 1735 Q696 1748 714 1755.5 Q732 1763 751 1763 Q772 1763 790.5 1755.5 Q809 1748 822.5 1734.5 Q836 1721 844 1703.5 Q852 1686 852 1665 Z " />
<glyph glyph-name="Udieresis" unicode="&#xdc;" horiz-adv-x="1411" d="M1247 563 Q1217 423 1171.5 313.5 Q1126 204 1054.5 129 Q983 54 880 14.5 Q777 -25 633 -25 Q522 -25 435 10 Q348 45 289 106 Q230 167 199 250 Q168 333 168 430 Q168 473 173.5 527 Q179 581 188 629 L362 1434 L535 1434 L362 639 Q358 616 353.5 589 Q349 562 345.5 535 Q342 508 340 484 Q338 460 338 442 Q338 362 362 303 Q386 244 428.5 205 Q471 166 528.5 146.5 Q586 127 653 127 Q738 127 805 151 Q872 175 923 226 Q974 277 1010.5 356 Q1047 435 1071 545 L1262 1434 L1434 1434 L1247 563 Z M1209 1665 Q1209 1623 1180 1595 Q1151 1567 1110 1567 Q1070 1567 1041 1594.5 Q1012 1622 1012 1665 Q1012 1686 1020 1704 Q1028 1722 1041 1735 Q1054 1748 1071.5 1755.5 Q1089 1763 1108 1763 Q1129 1763 1147.5 1755.5 Q1166 1748 1179.5 1734.5 Q1193 1721 1201 1703.5 Q1209 1686 1209 1665 Z M824 1665 Q824 1644 816 1626.5 Q808 1609 794.5 1595.5 Q781 1582 762.5 1574.5 Q744 1567 723 1567 Q704 1567 686 1574.5 Q668 1582 654.5 1595 Q641 1608 633 1626 Q625 1644 625 1665 Q625 1686 633 1704 Q641 1722 654.5 1735 Q668 1748 686 1755.5 Q704 1763 723 1763 Q744 1763 762.5 1755.5 Q781 1748 794.5 1734.5 Q808 1721 816 1703.5 Q824 1686 824 1665 Z " />
<glyph glyph-name="aacute" unicode="&#xe1;" horiz-adv-x="1110" d="M905 328 Q897 290 889.5 242.5 Q882 195 876.5 148.5 Q871 102 867.5 62 Q864 22 864 0 L694 0 Q695 20 697 48 Q699 76 702.5 106 Q706 136 709.5 165 Q713 194 717 215 L713 215 Q682 166 650 122.5 Q618 79 579 46 Q540 13 492 -6 Q444 -25 379 -25 Q312 -25 256.5 -1 Q201 23 161 70.5 Q121 118 99.5 189.5 Q78 261 78 356 Q78 414 90 488 Q102 562 130.5 639 Q159 716 206.5 789.5 Q254 863 324.5 921 Q395 979 491 1014 Q587 1049 713 1049 Q793 1049 878 1037 Q963 1025 1047 1008 L905 328 Z M858 889 Q823 897 776 903 Q729 909 688 909 Q601 909 534.5 881.5 Q468 854 419 809.5 Q370 765 336.5 707 Q303 649 283 588.5 Q263 528 254.5 469 Q246 410 246 362 Q246 305 256 259.5 Q266 214 287.5 182 Q309 150 342.5 132.5 Q376 115 422 115 Q472 115 515.5 135.5 Q559 156 597 191 Q635 226 666 272 Q697 318 722 369.5 Q747 421 764.5 474.5 Q782 528 793 578 L858 889 Z M699 1219 L576 1219 L865 1546 L1026 1546 L699 1219 Z " />
<glyph glyph-name="agrave" unicode="&#xe0;" horiz-adv-x="1110" d="M905 328 Q897 290 889.5 242.5 Q882 195 876.5 148.5 Q871 102 867.5 62 Q864 22 864 0 L694 0 Q695 20 697 48 Q699 76 702.5 106 Q706 136 709.5 165 Q713 194 717 215 L713 215 Q682 166 650 122.5 Q618 79 579 46 Q540 13 492 -6 Q444 -25 379 -25 Q312 -25 256.5 -1 Q201 23 161 70.5 Q121 118 99.5 189.5 Q78 261 78 356 Q78 414 90 488 Q102 562 130.5 639 Q159 716 206.5 789.5 Q254 863 324.5 921 Q395 979 491 1014 Q587 1049 713 1049 Q793 1049 878 1037 Q963 1025 1047 1008 L905 328 Z M858 889 Q823 897 776 903 Q729 909 688 909 Q601 909 534.5 881.5 Q468 854 419 809.5 Q370 765 336.5 707 Q303 649 283 588.5 Q263 528 254.5 469 Q246 410 246 362 Q246 305 256 259.5 Q266 214 287.5 182 Q309 150 342.5 132.5 Q376 115 422 115 Q472 115 515.5 135.5 Q559 156 597 191 Q635 226 666 272 Q697 318 722 369.5 Q747 421 764.5 474.5 Q782 528 793 578 L858 889 Z M774 1219 L535 1546 L688 1546 L895 1219 L774 1219 Z " />
<glyph glyph-name="acircumflex" unicode="&#xe2;" horiz-adv-x="1110" d="M905 328 Q897 290 889.5 242.5 Q882 195 876.5 148.5 Q871 102 867.5 62 Q864 22 864 0 L694 0 Q695 20 697 48 Q699 76 702.5 106 Q706 136 709.5 165 Q713 194 717 215 L713 215 Q682 166 650 122.5 Q618 79 579 46 Q540 13 492 -6 Q444 -25 379 -25 Q312 -25 256.5 -1 Q201 23 161 70.5 Q121 118 99.5 189.5 Q78 261 78 356 Q78 414 90 488 Q102 562 130.5 639 Q159 716 206.5 789.5 Q254 863 324.5 921 Q395 979 491 1014 Q587 1049 713 1049 Q793 1049 878 1037 Q963 1025 1047 1008 L905 328 Z M858 889 Q823 897 776 903 Q729 909 688 909 Q601 909 534.5 881.5 Q468 854 419 809.5 Q370 765 336.5 707 Q303 649 283 588.5 Q263 528 254.5 469 Q246 410 246 362 Q246 305 256 259.5 Q266 214 287.5 182 Q309 150 342.5 132.5 Q376 115 422 115 Q472 115 515.5 135.5 Q559 156 597 191 Q635 226 666 272 Q697 318 722 369.5 Q747 421 764.5 474.5 Q782 528 793 578 L858 889 Z M880 1219 L766 1450 L553 1219 L432 1219 L715 1550 L848 1550 L993 1219 L880 1219 Z " />
<glyph glyph-name="adieresis" unicode="&#xe4;" horiz-adv-x="1110" d="M905 328 Q897 290 889.5 242.5 Q882 195 876.5 148.5 Q871 102 867.5 62 Q864 22 864 0 L694 0 Q695 20 697 48 Q699 76 702.5 106 Q706 136 709.5 165 Q713 194 717 215 L713 215 Q682 166 650 122.5 Q618 79 579 46 Q540 13 492 -6 Q444 -25 379 -25 Q312 -25 256.5 -1 Q201 23 161 70.5 Q121 118 99.5 189.5 Q78 261 78 356 Q78 414 90 488 Q102 562 130.5 639 Q159 716 206.5 789.5 Q254 863 324.5 921 Q395 979 491 1014 Q587 1049 713 1049 Q793 1049 878 1037 Q963 1025 1047 1008 L905 328 Z M858 889 Q823 897 776 903 Q729 909 688 909 Q601 909 534.5 881.5 Q468 854 419 809.5 Q370 765 336.5 707 Q303 649 283 588.5 Q263 528 254.5 469 Q246 410 246 362 Q246 305 256 259.5 Q266 214 287.5 182 Q309 150 342.5 132.5 Q376 115 422 115 Q472 115 515.5 135.5 Q559 156 597 191 Q635 226 666 272 Q697 318 722 369.5 Q747 421 764.5 474.5 Q782 528 793 578 L858 889 Z M1002 1317 Q1002 1275 973 1247 Q944 1219 903 1219 Q863 1219 834 1246.5 Q805 1274 805 1317 Q805 1338 813 1356 Q821 1374 834 1387 Q847 1400 864.5 1407.5 Q882 1415 901 1415 Q922 1415 940.5 1407.5 Q959 1400 972.5 1386.5 Q986 1373 994 1355.5 Q1002 1338 1002 1317 Z M617 1317 Q617 1296 609 1278.5 Q601 1261 587.5 1247.5 Q574 1234 555.5 1226.5 Q537 1219 516 1219 Q497 1219 479 1226.5 Q461 1234 447.5 1247 Q434 1260 426 1278 Q418 1296 418 1317 Q418 1338 426 1356 Q434 1374 447.5 1387 Q461 1400 479 1407.5 Q497 1415 516 1415 Q537 1415 555.5 1407.5 Q574 1400 587.5 1386.5 Q601 1373 609 1355.5 Q617 1338 617 1317 Z " />
<glyph glyph-name="atilde" unicode="&#xe3;" horiz-adv-x="1110" d="M905 328 Q897 290 889.5 242.5 Q882 195 876.5 148.5 Q871 102 867.5 62 Q864 22 864 0 L694 0 Q695 20 697 48 Q699 76 702.5 106 Q706 136 709.5 165 Q713 194 717 215 L713 215 Q682 166 650 122.5 Q618 79 579 46 Q540 13 492 -6 Q444 -25 379 -25 Q312 -25 256.5 -1 Q201 23 161 70.5 Q121 118 99.5 189.5 Q78 261 78 356 Q78 414 90 488 Q102 562 130.5 639 Q159 716 206.5 789.5 Q254 863 324.5 921 Q395 979 491 1014 Q587 1049 713 1049 Q793 1049 878 1037 Q963 1025 1047 1008 L905 328 Z M858 889 Q823 897 776 903 Q729 909 688 909 Q601 909 534.5 881.5 Q468 854 419 809.5 Q370 765 336.5 707 Q303 649 283 588.5 Q263 528 254.5 469 Q246 410 246 362 Q246 305 256 259.5 Q266 214 287.5 182 Q309 150 342.5 132.5 Q376 115 422 115 Q472 115 515.5 135.5 Q559 156 597 191 Q635 226 666 272 Q697 318 722 369.5 Q747 421 764.5 474.5 Q782 528 793 578 L858 889 Z M1041 1458 Q1038 1413 1020.5 1373 Q1003 1333 974.5 1303 Q946 1273 907.5 1256 Q869 1239 824 1239 Q776 1239 743.5 1253.5 Q711 1268 685.5 1285 Q660 1302 636.5 1316.5 Q613 1331 582 1331 Q531 1331 501.5 1298 Q472 1265 467 1219 L371 1219 Q374 1267 392.5 1308 Q411 1349 441 1378 Q471 1407 511.5 1423.5 Q552 1440 599 1440 Q643 1440 672.5 1425 Q702 1410 727 1391.5 Q752 1373 776.5 1358 Q801 1343 834 1343 Q856 1343 875 1352 Q894 1361 909 1376.5 Q924 1392 933 1413 Q942 1434 945 1458 L1041 1458 Z " />
<glyph glyph-name="aring" unicode="&#xe5;" horiz-adv-x="1110" d="M905 328 Q897 290 889.5 242.5 Q882 195 876.5 148.5 Q871 102 867.5 62 Q864 22 864 0 L694 0 Q695 20 697 48 Q699 76 702.5 106 Q706 136 709.5 165 Q713 194 717 215 L713 215 Q682 166 650 122.5 Q618 79 579 46 Q540 13 492 -6 Q444 -25 379 -25 Q312 -25 256.5 -1 Q201 23 161 70.5 Q121 118 99.5 189.5 Q78 261 78 356 Q78 414 90 488 Q102 562 130.5 639 Q159 716 206.5 789.5 Q254 863 324.5 921 Q395 979 491 1014 Q587 1049 713 1049 Q793 1049 878 1037 Q963 1025 1047 1008 L905 328 Z M858 889 Q823 897 776 903 Q729 909 688 909 Q601 909 534.5 881.5 Q468 854 419 809.5 Q370 765 336.5 707 Q303 649 283 588.5 Q263 528 254.5 469 Q246 410 246 362 Q246 305 256 259.5 Q266 214 287.5 182 Q309 150 342.5 132.5 Q376 115 422 115 Q472 115 515.5 135.5 Q559 156 597 191 Q635 226 666 272 Q697 318 722 369.5 Q747 421 764.5 474.5 Q782 528 793 578 L858 889 Z M934 1374 Q934 1332 918 1296 Q902 1260 874 1233 Q846 1206 808 1191 Q770 1176 727 1176 Q684 1176 647 1189.5 Q610 1203 582.5 1228 Q555 1253 539.5 1288 Q524 1323 524 1366 Q524 1412 540.5 1449 Q557 1486 585 1511.5 Q613 1537 651.5 1551 Q690 1565 733 1565 Q778 1565 815 1551 Q852 1537 878.5 1511.5 Q905 1486 919.5 1451 Q934 1416 934 1374 Z M842 1372 Q842 1397 833 1417.5 Q824 1438 808.5 1452.5 Q793 1467 772 1475 Q751 1483 727 1483 Q678 1483 646.5 1451.5 Q615 1420 615 1372 Q615 1318 647 1287.5 Q679 1257 727 1257 Q752 1257 773 1266 Q794 1275 809.5 1291 Q825 1307 833.5 1327.5 Q842 1348 842 1372 Z " />
<glyph glyph-name="ccedilla" unicode="&#xe7;" horiz-adv-x="893" d="M715 49 Q652 15 587.5 -5 Q523 -25 449 -25 L432 -104 Q468 -104 500.5 -112.5 Q533 -121 557 -138 Q581 -155 595.5 -180 Q610 -205 610 -238 Q610 -327 535.5 -380.5 Q461 -434 317 -434 Q297 -434 274 -432.5 Q251 -431 229 -428 L248 -340 Q287 -346 324 -346 Q410 -346 452 -321 Q494 -296 494 -254 Q494 -219 465.5 -198.5 Q437 -178 375 -178 Q362 -178 347.5 -179 Q333 -180 319 -182 L356 -14 Q286 1 233.5 37 Q181 73 146.5 126.5 Q112 180 95 247.5 Q78 315 78 393 Q78 477 95 558.5 Q112 640 145.5 712.5 Q179 785 228 847 Q277 909 340.5 953.5 Q404 998 482 1023.5 Q560 1049 651 1049 Q694 1049 733 1043 Q772 1037 804 1027 Q836 1017 861 1005.5 Q886 994 901 983 L864 821 Q822 858 762.5 883.5 Q703 909 631 909 Q562 909 506.5 885 Q451 861 408 821 Q365 781 334 729 Q303 677 283 621 Q263 565 253.5 509.5 Q244 454 244 406 Q244 263 307 189 Q370 115 479 115 Q545 115 616 142.5 Q687 170 750 213 L715 49 Z " />
<glyph glyph-name="eacute" unicode="&#xe9;" horiz-adv-x="997" d="M958 784 Q958 703 922 636.5 Q886 570 803 522.5 Q720 475 584 449 Q448 423 248 422 Q246 411 246 399 Q246 388 246 379 Q246 325 261 277 Q276 229 307.5 193 Q339 157 388.5 136 Q438 115 506 115 Q575 115 657.5 141.5 Q740 168 815 217 L784 55 Q729 23 653 -1 Q577 -25 483 -25 Q370 -25 292.5 10 Q215 45 167.5 103.5 Q120 162 99 238.5 Q78 315 78 399 Q78 489 98 572.5 Q118 656 154.5 728 Q191 800 242 859.5 Q293 919 355 961 Q417 1003 488 1026 Q559 1049 635 1049 Q714 1049 774.5 1028 Q835 1007 875.5 970.5 Q916 934 937 886 Q958 838 958 784 Z M791 776 Q791 839 744.5 874 Q698 909 621 909 Q560 909 503 882.5 Q446 856 398 809.5 Q350 763 315 698.5 Q280 634 264 559 Q407 559 507 573.5 Q607 588 670 616 Q733 644 762 684.5 Q791 725 791 776 Z M623 1219 L500 1219 L789 1546 L950 1546 L623 1219 Z " />
<glyph glyph-name="egrave" unicode="&#xe8;" horiz-adv-x="997" d="M958 784 Q958 703 922 636.5 Q886 570 803 522.5 Q720 475 584 449 Q448 423 248 422 Q246 411 246 399 Q246 388 246 379 Q246 325 261 277 Q276 229 307.5 193 Q339 157 388.5 136 Q438 115 506 115 Q575 115 657.5 141.5 Q740 168 815 217 L784 55 Q729 23 653 -1 Q577 -25 483 -25 Q370 -25 292.5 10 Q215 45 167.5 103.5 Q120 162 99 238.5 Q78 315 78 399 Q78 489 98 572.5 Q118 656 154.5 728 Q191 800 242 859.5 Q293 919 355 961 Q417 1003 488 1026 Q559 1049 635 1049 Q714 1049 774.5 1028 Q835 1007 875.5 970.5 Q916 934 937 886 Q958 838 958 784 Z M791 776 Q791 839 744.5 874 Q698 909 621 909 Q560 909 503 882.5 Q446 856 398 809.5 Q350 763 315 698.5 Q280 634 264 559 Q407 559 507 573.5 Q607 588 670 616 Q733 644 762 684.5 Q791 725 791 776 Z M700 1219 L461 1546 L614 1546 L821 1219 L700 1219 Z " />
<glyph glyph-name="ecircumflex" unicode="&#xea;" horiz-adv-x="997" d="M958 784 Q958 703 922 636.5 Q886 570 803 522.5 Q720 475 584 449 Q448 423 248 422 Q246 411 246 399 Q246 388 246 379 Q246 325 261 277 Q276 229 307.5 193 Q339 157 388.5 136 Q438 115 506 115 Q575 115 657.5 141.5 Q740 168 815 217 L784 55 Q729 23 653 -1 Q577 -25 483 -25 Q370 -25 292.5 10 Q215 45 167.5 103.5 Q120 162 99 238.5 Q78 315 78 399 Q78 489 98 572.5 Q118 656 154.5 728 Q191 800 242 859.5 Q293 919 355 961 Q417 1003 488 1026 Q559 1049 635 1049 Q714 1049 774.5 1028 Q835 1007 875.5 970.5 Q916 934 937 886 Q958 838 958 784 Z M791 776 Q791 839 744.5 874 Q698 909 621 909 Q560 909 503 882.5 Q446 856 398 809.5 Q350 763 315 698.5 Q280 634 264 559 Q407 559 507 573.5 Q607 588 670 616 Q733 644 762 684.5 Q791 725 791 776 Z M815 1219 L701 1450 L488 1219 L367 1219 L650 1550 L783 1550 L928 1219 L815 1219 Z " />
<glyph glyph-name="edieresis" unicode="&#xeb;" horiz-adv-x="997" d="M958 784 Q958 703 922 636.5 Q886 570 803 522.5 Q720 475 584 449 Q448 423 248 422 Q246 411 246 399 Q246 388 246 379 Q246 325 261 277 Q276 229 307.5 193 Q339 157 388.5 136 Q438 115 506 115 Q575 115 657.5 141.5 Q740 168 815 217 L784 55 Q729 23 653 -1 Q577 -25 483 -25 Q370 -25 292.5 10 Q215 45 167.5 103.5 Q120 162 99 238.5 Q78 315 78 399 Q78 489 98 572.5 Q118 656 154.5 728 Q191 800 242 859.5 Q293 919 355 961 Q417 1003 488 1026 Q559 1049 635 1049 Q714 1049 774.5 1028 Q835 1007 875.5 970.5 Q916 934 937 886 Q958 838 958 784 Z M791 776 Q791 839 744.5 874 Q698 909 621 909 Q560 909 503 882.5 Q446 856 398 809.5 Q350 763 315 698.5 Q280 634 264 559 Q407 559 507 573.5 Q607 588 670 616 Q733 644 762 684.5 Q791 725 791 776 Z M940 1317 Q940 1275 911 1247 Q882 1219 841 1219 Q801 1219 772 1246.5 Q743 1274 743 1317 Q743 1338 751 1356 Q759 1374 772 1387 Q785 1400 802.5 1407.5 Q820 1415 839 1415 Q860 1415 878.5 1407.5 Q897 1400 910.5 1386.5 Q924 1373 932 1355.5 Q940 1338 940 1317 Z M555 1317 Q555 1296 547 1278.5 Q539 1261 525.5 1247.5 Q512 1234 493.5 1226.5 Q475 1219 454 1219 Q435 1219 417 1226.5 Q399 1234 385.5 1247 Q372 1260 364 1278 Q356 1296 356 1317 Q356 1338 364 1356 Q372 1374 385.5 1387 Q399 1400 417 1407.5 Q435 1415 454 1415 Q475 1415 493.5 1407.5 Q512 1400 525.5 1386.5 Q539 1373 547 1355.5 Q555 1338 555 1317 Z " />
<glyph glyph-name="iacute" unicode="&#xed;" horiz-adv-x="530" d="M416 4 Q391 -4 359.5 -9 Q328 -14 297 -14 Q196 -14 146 36.5 Q96 87 96 172 Q96 197 101 231 Q106 265 117 315 L266 1024 L432 1024 L282 311 Q273 269 269.5 246 Q266 223 266 207 Q266 166 288.5 144.5 Q311 123 360 123 Q386 123 405.5 126 Q425 129 442 135 L416 4 Z M335 1219 L212 1219 L501 1546 L662 1546 L335 1219 Z " />
<glyph glyph-name="igrave" unicode="&#xec;" horiz-adv-x="530" d="M416 4 Q391 -4 359.5 -9 Q328 -14 297 -14 Q196 -14 146 36.5 Q96 87 96 172 Q96 197 101 231 Q106 265 117 315 L266 1024 L432 1024 L282 311 Q273 269 269.5 246 Q266 223 266 207 Q266 166 288.5 144.5 Q311 123 360 123 Q386 123 405.5 126 Q425 129 442 135 L416 4 Z M437 1219 L198 1546 L351 1546 L558 1219 L437 1219 Z " />
<glyph glyph-name="icircumflex" unicode="&#xee;" horiz-adv-x="530" d="M416 4 Q391 -4 359.5 -9 Q328 -14 297 -14 Q196 -14 146 36.5 Q96 87 96 172 Q96 197 101 231 Q106 265 117 315 L266 1024 L432 1024 L282 311 Q273 269 269.5 246 Q266 223 266 207 Q266 166 288.5 144.5 Q311 123 360 123 Q386 123 405.5 126 Q425 129 442 135 L416 4 Z M547 1219 L433 1450 L220 1219 L99 1219 L382 1550 L515 1550 L660 1219 L547 1219 Z " />
<glyph glyph-name="idieresis" unicode="&#xef;" horiz-adv-x="530" d="M416 4 Q391 -4 359.5 -9 Q328 -14 297 -14 Q196 -14 146 36.5 Q96 87 96 172 Q96 197 101 231 Q106 265 117 315 L266 1024 L432 1024 L282 311 Q273 269 269.5 246 Q266 223 266 207 Q266 166 288.5 144.5 Q311 123 360 123 Q386 123 405.5 126 Q425 129 442 135 L416 4 Z M687 1317 Q687 1275 658 1247 Q629 1219 588 1219 Q548 1219 519 1246.5 Q490 1274 490 1317 Q490 1338 498 1356 Q506 1374 519 1387 Q532 1400 549.5 1407.5 Q567 1415 586 1415 Q607 1415 625.5 1407.5 Q644 1400 657.5 1386.5 Q671 1373 679 1355.5 Q687 1338 687 1317 Z M302 1317 Q302 1296 294 1278.5 Q286 1261 272.5 1247.5 Q259 1234 240.5 1226.5 Q222 1219 201 1219 Q182 1219 164 1226.5 Q146 1234 132.5 1247 Q119 1260 111 1278 Q103 1296 103 1317 Q103 1338 111 1356 Q119 1374 132.5 1387 Q146 1400 164 1407.5 Q182 1415 201 1415 Q222 1415 240.5 1407.5 Q259 1400 272.5 1386.5 Q286 1373 294 1355.5 Q302 1338 302 1317 Z " />
<glyph glyph-name="ntilde" unicode="&#xf1;" horiz-adv-x="1151" d="M1046 768 Q1046 753 1042.5 727 Q1039 701 1033.5 671 Q1028 641 1022.5 611.5 Q1017 582 1012 561 L893 0 L727 0 L852 600 Q856 616 860 637 Q864 658 867 679 Q870 700 872 717.5 Q874 735 874 745 Q874 821 837.5 865 Q801 909 729 909 Q663 909 598 870 Q533 831 478 771 Q423 711 383.5 639 Q344 567 330 500 L223 0 L57 0 L215 731 Q223 770 231 812.5 Q239 855 246 894.5 Q253 934 258 968 Q263 1002 266 1024 L426 1024 Q421 985 414 942.5 Q407 900 402 864 Q396 822 389 782 L393 782 Q428 837 470.5 885.5 Q513 934 562.5 970.5 Q612 1007 667.5 1028 Q723 1049 784 1049 Q852 1049 901 1028.5 Q950 1008 982.5 971 Q1015 934 1030.5 882 Q1046 830 1046 768 Z M1041 1458 Q1038 1413 1020.5 1373 Q1003 1333 974.5 1303 Q946 1273 907.5 1256 Q869 1239 824 1239 Q776 1239 743.5 1253.5 Q711 1268 685.5 1285 Q660 1302 636.5 1316.5 Q613 1331 582 1331 Q531 1331 501.5 1298 Q472 1265 467 1219 L371 1219 Q374 1267 392.5 1308 Q411 1349 441 1378 Q471 1407 511.5 1423.5 Q552 1440 599 1440 Q643 1440 672.5 1425 Q702 1410 727 1391.5 Q752 1373 776.5 1358 Q801 1343 834 1343 Q856 1343 875 1352 Q894 1361 909 1376.5 Q924 1392 933 1413 Q942 1434 945 1458 L1041 1458 Z " />
<glyph glyph-name="oacute" unicode="&#xf3;" horiz-adv-x="1096" d="M1018 645 Q1018 509 979.5 387 Q941 265 868.5 173.5 Q796 82 692.5 28.5 Q589 -25 459 -25 Q371 -25 300.5 3 Q230 31 180.5 83.5 Q131 136 104.5 210.5 Q78 285 78 379 Q78 520 118.5 642.5 Q159 765 232.5 855.5 Q306 946 408.5 997.5 Q511 1049 635 1049 Q722 1049 792.5 1021 Q863 993 913 940.5 Q963 888 990.5 813.5 Q1018 739 1018 645 Z M850 637 Q850 702 834 752.5 Q818 803 789 837.5 Q760 872 719 890.5 Q678 909 627 909 Q539 909 468 864 Q397 819 348 745.5 Q299 672 272.5 578.5 Q246 485 246 387 Q246 325 261.5 274.5 Q277 224 305.5 188.5 Q334 153 375.5 134 Q417 115 469 115 Q558 115 629 159.5 Q700 204 749 277.5 Q798 351 824 445 Q850 539 850 637 Z M639 1219 L516 1219 L805 1546 L966 1546 L639 1219 Z " />
<glyph glyph-name="ograve" unicode="&#xf2;" horiz-adv-x="1096" d="M1018 645 Q1018 509 979.5 387 Q941 265 868.5 173.5 Q796 82 692.5 28.5 Q589 -25 459 -25 Q371 -25 300.5 3 Q230 31 180.5 83.5 Q131 136 104.5 210.5 Q78 285 78 379 Q78 520 118.5 642.5 Q159 765 232.5 855.5 Q306 946 408.5 997.5 Q511 1049 635 1049 Q722 1049 792.5 1021 Q863 993 913 940.5 Q963 888 990.5 813.5 Q1018 739 1018 645 Z M850 637 Q850 702 834 752.5 Q818 803 789 837.5 Q760 872 719 890.5 Q678 909 627 909 Q539 909 468 864 Q397 819 348 745.5 Q299 672 272.5 578.5 Q246 485 246 387 Q246 325 261.5 274.5 Q277 224 305.5 188.5 Q334 153 375.5 134 Q417 115 469 115 Q558 115 629 159.5 Q700 204 749 277.5 Q798 351 824 445 Q850 539 850 637 Z M745 1219 L506 1546 L659 1546 L866 1219 L745 1219 Z " />
<glyph glyph-name="ocircumflex" unicode="&#xf4;" horiz-adv-x="1096" d="M1018 645 Q1018 509 979.5 387 Q941 265 868.5 173.5 Q796 82 692.5 28.5 Q589 -25 459 -25 Q371 -25 300.5 3 Q230 31 180.5 83.5 Q131 136 104.5 210.5 Q78 285 78 379 Q78 520 118.5 642.5 Q159 765 232.5 855.5 Q306 946 408.5 997.5 Q511 1049 635 1049 Q722 1049 792.5 1021 Q863 993 913 940.5 Q963 888 990.5 813.5 Q1018 739 1018 645 Z M850 637 Q850 702 834 752.5 Q818 803 789 837.5 Q760 872 719 890.5 Q678 909 627 909 Q539 909 468 864 Q397 819 348 745.5 Q299 672 272.5 578.5 Q246 485 246 387 Q246 325 261.5 274.5 Q277 224 305.5 188.5 Q334 153 375.5 134 Q417 115 469 115 Q558 115 629 159.5 Q700 204 749 277.5 Q798 351 824 445 Q850 539 850 637 Z M827 1219 L713 1450 L500 1219 L379 1219 L662 1550 L795 1550 L940 1219 L827 1219 Z " />
<glyph glyph-name="odieresis" unicode="&#xf6;" horiz-adv-x="1096" d="M1018 645 Q1018 509 979.5 387 Q941 265 868.5 173.5 Q796 82 692.5 28.5 Q589 -25 459 -25 Q371 -25 300.5 3 Q230 31 180.5 83.5 Q131 136 104.5 210.5 Q78 285 78 379 Q78 520 118.5 642.5 Q159 765 232.5 855.5 Q306 946 408.5 997.5 Q511 1049 635 1049 Q722 1049 792.5 1021 Q863 993 913 940.5 Q963 888 990.5 813.5 Q1018 739 1018 645 Z M850 637 Q850 702 834 752.5 Q818 803 789 837.5 Q760 872 719 890.5 Q678 909 627 909 Q539 909 468 864 Q397 819 348 745.5 Q299 672 272.5 578.5 Q246 485 246 387 Q246 325 261.5 274.5 Q277 224 305.5 188.5 Q334 153 375.5 134 Q417 115 469 115 Q558 115 629 159.5 Q700 204 749 277.5 Q798 351 824 445 Q850 539 850 637 Z M971 1317 Q971 1275 942 1247 Q913 1219 872 1219 Q832 1219 803 1246.5 Q774 1274 774 1317 Q774 1338 782 1356 Q790 1374 803 1387 Q816 1400 833.5 1407.5 Q851 1415 870 1415 Q891 1415 909.5 1407.5 Q928 1400 941.5 1386.5 Q955 1373 963 1355.5 Q971 1338 971 1317 Z M586 1317 Q586 1296 578 1278.5 Q570 1261 556.5 1247.5 Q543 1234 524.5 1226.5 Q506 1219 485 1219 Q466 1219 448 1226.5 Q430 1234 416.5 1247 Q403 1260 395 1278 Q387 1296 387 1317 Q387 1338 395 1356 Q403 1374 416.5 1387 Q430 1400 448 1407.5 Q466 1415 485 1415 Q506 1415 524.5 1407.5 Q543 1400 556.5 1386.5 Q570 1373 578 1355.5 Q586 1338 586 1317 Z " />
<glyph glyph-name="otilde" unicode="&#xf5;" horiz-adv-x="1096" d="M1018 645 Q1018 509 979.5 387 Q941 265 868.5 173.5 Q796 82 692.5 28.5 Q589 -25 459 -25 Q371 -25 300.5 3 Q230 31 180.5 83.5 Q131 136 104.5 210.5 Q78 285 78 379 Q78 520 118.5 642.5 Q159 765 232.5 855.5 Q306 946 408.5 997.5 Q511 1049 635 1049 Q722 1049 792.5 1021 Q863 993 913 940.5 Q963 888 990.5 813.5 Q1018 739 1018 645 Z M850 637 Q850 702 834 752.5 Q818 803 789 837.5 Q760 872 719 890.5 Q678 909 627 909 Q539 909 468 864 Q397 819 348 745.5 Q299 672 272.5 578.5 Q246 485 246 387 Q246 325 261.5 274.5 Q277 224 305.5 188.5 Q334 153 375.5 134 Q417 115 469 115 Q558 115 629 159.5 Q700 204 749 277.5 Q798 351 824 445 Q850 539 850 637 Z M1020 1458 Q1017 1413 999.5 1373 Q982 1333 953.5 1303 Q925 1273 886.5 1256 Q848 1239 803 1239 Q755 1239 722.5 1253.5 Q690 1268 664.5 1285 Q639 1302 615.5 1316.5 Q592 1331 561 1331 Q510 1331 480.5 1298 Q451 1265 446 1219 L350 1219 Q353 1267 371.5 1308 Q390 1349 420 1378 Q450 1407 490.5 1423.5 Q531 1440 578 1440 Q622 1440 651.5 1425 Q681 1410 706 1391.5 Q731 1373 755.5 1358 Q780 1343 813 1343 Q835 1343 854 1352 Q873 1361 888 1376.5 Q903 1392 912 1413 Q921 1434 924 1458 L1020 1458 Z " />
<glyph glyph-name="uacute" unicode="&#xfa;" horiz-adv-x="1143" d="M930 291 Q921 252 913.5 210 Q906 168 899 129 Q892 90 887 56 Q882 22 879 0 L719 0 Q724 39 730.5 81.5 Q737 124 743 160 Q750 202 756 242 L752 242 Q717 187 674.5 138.5 Q632 90 582.5 53.5 Q533 17 477.5 -4 Q422 -25 362 -25 Q296 -25 246.5 -4.5 Q197 16 164 53 Q131 90 114.5 142 Q98 194 98 258 Q98 271 102 297 Q106 323 111 353 Q116 383 122.5 412.5 Q129 442 133 463 L252 1024 L418 1024 L291 424 Q287 408 283 387 Q279 366 275.5 345 Q272 324 270 306.5 Q268 289 268 279 Q268 204 304.5 159.5 Q341 115 414 115 Q458 115 502 133 Q546 151 587.5 181.5 Q629 212 666 252.5 Q703 293 733 338.5 Q763 384 784 432 Q805 480 815 524 L922 1024 L1087 1024 L930 291 Z M678 1219 L555 1219 L844 1546 L1005 1546 L678 1219 Z " />
<glyph glyph-name="ugrave" unicode="&#xf9;" horiz-adv-x="1143" d="M930 291 Q921 252 913.5 210 Q906 168 899 129 Q892 90 887 56 Q882 22 879 0 L719 0 Q724 39 730.5 81.5 Q737 124 743 160 Q750 202 756 242 L752 242 Q717 187 674.5 138.5 Q632 90 582.5 53.5 Q533 17 477.5 -4 Q422 -25 362 -25 Q296 -25 246.5 -4.5 Q197 16 164 53 Q131 90 114.5 142 Q98 194 98 258 Q98 271 102 297 Q106 323 111 353 Q116 383 122.5 412.5 Q129 442 133 463 L252 1024 L418 1024 L291 424 Q287 408 283 387 Q279 366 275.5 345 Q272 324 270 306.5 Q268 289 268 279 Q268 204 304.5 159.5 Q341 115 414 115 Q458 115 502 133 Q546 151 587.5 181.5 Q629 212 666 252.5 Q703 293 733 338.5 Q763 384 784 432 Q805 480 815 524 L922 1024 L1087 1024 L930 291 Z M743 1219 L504 1546 L657 1546 L864 1219 L743 1219 Z " />
<glyph glyph-name="ucircumflex" unicode="&#xfb;" horiz-adv-x="1143" d="M930 291 Q921 252 913.5 210 Q906 168 899 129 Q892 90 887 56 Q882 22 879 0 L719 0 Q724 39 730.5 81.5 Q737 124 743 160 Q750 202 756 242 L752 242 Q717 187 674.5 138.5 Q632 90 582.5 53.5 Q533 17 477.5 -4 Q422 -25 362 -25 Q296 -25 246.5 -4.5 Q197 16 164 53 Q131 90 114.5 142 Q98 194 98 258 Q98 271 102 297 Q106 323 111 353 Q116 383 122.5 412.5 Q129 442 133 463 L252 1024 L418 1024 L291 424 Q287 408 283 387 Q279 366 275.5 345 Q272 324 270 306.5 Q268 289 268 279 Q268 204 304.5 159.5 Q341 115 414 115 Q458 115 502 133 Q546 151 587.5 181.5 Q629 212 666 252.5 Q703 293 733 338.5 Q763 384 784 432 Q805 480 815 524 L922 1024 L1087 1024 L930 291 Z M852 1219 L738 1450 L525 1219 L404 1219 L687 1550 L820 1550 L965 1219 L852 1219 Z " />
<glyph glyph-name="udieresis" unicode="&#xfc;" horiz-adv-x="1143" d="M930 291 Q921 252 913.5 210 Q906 168 899 129 Q892 90 887 56 Q882 22 879 0 L719 0 Q724 39 730.5 81.5 Q737 124 743 160 Q750 202 756 242 L752 242 Q717 187 674.5 138.5 Q632 90 582.5 53.5 Q533 17 477.5 -4 Q422 -25 362 -25 Q296 -25 246.5 -4.5 Q197 16 164 53 Q131 90 114.5 142 Q98 194 98 258 Q98 271 102 297 Q106 323 111 353 Q116 383 122.5 412.5 Q129 442 133 463 L252 1024 L418 1024 L291 424 Q287 408 283 387 Q279 366 275.5 345 Q272 324 270 306.5 Q268 289 268 279 Q268 204 304.5 159.5 Q341 115 414 115 Q458 115 502 133 Q546 151 587.5 181.5 Q629 212 666 252.5 Q703 293 733 338.5 Q763 384 784 432 Q805 480 815 524 L922 1024 L1087 1024 L930 291 Z M1000 1317 Q1000 1275 971 1247 Q942 1219 901 1219 Q861 1219 832 1246.5 Q803 1274 803 1317 Q803 1338 811 1356 Q819 1374 832 1387 Q845 1400 862.5 1407.5 Q880 1415 899 1415 Q920 1415 938.5 1407.5 Q957 1400 970.5 1386.5 Q984 1373 992 1355.5 Q1000 1338 1000 1317 Z M615 1317 Q615 1296 607 1278.5 Q599 1261 585.5 1247.5 Q572 1234 553.5 1226.5 Q535 1219 514 1219 Q495 1219 477 1226.5 Q459 1234 445.5 1247 Q432 1260 424 1278 Q416 1296 416 1317 Q416 1338 424 1356 Q432 1374 445.5 1387 Q459 1400 477 1407.5 Q495 1415 514 1415 Q535 1415 553.5 1407.5 Q572 1400 585.5 1386.5 Q599 1373 607 1355.5 Q615 1338 615 1317 Z " />
<glyph glyph-name="dagger" unicode="&#x2020;" horiz-adv-x="770" d="M806 893 L550 923 L363 229 L287 229 L394 923 L126 893 L158 1043 L455 1023 L502 1433 L658 1433 L531 1023 L838 1043 L806 893 Z " />
<glyph glyph-name="degree" unicode="&#xb0;" horiz-adv-x="772" d="M801 1176 Q801 1118 779 1067.5 Q757 1017 719 979 Q681 941 630.5 919 Q580 897 522 897 Q465 897 414.5 919 Q364 941 326.5 979 Q289 1017 267.5 1067.5 Q246 1118 246 1176 Q246 1233 267.5 1283 Q289 1333 326.5 1370 Q364 1407 414.5 1428.5 Q465 1450 522 1450 Q580 1450 630.5 1428.5 Q681 1407 719 1370 Q757 1333 779 1283 Q801 1233 801 1176 Z M682 1176 Q682 1209 669.5 1237.5 Q657 1266 635 1287.5 Q613 1309 584 1321 Q555 1333 522 1333 Q490 1333 461.5 1321 Q433 1309 411.5 1287.5 Q390 1266 377.5 1237.5 Q365 1209 365 1176 Q365 1143 377.5 1113.5 Q390 1084 411.5 1062 Q433 1040 461.5 1027 Q490 1014 522 1014 Q554 1014 583 1027 Q612 1040 634 1062 Q656 1084 669 1113.5 Q682 1143 682 1176 Z " />
<glyph glyph-name="cent" unicode="&#xa2;" horiz-adv-x="1104" d="M999 993 Q970 1025 925 1049.5 Q880 1074 823 1083 L657 303 Q717 309 772.5 333 Q828 357 885 399 L852 231 Q809 204 752.5 183.5 Q696 163 627 158 L584 -49 L457 -49 L500 162 Q425 175 367.5 211.5 Q310 248 270.5 302 Q231 356 210.5 425 Q190 494 190 573 Q190 659 204.5 732.5 Q219 806 245 869 Q271 932 307 985 Q343 1038 385 1081 Q419 1115 459.5 1141 Q500 1167 544.5 1185 Q589 1203 635.5 1213.5 Q682 1224 727 1227 L766 1413 L893 1413 L854 1223 Q916 1215 965 1199.5 Q1014 1184 1038 1165 L999 993 Z M696 1079 Q636 1067 585 1037.5 Q534 1008 494 963 Q463 928 438 884.5 Q413 841 396.5 792 Q380 743 371 690.5 Q362 638 362 586 Q362 473 408.5 405 Q455 337 532 315 L696 1079 Z " />
<glyph glyph-name="sterling" unicode="&#xa3;" horiz-adv-x="1104" d="M1100 1262 Q1058 1289 1008.5 1304 Q959 1319 905 1319 Q795 1319 719 1244.5 Q643 1170 608 1004 L559 776 L856 776 L825 635 L530 635 L489 451 Q466 338 406 260.5 Q346 183 252 139 L940 139 L911 0 L10 0 L41 135 Q160 169 230.5 250 Q301 331 326 449 L365 635 L168 635 L197 776 L395 776 L451 1036 Q474 1142 517.5 1221.5 Q561 1301 620.5 1353.5 Q680 1406 754.5 1432 Q829 1458 913 1458 Q983 1458 1040 1446 Q1097 1434 1133 1417 L1100 1262 Z " />
<glyph glyph-name="section" unicode="&#xa7;" horiz-adv-x="918" d="M893 1305 Q856 1328 803.5 1345 Q751 1362 698 1362 Q652 1362 613 1352 Q574 1342 546 1321.5 Q518 1301 502.5 1271 Q487 1241 487 1202 Q487 1165 500.5 1136 Q514 1107 536.5 1083 Q559 1059 589 1038.5 Q619 1018 651 997 Q709 960 746 925 Q783 890 804.5 855 Q826 820 834 784.5 Q842 749 842 711 Q842 661 824.5 615 Q807 569 776.5 530 Q746 491 705 461.5 Q664 432 616 414 Q645 373 659.5 335.5 Q674 298 674 250 Q674 189 653 132 Q632 75 586 31 Q540 -13 466.5 -39.5 Q393 -66 289 -66 Q253 -66 216.5 -61.5 Q180 -57 147 -50 Q114 -43 87 -34 Q60 -25 43 -16 L74 135 Q97 120 125.5 106.5 Q154 93 184.5 83.5 Q215 74 246 68.5 Q277 63 305 63 Q408 63 463 104 Q518 145 518 219 Q518 252 506.5 279.5 Q495 307 473 331.5 Q451 356 418 380.5 Q385 405 342 432 Q307 455 276 482.5 Q245 510 222 543 Q199 576 185.5 615 Q172 654 172 700 Q172 756 191 802 Q210 848 241.5 884.5 Q273 921 314.5 948 Q356 975 401 993 Q374 1028 353 1073 Q332 1118 332 1167 Q332 1255 364.5 1316.5 Q397 1378 449.5 1417 Q502 1456 568.5 1473.5 Q635 1491 702 1491 Q728 1491 757.5 1488 Q787 1485 817 1480 Q847 1475 874.5 1467 Q902 1459 924 1450 L893 1305 Z M684 688 Q684 709 679 730.5 Q674 752 660 775 Q646 798 622 821 Q598 844 559 868 Q537 882 519.5 894.5 Q502 907 479 924 Q411 896 370.5 847.5 Q330 799 330 733 Q330 705 334.5 682.5 Q339 660 353.5 638 Q368 616 394 593 Q420 570 463 541 Q483 527 503.5 514.5 Q524 502 541 483 Q615 517 649.5 573 Q684 629 684 688 Z " />
<glyph glyph-name="bullet" unicode="&#x2022;" horiz-adv-x="829" d="M698 635 Q698 582 677.5 535.5 Q657 489 622 454 Q587 419 540 399 Q493 379 440 379 Q387 379 340.5 399 Q294 419 259 454 Q224 489 204 535.5 Q184 582 184 635 Q184 688 204.5 735 Q225 782 260 817 Q295 852 342 872.5 Q389 893 442 893 Q495 893 542 872.5 Q589 852 623.5 817 Q658 782 678 735 Q698 688 698 635 Z " />
<glyph glyph-name="paragraph" unicode="&#xb6;" horiz-adv-x="938" d="M778 1331 L778 0 L672 0 L672 1331 L514 1331 L514 0 L406 0 L406 903 Q354 903 308.5 922.5 Q263 942 229 977 Q195 1012 175.5 1061 Q156 1110 156 1169 Q156 1232 177.5 1281.5 Q199 1331 235 1364.5 Q271 1398 317 1416 Q363 1434 412 1434 L905 1434 L905 1331 L778 1331 Z " />
<glyph glyph-name="germandbls" unicode="&#xdf;" horiz-adv-x="1106" d="M1077 1221 Q1077 1133 1046 1063.5 Q1015 994 966.5 942 Q918 890 858 857 Q798 824 739 809 L739 805 Q811 790 864 756 Q917 722 952 673.5 Q987 625 1004.5 565 Q1022 505 1022 440 Q1022 352 993.5 268.5 Q965 185 906.5 119.5 Q848 54 758 14.5 Q668 -25 545 -25 Q522 -25 495 -22.5 Q468 -20 442.5 -15.5 Q417 -11 395 -5.5 Q373 0 360 6 L395 162 Q411 151 432 142.5 Q453 134 475 128 Q497 122 518 118.5 Q539 115 555 115 Q639 115 695.5 145 Q752 175 787 222 Q822 269 837 326.5 Q852 384 852 438 Q852 501 834.5 554 Q817 607 780.5 646.5 Q744 686 687.5 710 Q631 734 553 739 L580 872 Q657 884 718 913 Q779 942 821.5 985.5 Q864 1029 886.5 1086 Q909 1143 909 1210 Q909 1249 897.5 1284 Q886 1319 863.5 1345 Q841 1371 809 1386 Q777 1401 735 1401 Q683 1401 639.5 1384 Q596 1367 561 1329.5 Q526 1292 499.5 1231.5 Q473 1171 455 1085 L223 0 L57 0 L299 1137 Q319 1230 355 1304.5 Q391 1379 446 1431.5 Q501 1484 576 1512 Q651 1540 748 1540 Q827 1540 888 1515 Q949 1490 991 1447 Q1033 1404 1055 1346 Q1077 1288 1077 1221 Z " />
<glyph glyph-name="sfthyphen" unicode="&#xad;" horiz-adv-x="819" d="M678 506 L131 506 L160 635 L707 635 L678 506 Z " />
<glyph glyph-name="registered" unicode="&#xae;" horiz-adv-x="1862" d="M1720 719 Q1720 614 1694 517.5 Q1668 421 1619.5 338.5 Q1571 256 1503.5 189 Q1436 122 1352.5 74.5 Q1269 27 1172 1 Q1075 -25 969 -25 Q808 -25 670.5 30.5 Q533 86 432.5 184.5 Q332 283 275.5 418 Q219 553 219 713 Q219 817 245 913 Q271 1009 319 1091.5 Q367 1174 435 1241.5 Q503 1309 586.5 1357.5 Q670 1406 768 1432 Q866 1458 973 1458 Q1128 1458 1264 1404 Q1400 1350 1501.5 1252 Q1603 1154 1661.5 1018.5 Q1720 883 1720 719 Z M1630 715 Q1630 858 1578 979 Q1526 1100 1437 1188.5 Q1348 1277 1228 1326.5 Q1108 1376 971 1376 Q827 1376 705 1325 Q583 1274 494.5 1184.5 Q406 1095 356.5 974.5 Q307 854 307 715 Q307 619 330.5 532.5 Q354 446 397.5 372 Q441 298 501.5 238.5 Q562 179 636 137.5 Q710 96 794.5 73.5 Q879 51 971 51 Q1106 51 1226 101 Q1346 151 1435.5 240 Q1525 329 1577.5 450.5 Q1630 572 1630 715 Z M1171 248 L1067 477 Q1052 511 1034.5 542 Q1017 573 996 597 Q975 621 950.5 635 Q926 649 897 649 L809 649 L809 248 L676 248 L676 1202 L942 1202 Q1038 1202 1104.5 1180 Q1171 1158 1213 1122 Q1255 1086 1273.5 1039 Q1292 992 1292 942 Q1292 894 1276 852 Q1260 810 1229.5 776 Q1199 742 1154 718 Q1109 694 1051 682 L1051 678 Q1072 674 1091.5 662.5 Q1111 651 1129.5 630 Q1148 609 1167.5 578 Q1187 547 1208 502 L1333 248 L1171 248 Z M1149 926 Q1149 965 1138.5 995 Q1128 1025 1103 1045.5 Q1078 1066 1035.5 1076.5 Q993 1087 928 1087 L809 1087 L809 762 L952 762 Q995 762 1031 772.5 Q1067 783 1093.5 804 Q1120 825 1134.5 855.5 Q1149 886 1149 926 Z " />
<glyph glyph-name="copyright" unicode="&#xa9;" horiz-adv-x="1862" d="M1720 719 Q1720 614 1694 517.5 Q1668 421 1619.5 338.5 Q1571 256 1503.5 189 Q1436 122 1352.5 74.5 Q1269 27 1172 1 Q1075 -25 969 -25 Q808 -25 670.5 30.5 Q533 86 432.5 184.5 Q332 283 275.5 418 Q219 553 219 713 Q219 817 245 913 Q271 1009 319 1091.5 Q367 1174 435 1241.5 Q503 1309 586.5 1357.5 Q670 1406 768 1432 Q866 1458 973 1458 Q1128 1458 1264 1404 Q1400 1350 1501.5 1252 Q1603 1154 1661.5 1018.5 Q1720 883 1720 719 Z M1630 715 Q1630 858 1578 979 Q1526 1100 1437 1188.5 Q1348 1277 1228 1326.5 Q1108 1376 971 1376 Q827 1376 705 1325 Q583 1274 494.5 1184.5 Q406 1095 356.5 974.5 Q307 854 307 715 Q307 619 330.5 532.5 Q354 446 397.5 372 Q441 298 501.5 238.5 Q562 179 636 137.5 Q710 96 794.5 73.5 Q879 51 971 51 Q1106 51 1226 101 Q1346 151 1435.5 240 Q1525 329 1577.5 450.5 Q1630 572 1630 715 Z M1270 266 Q1252 256 1225.5 243.5 Q1199 231 1164.5 221 Q1130 211 1089 204 Q1048 197 1001 197 Q898 197 808 234 Q718 271 652 337 Q586 403 548 494 Q510 585 510 692 Q510 822 550.5 922.5 Q591 1023 661.5 1092 Q732 1161 827 1197 Q922 1233 1030 1233 Q1066 1233 1101 1228 Q1136 1223 1167 1215.5 Q1198 1208 1223.5 1198.5 Q1249 1189 1266 1180 L1266 1030 Q1245 1046 1216.5 1059.5 Q1188 1073 1155 1082.5 Q1122 1092 1085.5 1097 Q1049 1102 1012 1102 Q943 1102 878.5 1078 Q814 1054 764 1005.5 Q714 957 683.5 883 Q653 809 653 709 Q653 617 682.5 545 Q712 473 762.5 424 Q813 375 879.5 349.5 Q946 324 1020 324 Q1052 324 1087 330 Q1122 336 1155.5 346.5 Q1189 357 1218.5 371 Q1248 385 1270 401 L1270 266 Z " />
<glyph glyph-name="trademark" unicode="&#x2122;" horiz-adv-x="1583" d="M1368 772 L1368 1249 L1364 1249 L1143 772 L1085 772 L872 1249 L868 1249 L868 772 L766 772 L766 1434 L893 1434 L1118 938 L1122 938 L1352 1434 L1475 1434 L1475 772 L1368 772 Z M473 1335 L473 772 L360 772 L360 1333 L156 1333 L156 1434 L680 1434 L680 1335 L473 1335 Z " />
<glyph glyph-name="acute" unicode="&#xb4;" horiz-adv-x="715" d="M455 1219 L332 1219 L621 1546 L782 1546 L455 1219 Z " />
<glyph glyph-name="dieresis" unicode="&#xa8;" horiz-adv-x="715" d="M799 1317 Q799 1275 770 1247 Q741 1219 700 1219 Q660 1219 631 1246.5 Q602 1274 602 1317 Q602 1338 610 1356 Q618 1374 631 1387 Q644 1400 661.5 1407.5 Q679 1415 698 1415 Q719 1415 737.5 1407.5 Q756 1400 769.5 1386.5 Q783 1373 791 1355.5 Q799 1338 799 1317 Z M414 1317 Q414 1296 406 1278.5 Q398 1261 384.5 1247.5 Q371 1234 352.5 1226.5 Q334 1219 313 1219 Q294 1219 276 1226.5 Q258 1234 244.5 1247 Q231 1260 223 1278 Q215 1296 215 1317 Q215 1338 223 1356 Q231 1374 244.5 1387 Q258 1400 276 1407.5 Q294 1415 313 1415 Q334 1415 352.5 1407.5 Q371 1400 384.5 1386.5 Q398 1373 406 1355.5 Q414 1338 414 1317 Z " />
<glyph glyph-name="notequal" unicode="&#x2260;" horiz-adv-x="1403" d="M651 317 L489 0 L348 0 L512 317 L262 317 L262 451 L582 451 L731 743 L262 743 L262 877 L801 877 L958 1188 L1100 1188 L940 877 L1202 877 L1202 743 L872 743 L721 451 L1202 451 L1202 317 L651 317 Z " />
<glyph glyph-name="AE" unicode="&#xc6;" horiz-adv-x="1751" d="M1800 1280 L1245 1280 L1141 793 L1655 793 L1622 641 L1108 641 L1004 152 L1591 152 L1561 0 L801 0 L887 401 L379 401 L86 0 L-121 0 L946 1434 L1833 1434 L1800 1280 Z M1016 1280 L494 557 L920 557 L1071 1280 L1016 1280 Z " />
<glyph glyph-name="Oslash" unicode="&#xd8;" horiz-adv-x="1544" d="M1384 1219 Q1435 1140 1461 1046.5 Q1487 953 1487 848 Q1487 754 1469.5 660 Q1452 566 1417 477.5 Q1382 389 1329.5 309 Q1277 229 1208 164 Q1114 74 993 24.5 Q872 -25 713 -25 Q645 -25 585 -12.5 Q525 0 473 22 Q421 44 378 74 Q335 104 301 139 L131 -29 L49 49 L229 229 Q186 305 161.5 394 Q137 483 137 586 Q137 794 206 958 Q275 1122 393 1241 Q493 1341 619.5 1397.5 Q746 1454 913 1454 Q1043 1454 1142.5 1412.5 Q1242 1371 1311 1305 L1470 1466 L1550 1386 L1384 1219 Z M1190 1186 Q1139 1238 1066 1270.5 Q993 1303 903 1303 Q842 1303 785.5 1290 Q729 1277 679 1254 Q629 1231 585 1199.5 Q541 1168 506 1130 Q460 1079 424 1016.5 Q388 954 363.5 883.5 Q339 813 326 736 Q313 659 313 578 Q313 516 325 460 Q337 404 358 354 L1190 1186 Z M1309 850 Q1309 921 1294.5 982.5 Q1280 1044 1255 1094 L422 256 Q473 193 549 160 Q625 127 727 127 Q833 127 925.5 164 Q1018 201 1090 272 Q1142 323 1183 389 Q1224 455 1252 530 Q1280 605 1294.5 686.5 Q1309 768 1309 850 Z " />
<glyph glyph-name="infinity" unicode="&#x221e;" horiz-adv-x="1673" d="M1624 600 Q1624 522 1596 450.5 Q1568 379 1518 325 Q1468 271 1400 239 Q1332 207 1251 207 Q1140 207 1044 274 Q948 341 866 481 Q781 342 682.5 274.5 Q584 207 485 207 Q403 207 334.5 234.5 Q266 262 217 312.5 Q168 363 140.5 434 Q113 505 113 592 Q113 670 141 741.5 Q169 813 218.5 867 Q268 921 336 953 Q404 985 485 985 Q603 985 698 918.5 Q793 852 870 713 Q949 846 1045 915.5 Q1141 985 1249 985 Q1332 985 1401 957.5 Q1470 930 1519.5 879.5 Q1569 829 1596.5 758 Q1624 687 1624 600 Z M1491 600 Q1491 654 1473.5 701.5 Q1456 749 1424.5 784.5 Q1393 820 1348.5 840 Q1304 860 1251 860 Q1162 860 1084 796 Q1006 732 932 596 Q1000 459 1078 397.5 Q1156 336 1249 336 Q1308 336 1353 356.5 Q1398 377 1428.5 412.5 Q1459 448 1475 496 Q1491 544 1491 600 Z M805 598 Q737 735 657.5 797.5 Q578 860 485 860 Q428 860 383 839 Q338 818 307 782 Q276 746 260 697 Q244 648 244 592 Q244 537 262 490.5 Q280 444 312 409.5 Q344 375 388 355.5 Q432 336 485 336 Q575 336 653 399 Q731 462 805 598 Z " />
<glyph glyph-name="plusminus" unicode="&#xb1;" horiz-adv-x="1403" d="M793 651 L793 248 L662 248 L662 651 L256 651 L256 784 L662 784 L662 1188 L793 1188 L793 784 L1196 784 L1196 651 L793 651 Z M256 0 L256 133 L1196 133 L1196 0 L256 0 Z " />
<glyph glyph-name="lessequal" unicode="&#x2264;" horiz-adv-x="1403" d="M303 659 L303 717 L1163 1198 L1163 1049 L520 694 L520 690 L1163 377 L1163 225 L303 659 Z M262 18 L262 152 L1202 152 L1202 18 L262 18 Z " />
<glyph glyph-name="greaterequal" unicode="&#x2265;" horiz-adv-x="1403" d="M303 225 L303 377 L946 686 L946 692 L303 1049 L303 1198 L1163 717 L1163 659 L303 225 Z M262 18 L262 152 L1202 152 L1202 18 L262 18 Z " />
<glyph glyph-name="yen" unicode="&#xa5;" horiz-adv-x="1104" d="M741 778 L1026 778 L997 639 L662 639 L618 432 L952 432 L924 293 L590 293 L526 0 L362 0 L426 293 L84 293 L113 432 L455 432 L498 639 L156 639 L186 778 L477 778 L264 1434 L438 1434 L584 909 Q595 871 601 845.5 Q607 820 610 799 L616 799 Q630 827 648.5 855 Q667 883 690 915 L1049 1434 L1239 1434 L741 778 Z " />
<glyph glyph-name="mu1" unicode="&#xb5;" horiz-adv-x="1175" d="M114 -395 L-48 -395 L252 1024 L418 1024 L291 424 Q287 408 283 387 Q279 366 275.5 345 Q272 324 270 306.5 Q268 289 268 279 Q268 204 304.5 159.5 Q341 115 414 115 Q458 115 502 133 Q546 151 587.5 181.5 Q629 212 665.5 252.5 Q702 293 732 338.5 Q762 384 783.5 432 Q805 480 815 524 L922 1024 L1087 1024 L934 311 Q927 280 922 246 Q917 212 917 192 Q917 170 925 155 Q933 140 945 131 Q957 122 972 118.5 Q987 115 1002 115 Q1020 115 1038.5 118 Q1057 121 1074 127 L1048 -4 Q1023 -12 991 -17 Q959 -22 928 -22 Q832 -22 790 23.5 Q748 69 748 144 Q748 153 748.5 166.5 Q749 180 750.5 194 Q752 208 753.5 221 Q755 234 756 242 L752 242 Q721 186 681.5 137.5 Q642 89 595.5 53 Q549 17 495 -4 Q441 -25 381 -25 Q321 -25 276 2 Q231 29 214 73 L114 -395 Z " />
<glyph glyph-name="partialdiff" unicode="&#x2202;" horiz-adv-x="1096" d="M1051 934 Q1051 879 1046.5 819.5 Q1042 760 1034 701.5 Q1026 643 1015.5 589.5 Q1005 536 993 492 Q963 377 915 282 Q867 187 801 119 Q735 51 652 13 Q569 -25 469 -25 Q385 -25 317 2.5 Q249 30 201 81.5 Q153 133 126.5 206.5 Q100 280 100 371 Q100 452 116 533.5 Q132 615 162.5 689 Q193 763 238.5 827.5 Q284 892 342 939 Q400 986 470.5 1013 Q541 1040 623 1040 Q715 1040 779 997 Q843 954 885 872 L889 872 Q891 891 891 906 Q891 922 891 942 Q891 1036 877 1111 Q863 1186 831.5 1238.5 Q800 1291 748.5 1319.5 Q697 1348 623 1348 Q592 1348 557.5 1340.5 Q523 1333 490 1321.5 Q457 1310 428.5 1296 Q400 1282 379 1268 L416 1423 Q442 1438 473 1450 Q504 1462 537 1470.5 Q570 1479 603 1484 Q636 1489 666 1489 Q745 1489 804.5 1468.5 Q864 1448 906.5 1411 Q949 1374 977 1322.5 Q1005 1271 1021.5 1209 Q1038 1147 1044.5 1077.5 Q1051 1008 1051 934 Z M874 692 Q861 737 840 775 Q819 813 789.5 841 Q760 869 723.5 885 Q687 901 643 901 Q584 901 533.5 879.5 Q483 858 441.5 820 Q400 782 367.5 731 Q335 680 313 622 Q291 564 279.5 501.5 Q268 439 268 377 Q268 319 282.5 270.5 Q297 222 324 187.5 Q351 153 390.5 134 Q430 115 481 115 Q559 115 625.5 159 Q692 203 742.5 280 Q793 357 827 462.5 Q861 568 874 692 Z " />
<glyph glyph-name="summation" unicode="&#x2211;" horiz-adv-x="1262" d="M82 -469 L82 -391 L758 492 L119 1343 L119 1434 L1200 1434 L1200 1280 L365 1280 L958 496 L330 -322 L1241 -322 L1241 -469 L82 -469 Z " />
<glyph glyph-name="product" unicode="&#x220f;" horiz-adv-x="1544" d="M1227 -469 L1227 1278 L389 1278 L389 -469 L221 -469 L221 1434 L1397 1434 L1397 -469 L1227 -469 Z " />
<glyph glyph-name="integral" unicode="&#x222b;" horiz-adv-x="1104" d="M946 1372 Q926 1383 898 1391 Q870 1399 836 1399 Q792 1399 759.5 1383 Q727 1367 706 1338.5 Q685 1310 674.5 1270 Q664 1230 664 1182 L664 -139 Q664 -230 635.5 -295.5 Q607 -361 560.5 -403 Q514 -445 456.5 -465 Q399 -485 340 -485 Q305 -485 272.5 -480 Q240 -475 221 -467 L221 -319 Q240 -330 269 -338 Q298 -346 330 -346 Q374 -346 406 -330.5 Q438 -315 459.5 -286.5 Q481 -258 491.5 -218 Q502 -178 502 -129 L502 1190 Q502 1282 531 1347.5 Q560 1413 606.5 1455.5 Q653 1498 711 1518 Q769 1538 827 1538 Q861 1538 894.5 1533 Q928 1528 946 1520 L946 1372 Z " />
<glyph glyph-name="ordfeminine" unicode="&#xaa;" horiz-adv-x="893" d="M817 942 Q812 916 806.5 883 Q801 850 796.5 817.5 Q792 785 789 757.5 Q786 730 786 715 L649 715 Q650 728 651.5 747 Q653 766 655.5 785.5 Q658 805 660 824 Q662 843 664 856 L662 856 Q615 787 551 741.5 Q487 696 406 696 Q306 696 251.5 767 Q197 838 197 969 Q197 1008 205.5 1059 Q214 1110 234 1164 Q254 1218 287 1270.5 Q320 1323 370 1364 Q420 1405 488 1430.5 Q556 1456 645 1456 Q674 1456 709 1453.5 Q744 1451 780 1447 Q816 1443 850.5 1437 Q885 1431 915 1425 L817 942 Z M764 1331 Q738 1337 702.5 1341.5 Q667 1346 639 1346 Q582 1346 537 1328 Q492 1310 458 1279.5 Q424 1249 400.5 1210.5 Q377 1172 362 1131 Q347 1090 340.5 1050 Q334 1010 334 977 Q334 940 340.5 908 Q347 876 361.5 853.5 Q376 831 399.5 818 Q423 805 457 805 Q508 805 552 837.5 Q596 870 630 918 Q664 966 687.5 1021.5 Q711 1077 721 1122 L764 1331 Z " />
<glyph glyph-name="ordmasculine" unicode="&#xba;" horiz-adv-x="915" d="M938 1151 Q938 1069 915 987.5 Q892 906 842.5 841.5 Q793 777 715.5 736.5 Q638 696 530 696 Q457 696 399 719.5 Q341 743 300 785 Q259 827 237 885.5 Q215 944 215 1014 Q215 1105 243 1185 Q271 1265 323.5 1325 Q376 1385 452 1419.5 Q528 1454 625 1454 Q701 1454 759.5 1431 Q818 1408 857.5 1367 Q897 1326 917.5 1271 Q938 1216 938 1151 Z M803 1141 Q803 1182 792 1219 Q781 1256 758 1283.5 Q735 1311 699.5 1327 Q664 1343 616 1343 Q550 1343 500 1316 Q450 1289 417 1243.5 Q384 1198 367 1139.5 Q350 1081 350 1018 Q350 970 363 931.5 Q376 893 400 865 Q424 837 458.5 822 Q493 807 535 807 Q610 807 661.5 838 Q713 869 744.5 917 Q776 965 789.5 1024.5 Q803 1084 803 1141 Z " />
<glyph glyph-name="Ohm" unicode="&#x2126;" horiz-adv-x="1578" d="M1542 893 Q1542 757 1501 642 Q1460 527 1392 433 Q1324 339 1234.5 267.5 Q1145 196 1047 147 L1386 147 L1356 0 L840 0 L872 162 Q971 213 1058.5 282 Q1146 351 1210.5 439.5 Q1275 528 1312.5 637 Q1350 746 1350 877 Q1350 973 1320.5 1052 Q1291 1131 1235.5 1187.5 Q1180 1244 1100.5 1275.5 Q1021 1307 922 1307 Q792 1307 682.5 1258 Q573 1209 493.5 1121 Q414 1033 369.5 910.5 Q325 788 325 641 Q325 553 341 484 Q357 415 386 358 Q415 301 455 254 Q495 207 543 162 L510 0 L-6 0 L23 147 L379 147 Q337 182 293.5 231 Q250 280 215.5 344 Q181 408 159 485.5 Q137 563 137 655 Q137 836 198 984 Q259 1132 366 1237.5 Q473 1343 617.5 1400.5 Q762 1458 930 1458 Q1076 1458 1189.5 1414 Q1303 1370 1381.5 1294 Q1460 1218 1501 1115 Q1542 1012 1542 893 Z " />
<glyph glyph-name="ae" unicode="&#xe6;" horiz-adv-x="1692" d="M1655 784 Q1655 703 1619 636.5 Q1583 570 1500 522.5 Q1417 475 1280 449 Q1143 423 942 422 Q942 411 941 401.5 Q940 392 940 383 Q940 329 954.5 280.5 Q969 232 1000.5 195.5 Q1032 159 1082 137 Q1132 115 1202 115 Q1271 115 1353.5 141.5 Q1436 168 1511 217 L1481 55 Q1425 23 1349.5 -1 Q1274 -25 1180 -25 Q1090 -25 1021 0.5 Q952 26 904 71 Q856 116 829 178.5 Q802 241 795 315 L791 315 Q755 251 711 190 Q667 129 613.5 81 Q560 33 497 4 Q434 -25 360 -25 Q284 -25 230.5 2.5 Q177 30 143 79 Q109 128 93.5 195.5 Q78 263 78 342 Q78 413 94.5 493 Q111 573 145.5 651.5 Q180 730 234 802 Q288 874 363.5 929 Q439 984 537.5 1016.5 Q636 1049 758 1049 Q854 1049 930.5 1026.5 Q1007 1004 1067 975 Q1123 1010 1189.5 1029.5 Q1256 1049 1337 1049 Q1401 1049 1458.5 1031 Q1516 1013 1559.5 979 Q1603 945 1629 895.5 Q1655 846 1655 784 Z M1487 774 Q1487 807 1474 832 Q1461 857 1437.5 874.5 Q1414 892 1382.5 900.5 Q1351 909 1313 909 Q1252 909 1195.5 885 Q1139 861 1092 816 Q1045 771 1010 706.5 Q975 642 958 561 Q1102 561 1203 576 Q1304 591 1367 618.5 Q1430 646 1458.5 685.5 Q1487 725 1487 774 Z M942 868 Q925 876 902 883.5 Q879 891 853 896.5 Q827 902 799 905.5 Q771 909 745 909 Q656 909 584 882 Q512 855 456 810.5 Q400 766 360 707.5 Q320 649 294.5 586.5 Q269 524 256.5 461.5 Q244 399 244 346 Q244 295 252.5 252.5 Q261 210 278 179.5 Q295 149 321.5 132 Q348 115 385 115 Q427 115 473 135.5 Q519 156 567.5 203.5 Q616 251 666.5 329 Q717 407 768 522 Q780 549 798 591 Q816 633 838 681 Q860 729 886.5 778 Q913 827 942 868 Z " />
<glyph glyph-name="oslash" unicode="&#xf8;" horiz-adv-x="1096" d="M979 838 Q998 799 1008 750 Q1018 701 1018 645 Q1018 503 977.5 380.5 Q937 258 863.5 168 Q790 78 687 26.5 Q584 -25 459 -25 Q369 -25 297.5 4.5 Q226 34 176 90 L20 -55 L-55 27 L115 184 Q98 228 88 275.5 Q78 323 78 379 Q78 519 118.5 641 Q159 763 232.5 854 Q306 945 409 997 Q512 1049 637 1049 Q728 1049 797.5 1019 Q867 989 918 936 L1098 1104 L1176 1022 L979 838 Z M799 823 Q770 867 726 888 Q682 909 627 909 Q539 909 468 864 Q397 819 348 745.5 Q299 672 272.5 577.5 Q246 483 246 383 Q246 345 252 313 L799 823 Z M850 643 Q850 682 844 713 L295 201 Q321 163 366.5 139 Q412 115 469 115 Q558 115 629 160 Q700 205 749 278.5 Q798 352 824 447.5 Q850 543 850 643 Z " />
<glyph glyph-name="questiondown" unicode="&#xbf;" horiz-adv-x="881" d="M698 942 Q698 919 689.5 898.5 Q681 878 666 862.5 Q651 847 631 838 Q611 829 588 829 Q566 829 545.5 838 Q525 847 510 862.5 Q495 878 486 898.5 Q477 919 477 942 Q477 965 486 985.5 Q495 1006 510 1021 Q525 1036 545.5 1044.5 Q566 1053 588 1053 Q611 1053 631 1044.5 Q651 1036 666 1021 Q681 1006 689.5 985.5 Q698 965 698 942 Z M598 -367 Q536 -394 462 -411 Q388 -428 313 -428 Q235 -428 171.5 -404 Q108 -380 63 -337 Q18 -294 -6.5 -236.5 Q-31 -179 -31 -111 Q-31 -49 -15.5 5 Q0 59 33 108.5 Q66 158 116.5 205.5 Q167 253 236 301 Q289 338 326 371.5 Q363 405 388.5 442.5 Q414 480 430.5 525.5 Q447 571 459 631 L608 631 Q594 559 576.5 501 Q559 443 531 394.5 Q503 346 462 304.5 Q421 263 360 223 Q297 182 253.5 143 Q210 104 182 66 Q154 28 141.5 -11.5 Q129 -51 129 -94 Q129 -139 144 -175 Q159 -211 186 -237 Q213 -263 251 -277 Q289 -291 334 -291 Q402 -291 475 -269 Q548 -247 616 -199 L598 -367 Z " />
<glyph glyph-name="nbspace" unicode="&#xa0;" horiz-adv-x="563" d="" />
<glyph glyph-name="exclamdown" unicode="&#xa1;" horiz-adv-x="653" d="M520 942 Q520 919 511.5 898.5 Q503 878 488 862.5 Q473 847 453.5 838 Q434 829 412 829 Q389 829 368.5 838 Q348 847 333 862.5 Q318 878 309.5 898.5 Q301 919 301 942 Q301 965 309.5 985.5 Q318 1006 333 1021 Q348 1036 368.5 1044.5 Q389 1053 412 1053 Q434 1053 453.5 1044.5 Q473 1036 488 1021 Q503 1006 511.5 985.5 Q520 965 520 942 Z M221 -399 L49 -399 L287 631 L422 631 L221 -399 Z " />
<glyph glyph-name="logicalnot" unicode="&#xac;" horiz-adv-x="1403" d="M1055 254 L1055 686 L246 686 L246 817 L1186 817 L1186 254 L1055 254 Z " />
<glyph glyph-name="radical" unicode="&#x221a;" horiz-adv-x="1331" d="M756 -2 L643 -2 L324 760 L154 760 L154 870 L418 870 L692 207 L1026 1516 L1145 1516 L756 -2 Z " />
<glyph glyph-name="florin" unicode="&#x192;" horiz-adv-x="1104" d="M1014 1260 Q994 1272 962 1283 Q930 1294 901 1294 Q839 1294 793.5 1255 Q748 1216 729 1135 L684 926 L858 926 L827 788 L655 788 L516 139 Q490 16 454.5 -64.5 Q419 -145 375.5 -192 Q332 -239 281 -257.5 Q230 -276 172 -276 Q162 -276 147 -275 Q132 -274 115.5 -271.5 Q99 -269 83.5 -265 Q68 -261 57 -256 L74 -111 Q95 -125 119 -131 Q143 -137 160 -137 Q192 -137 220 -124 Q248 -111 272 -78 Q296 -45 317 12.5 Q338 70 356 158 L492 786 L373 786 L403 926 L518 926 L565 1145 Q579 1211 607.5 1264.5 Q636 1318 677.5 1355.5 Q719 1393 773 1413.5 Q827 1434 891 1434 Q931 1434 973.5 1426 Q1016 1418 1042 1409 L1014 1260 Z " />
<glyph glyph-name="approxequal" unicode="&#x2248;" horiz-adv-x="1403" d="M1225 961 Q1222 894 1203.5 837 Q1185 780 1150 739 Q1115 698 1063.5 674.5 Q1012 651 944 651 Q906 651 872 659.5 Q838 668 806.5 683 Q775 698 744.5 718 Q714 738 682 760 Q664 772 645 783.5 Q626 795 605.5 805 Q585 815 563.5 821 Q542 827 520 827 Q451 827 414.5 781.5 Q378 736 375 651 L240 651 Q243 719 262 775.5 Q281 832 316 873.5 Q351 915 402 938 Q453 961 520 961 Q559 961 591.5 953 Q624 945 652.5 932.5 Q681 920 706.5 904 Q732 888 756 872 Q789 850 814.5 833 Q840 816 862.5 805 Q885 794 906.5 788 Q928 782 952 782 Q983 782 1008 795 Q1033 808 1051 832 Q1069 856 1079 889 Q1089 922 1090 961 L1225 961 Z M1225 549 Q1222 482 1203.5 425.5 Q1185 369 1150 328 Q1115 287 1063.5 263.5 Q1012 240 944 240 Q906 240 872 248.5 Q838 257 806.5 272 Q775 287 744.5 306.5 Q714 326 682 348 Q664 360 645 371.5 Q626 383 605.5 392.5 Q585 402 563.5 408 Q542 414 520 414 Q451 414 414.5 369.5 Q378 325 375 240 L240 240 Q243 308 262 364.5 Q281 421 316 462 Q351 503 402 526 Q453 549 520 549 Q559 549 591.5 541.5 Q624 534 652.5 521.5 Q681 509 706.5 493 Q732 477 756 461 Q789 438 814.5 421 Q840 404 862.5 393 Q885 382 906.5 376.5 Q928 371 952 371 Q1014 371 1051 419.5 Q1088 468 1090 549 L1225 549 Z " />
<glyph glyph-name="increment" unicode="&#x394;" horiz-adv-x="1360" d="M1171 0 L-29 0 L-10 82 L784 1434 L975 1434 L1188 82 L1171 0 Z M864 1094 Q861 1117 858 1143 Q855 1169 852.5 1192.5 Q850 1216 849 1235.5 Q848 1255 848 1264 L844 1264 Q833 1241 819 1211.5 Q805 1182 788 1151 L210 153 L1005 153 L864 1094 Z " />
<glyph glyph-name="guillemotleft" unicode="&#xab;" horiz-adv-x="1053" d="M655 526 L877 201 L721 201 L494 537 L858 881 L1034 881 L655 526 Z M250 526 L473 201 L315 201 L88 537 L453 881 L629 881 L250 526 Z " />
<glyph glyph-name="guillemotright" unicode="&#xbb;" horiz-adv-x="1053" d="M600 203 L424 203 L805 557 L580 883 L735 883 L965 547 L600 203 Z M195 203 L18 203 L399 557 L176 883 L332 883 L559 547 L195 203 Z " />
<glyph glyph-name="ellipsis" unicode="&#x2026;" horiz-adv-x="1507" d="M1276 92 Q1276 70 1267.5 50 Q1259 30 1244 15 Q1229 0 1208.5 -9 Q1188 -18 1165 -18 Q1143 -18 1123.5 -9 Q1104 0 1089 15 Q1074 30 1065.5 50 Q1057 70 1057 92 Q1057 115 1065.5 135.5 Q1074 156 1089 171.5 Q1104 187 1123.5 196 Q1143 205 1165 205 Q1188 205 1208.5 196 Q1229 187 1244 171.5 Q1259 156 1267.5 135.5 Q1276 115 1276 92 Z M774 92 Q774 70 765.5 50 Q757 30 742 15 Q727 0 707 -9 Q687 -18 664 -18 Q641 -18 620.5 -9 Q600 0 585 15 Q570 30 561.5 50 Q553 70 553 92 Q553 115 561.5 135.5 Q570 156 585 171.5 Q600 187 620.5 196 Q641 205 664 205 Q687 205 707 196 Q727 187 742 171.5 Q757 156 765.5 135.5 Q774 115 774 92 Z M272 92 Q272 70 263.5 50 Q255 30 240 15 Q225 0 205 -9 Q185 -18 162 -18 Q140 -18 120 -9 Q100 0 85 15 Q70 30 61.5 50 Q53 70 53 92 Q53 115 61.5 135.5 Q70 156 85 171.5 Q100 187 120 196 Q140 205 162 205 Q185 205 205 196 Q225 187 240 171.5 Q255 156 263.5 135.5 Q272 115 272 92 Z " />
<glyph glyph-name="Agrave" unicode="&#xc0;" horiz-adv-x="1294" d="M999 0 L934 401 L326 401 L94 0 L-104 0 L750 1434 L926 1434 L1176 0 L999 0 Z M815 1163 Q814 1173 813.5 1186 Q813 1199 813 1212 Q813 1226 813 1238 Q813 1251 813 1260 L809 1260 Q806 1251 801 1238.5 Q796 1226 790 1212.5 Q784 1199 777.5 1186 Q771 1173 766 1163 L412 553 L907 553 L815 1163 Z M897 1567 L658 1894 L811 1894 L1018 1567 L897 1567 Z " />
<glyph glyph-name="Atilde" unicode="&#xc3;" horiz-adv-x="1294" d="M999 0 L934 401 L326 401 L94 0 L-104 0 L750 1434 L926 1434 L1176 0 L999 0 Z M815 1163 Q814 1173 813.5 1186 Q813 1199 813 1212 Q813 1226 813 1238 Q813 1251 813 1260 L809 1260 Q806 1251 801 1238.5 Q796 1226 790 1212.5 Q784 1199 777.5 1186 Q771 1173 766 1163 L412 553 L907 553 L815 1163 Z M1198 1806 Q1195 1761 1177.5 1721 Q1160 1681 1131.5 1651 Q1103 1621 1064.5 1604 Q1026 1587 981 1587 Q933 1587 900.5 1601.5 Q868 1616 842.5 1633 Q817 1650 793.5 1664.5 Q770 1679 739 1679 Q688 1679 658.5 1646 Q629 1613 624 1567 L528 1567 Q531 1615 549.5 1656 Q568 1697 598 1726 Q628 1755 668.5 1771.5 Q709 1788 756 1788 Q800 1788 829.5 1773 Q859 1758 884 1739.5 Q909 1721 933.5 1706 Q958 1691 991 1691 Q1013 1691 1032 1700 Q1051 1709 1066 1724.5 Q1081 1740 1090 1761 Q1099 1782 1102 1806 L1198 1806 Z " />
<glyph glyph-name="Otilde" unicode="&#xd5;" horiz-adv-x="1544" d="M1487 852 Q1487 759 1470 667.5 Q1453 576 1421 491 Q1389 406 1342.5 330 Q1296 254 1237 193 Q1189 143 1133 102.5 Q1077 62 1013 33.5 Q949 5 876 -10 Q803 -25 719 -25 Q584 -25 476 21.5 Q368 68 292.5 149.5 Q217 231 177 343 Q137 455 137 586 Q137 794 204.5 959 Q272 1124 393 1245 Q491 1343 619.5 1400.5 Q748 1458 911 1458 Q1043 1458 1149.5 1413 Q1256 1368 1331 1287 Q1406 1206 1446.5 1095 Q1487 984 1487 852 Z M1309 846 Q1309 953 1280 1038 Q1251 1123 1197 1183 Q1143 1243 1067 1275 Q991 1307 897 1307 Q786 1307 685 1259 Q584 1211 506 1126 Q462 1078 426.5 1016 Q391 954 365.5 884 Q340 814 326.5 738 Q313 662 313 584 Q313 484 340.5 400 Q368 316 420.5 255.5 Q473 195 550 161 Q627 127 727 127 Q838 127 939.5 171.5 Q1041 216 1118 303 Q1166 357 1201.5 423.5 Q1237 490 1261 561.5 Q1285 633 1297 706 Q1309 779 1309 846 Z M1286 1806 Q1283 1761 1265.5 1721 Q1248 1681 1219.5 1651 Q1191 1621 1152.5 1604 Q1114 1587 1069 1587 Q1021 1587 988.5 1601.5 Q956 1616 930.5 1633 Q905 1650 881.5 1664.5 Q858 1679 827 1679 Q776 1679 746.5 1646 Q717 1613 712 1567 L616 1567 Q619 1615 637.5 1656 Q656 1697 686 1726 Q716 1755 756.5 1771.5 Q797 1788 844 1788 Q888 1788 917.5 1773 Q947 1758 972 1739.5 Q997 1721 1021.5 1706 Q1046 1691 1079 1691 Q1101 1691 1120 1700 Q1139 1709 1154 1724.5 Q1169 1740 1178 1761 Q1187 1782 1190 1806 L1286 1806 Z " />
<glyph glyph-name="OE" unicode="&#x152;" horiz-adv-x="1892" d="M1942 1282 L1389 1282 L1284 793 L1798 793 L1765 641 L1251 641 L1147 152 L1735 152 L1704 0 L1028 0 Q993 0 957 -4 Q921 -8 883 -12.5 Q845 -17 803 -21 Q761 -25 713 -25 Q578 -25 470.5 21.5 Q363 68 288 150 Q213 232 173 344 Q133 456 133 586 Q133 794 200.5 959 Q268 1124 389 1245 Q487 1343 617 1400.5 Q747 1458 918 1458 Q980 1458 1034 1454.5 Q1088 1451 1136.5 1446.5 Q1185 1442 1228.5 1438 Q1272 1434 1313 1434 L1974 1434 L1942 1282 Z M1214 1274 Q1162 1289 1087 1298 Q1012 1307 905 1307 Q784 1307 682.5 1260.5 Q581 1214 506 1130 Q462 1083 426 1022 Q390 961 364.5 890.5 Q339 820 325 742.5 Q311 665 311 584 Q311 488 337 404.5 Q363 321 415 259.5 Q467 198 545.5 162.5 Q624 127 729 127 Q800 127 861.5 137.5 Q923 148 979 164 L1214 1274 Z " />
<glyph glyph-name="oe" unicode="&#x153;" horiz-adv-x="1743" d="M1706 784 Q1706 703 1670 636.5 Q1634 570 1551 522.5 Q1468 475 1331 449 Q1194 423 993 422 Q993 411 992 398.5 Q991 386 991 375 Q991 324 1006 277 Q1021 230 1052.5 194 Q1084 158 1133.5 136.5 Q1183 115 1251 115 Q1286 115 1324.5 122 Q1363 129 1403.5 142 Q1444 155 1484.5 174 Q1525 193 1563 217 L1532 55 Q1476 23 1399.5 -1 Q1323 -25 1229 -25 Q1152 -25 1093 -7 Q1034 11 991 43 Q948 75 919.5 119.5 Q891 164 874 217 L870 217 Q798 105 692.5 40 Q587 -25 459 -25 Q371 -25 300.5 3 Q230 31 180.5 83.5 Q131 136 104.5 210.5 Q78 285 78 379 Q78 520 118.5 642.5 Q159 765 232.5 855.5 Q306 946 408.5 997.5 Q511 1049 635 1049 Q699 1049 752 1031.5 Q805 1014 846.5 982 Q888 950 917.5 906 Q947 862 963 809 L967 809 Q1004 863 1048.5 907.5 Q1093 952 1145 983.5 Q1197 1015 1256.5 1032 Q1316 1049 1382 1049 Q1461 1049 1521.5 1028 Q1582 1007 1623 970.5 Q1664 934 1685 886 Q1706 838 1706 784 Z M1538 772 Q1538 840 1490.5 874.5 Q1443 909 1368 909 Q1308 909 1251 883.5 Q1194 858 1146.5 812 Q1099 766 1064 701.5 Q1029 637 1012 559 Q1169 559 1270.5 576 Q1372 593 1431.5 622.5 Q1491 652 1514.5 690.5 Q1538 729 1538 772 Z M844 637 Q844 767 787 838 Q730 909 627 909 Q539 909 468 864 Q397 819 348 745.5 Q299 672 272.5 578.5 Q246 485 246 387 Q246 325 261.5 274.5 Q277 224 305.5 188.5 Q334 153 375.5 134 Q417 115 469 115 Q558 115 628 159.5 Q698 204 746 277.5 Q794 351 819 445 Q844 539 844 637 Z " />
<glyph glyph-name="endash" unicode="&#x2013;" horiz-adv-x="1024" d="M4 506 L30 635 L1054 635 L1028 506 L4 506 Z " />
<glyph glyph-name="emdash" unicode="&#x2014;" horiz-adv-x="2048" d="M4 506 L30 635 L2078 635 L2052 506 L4 506 Z " />
<glyph glyph-name="quotedblleft" unicode="&#x201c;" horiz-adv-x="766" d="M676 987 L526 987 L733 1434 L850 1434 L676 987 Z M342 987 L193 987 L397 1434 L516 1434 L342 987 Z " />
<glyph glyph-name="quotedblright" unicode="&#x201d;" horiz-adv-x="766" d="M651 987 L535 987 L711 1434 L858 1434 L651 987 Z M317 987 L201 987 L377 1434 L524 1434 L317 987 Z " />
<glyph glyph-name="quoteleft" unicode="&#x2018;" horiz-adv-x="432" d="M342 987 L193 987 L397 1434 L516 1434 L342 987 Z " />
<glyph glyph-name="quoteright" unicode="&#x2019;" horiz-adv-x="432" d="M317 987 L201 987 L377 1434 L524 1434 L317 987 Z " />
<glyph glyph-name="divide" unicode="&#xf7;" horiz-adv-x="1403" d="M836 975 Q836 928 805.5 898 Q775 868 734 868 Q689 868 659 898.5 Q629 929 629 973 Q629 1018 658 1049.5 Q687 1081 734 1081 Q836 1081 836 975 Z M1196 530 L256 530 L256 664 L1196 664 L1196 530 Z M830 217 Q830 170 800.5 141.5 Q771 113 730 113 Q685 113 654 142.5 Q623 172 623 215 Q623 261 653 293.5 Q683 326 730 326 Q830 326 830 217 Z " />
<glyph glyph-name="lozenge" unicode="&#x25ca;" horiz-adv-x="1194" d="M666 0 L590 0 L139 715 L590 1434 L666 1434 L1118 717 L666 0 Z M629 1292 L272 717 L629 139 L985 717 L629 1292 Z " />
<glyph glyph-name="ydieresis" unicode="&#xff;" horiz-adv-x="991" d="M367 -170 Q321 -245 274 -302.5 Q227 -360 175.5 -400 Q124 -440 65.5 -460.5 Q7 -481 -63 -481 Q-86 -481 -114.5 -476.5 Q-143 -472 -160 -467 L-129 -322 Q-114 -330 -90 -335 Q-66 -340 -43 -340 Q26 -340 81.5 -302 Q137 -264 186 -186 L309 4 L123 1024 L293 1024 L412 238 Q415 216 415.5 195.5 Q416 175 414 160 L420 160 Q425 172 435.5 194 Q446 216 459 236 L913 1024 L1094 1024 L367 -170 Z M912 1317 Q912 1275 883 1247 Q854 1219 813 1219 Q773 1219 744 1246.5 Q715 1274 715 1317 Q715 1338 723 1356 Q731 1374 744 1387 Q757 1400 774.5 1407.5 Q792 1415 811 1415 Q832 1415 850.5 1407.5 Q869 1400 882.5 1386.5 Q896 1373 904 1355.5 Q912 1338 912 1317 Z M527 1317 Q527 1296 519 1278.5 Q511 1261 497.5 1247.5 Q484 1234 465.5 1226.5 Q447 1219 426 1219 Q407 1219 389 1226.5 Q371 1234 357.5 1247 Q344 1260 336 1278 Q328 1296 328 1317 Q328 1338 336 1356 Q344 1374 357.5 1387 Q371 1400 389 1407.5 Q407 1415 426 1415 Q447 1415 465.5 1407.5 Q484 1400 497.5 1386.5 Q511 1373 519 1355.5 Q527 1338 527 1317 Z " />
<glyph glyph-name="Ydieresis" unicode="&#x178;" horiz-adv-x="1135" d="M651 545 L537 0 L365 0 L479 541 L211 1434 L393 1434 L571 774 Q578 751 582.5 727.5 Q587 704 590 688 L592 688 Q600 704 614 726.5 Q628 749 643 772 L1120 1434 L1313 1434 L651 545 Z M1071 1665 Q1071 1623 1042 1595 Q1013 1567 972 1567 Q932 1567 903 1594.5 Q874 1622 874 1665 Q874 1686 882 1704 Q890 1722 903 1735 Q916 1748 933.5 1755.5 Q951 1763 970 1763 Q991 1763 1009.5 1755.5 Q1028 1748 1041.5 1734.5 Q1055 1721 1063 1703.5 Q1071 1686 1071 1665 Z M686 1665 Q686 1644 678 1626.5 Q670 1609 656.5 1595.5 Q643 1582 624.5 1574.5 Q606 1567 585 1567 Q566 1567 548 1574.5 Q530 1582 516.5 1595 Q503 1608 495 1626 Q487 1644 487 1665 Q487 1686 495 1704 Q503 1722 516.5 1735 Q530 1748 548 1755.5 Q566 1763 585 1763 Q606 1763 624.5 1755.5 Q643 1748 656.5 1734.5 Q670 1721 678 1703.5 Q686 1686 686 1665 Z " />
<glyph glyph-name="&amp;#x2044;" unicode="&#x2044;" horiz-adv-x="270" d="M-305 0 L-453 0 L711 1434 L856 1434 L-305 0 Z " />
<glyph glyph-name="&amp;#x2215;" unicode="&#x2215;" horiz-adv-x="270" d="M-305 0 L-453 0 L711 1434 L856 1434 L-305 0 Z " />
<glyph glyph-name="Euro" unicode="&#x20ac;" horiz-adv-x="1104" d="M1196 1225 Q1142 1262 1078 1285.5 Q1014 1309 940 1309 Q839 1309 757.5 1279.5 Q676 1250 613 1197.5 Q550 1145 505.5 1073.5 Q461 1002 432 918 L1008 918 L983 809 L401 809 Q390 756 385.5 703 Q381 650 379 596 L938 596 L915 485 L383 485 Q402 305 491.5 216 Q581 127 731 127 Q802 127 869.5 147.5 Q937 168 995 199 L973 31 Q926 9 859.5 -9 Q793 -27 702 -27 Q601 -27 514.5 6.5 Q428 40 362.5 105 Q297 170 256.5 265.5 Q216 361 207 485 L47 485 L72 596 L207 596 Q209 650 214.5 702.5 Q220 755 231 809 L119 809 L141 918 L258 918 Q294 1033 355.5 1132 Q417 1231 504.5 1303.5 Q592 1376 705.5 1417 Q819 1458 958 1458 Q1040 1458 1110 1439 Q1180 1420 1227 1397 L1196 1225 Z " />
<glyph glyph-name="guilsinglleft" unicode="&#x2039;" horiz-adv-x="647" d="M250 526 L473 201 L315 201 L88 537 L453 881 L629 881 L250 526 Z " />
<glyph glyph-name="guilsinglright" unicode="&#x203a;" horiz-adv-x="647" d="M195 203 L18 203 L397 557 L174 883 L332 883 L559 547 L195 203 Z " />
<glyph glyph-name="fi" unicode="&#xfb01;" horiz-adv-x="1134" d="M823 1374 Q813 1379 799 1383.5 Q785 1388 769 1392 Q753 1396 735.5 1398.5 Q718 1401 702 1401 Q620 1401 575.5 1347.5 Q531 1294 508 1188 L471 1024 L713 1024 L680 885 L438 885 L176 -340 L10 -340 L274 885 L98 885 L129 1024 L305 1024 L346 1214 Q365 1302 399 1364 Q433 1426 480 1465 Q527 1504 586.5 1522 Q646 1540 717 1540 Q754 1540 789.5 1534 Q825 1528 850 1520 L823 1374 Z M1021 4 Q996 -4 964.5 -9 Q933 -14 902 -14 Q801 -14 751 36.5 Q701 87 701 172 Q701 197 706 231 Q711 265 722 315 L871 1024 L1037 1024 L887 311 Q878 269 874.5 246 Q871 223 871 207 Q871 166 893.5 144.5 Q916 123 965 123 Q991 123 1010.5 126 Q1030 129 1047 135 L1021 4 Z M1138 1389 Q1138 1344 1107.5 1312 Q1077 1280 1032 1280 Q988 1280 955.5 1311.5 Q923 1343 923 1389 Q923 1435 955.5 1464 Q988 1493 1032 1493 Q1076 1493 1107 1463.5 Q1138 1434 1138 1389 Z " />
<glyph glyph-name="fl" unicode="&#xfb02;" horiz-adv-x="1134" d="M823 1374 Q813 1379 799 1383.5 Q785 1388 769 1392 Q753 1396 735.5 1398.5 Q718 1401 702 1401 Q620 1401 575.5 1347.5 Q531 1294 508 1188 L471 1024 L713 1024 L680 885 L438 885 L176 -340 L10 -340 L274 885 L98 885 L129 1024 L305 1024 L346 1214 Q365 1302 399 1364 Q433 1426 480 1465 Q527 1504 586.5 1522 Q646 1540 717 1540 Q754 1540 789.5 1534 Q825 1528 850 1520 L823 1374 Z M1021 4 Q996 -4 964.5 -9 Q933 -14 902 -14 Q801 -14 751 36.5 Q701 87 701 172 Q701 197 706 231 Q711 265 722 315 L978 1517 L1144 1517 L887 311 Q878 269 874.5 246 Q871 223 871 207 Q871 166 893.5 144.5 Q916 123 965 123 Q991 123 1010.5 126 Q1030 129 1047 135 L1021 4 Z " />
<glyph glyph-name="daggerdbl" unicode="&#x2021;" horiz-adv-x="770" d="M727 519 L429 539 L404 229 L248 229 L353 539 L48 519 L79 669 L335 639 L434 831 L416 1023 L148 993 L180 1143 L478 1123 L503 1433 L659 1433 L554 1123 L860 1143 L828 993 L572 1023 L474 831 L491 639 L759 669 L727 519 Z " />
<glyph glyph-name="middot" unicode="&#xb7;" horiz-adv-x="446" d="M354 623 Q354 600 345.5 579.5 Q337 559 322 544 Q307 529 287.5 520.5 Q268 512 246 512 Q223 512 202.5 520.5 Q182 529 167 544 Q152 559 143.5 579.5 Q135 600 135 623 Q135 645 143.5 665 Q152 685 167 700 Q182 715 202 724 Q222 733 244 733 Q267 733 287 724 Q307 715 322 700 Q337 685 345.5 665 Q354 645 354 623 Z " />
<glyph glyph-name="quotesinglbase" unicode="&#x201a;" horiz-adv-x="432" d="M59 -225 L-57 -225 L119 219 L266 219 L59 -225 Z " />
<glyph glyph-name="quotedblbase" unicode="&#x201e;" horiz-adv-x="766" d="M393 -229 L276 -229 L453 217 L600 217 L393 -229 Z M59 -229 L-57 -229 L119 217 L266 217 L59 -229 Z " />
<glyph glyph-name="perthousand" unicode="&#x2030;" horiz-adv-x="2482" d="M2386 428 Q2386 344 2358.5 263.5 Q2331 183 2280.5 120 Q2230 57 2159 18.5 Q2088 -20 2001 -20 Q1913 -20 1856.5 9.5 Q1800 39 1767.5 83 Q1735 127 1722.5 179 Q1710 231 1710 276 Q1710 357 1738 436.5 Q1766 516 1817 579.5 Q1868 643 1940.5 682 Q2013 721 2103 721 Q2168 721 2220 701.5 Q2272 682 2309 644.5 Q2346 607 2366 552.5 Q2386 498 2386 428 Z M1591 428 Q1591 344 1563 263.5 Q1535 183 1484.5 120 Q1434 57 1362.5 18.5 Q1291 -20 1204 -20 Q1117 -20 1060.5 9.5 Q1004 39 971 83 Q938 127 925.5 179 Q913 231 913 276 Q913 357 941 436.5 Q969 516 1020.5 579.5 Q1072 643 1145 682 Q1218 721 1309 721 Q1373 721 1425 701.5 Q1477 682 1514 644.5 Q1551 607 1571 552.5 Q1591 498 1591 428 Z M338 0 L190 0 L1419 1434 L1567 1434 L338 0 Z M848 1161 Q848 1077 820 996.5 Q792 916 741 853 Q690 790 619 751.5 Q548 713 461 713 Q403 713 358.5 726.5 Q314 740 281.5 763.5 Q249 787 227.5 817 Q206 847 193.5 880 Q181 913 175.5 946.5 Q170 980 170 1010 Q170 1064 182.5 1117.5 Q195 1171 219 1220.5 Q243 1270 277.5 1312.5 Q312 1355 355.5 1386.5 Q399 1418 452 1436 Q505 1454 565 1454 Q629 1454 681 1434.5 Q733 1415 770 1377.5 Q807 1340 827.5 1285.5 Q848 1231 848 1161 Z M2253 424 Q2253 460 2245 493.5 Q2237 527 2219 553 Q2201 579 2172 594.5 Q2143 610 2101 610 Q2040 610 1992.5 578 Q1945 546 1912 496.5 Q1879 447 1862 388 Q1845 329 1845 274 Q1845 239 1853.5 205.5 Q1862 172 1881 146.5 Q1900 121 1930.5 105.5 Q1961 90 2005 90 Q2060 90 2105.5 118.5 Q2151 147 2184 193.5 Q2217 240 2235 300 Q2253 360 2253 424 Z M1456 424 Q1456 460 1448 493.5 Q1440 527 1422 553 Q1404 579 1375 594.5 Q1346 610 1305 610 Q1244 610 1196.5 578 Q1149 546 1116 496.5 Q1083 447 1066 388 Q1049 329 1049 274 Q1049 239 1058 205.5 Q1067 172 1086 146.5 Q1105 121 1135 105.5 Q1165 90 1208 90 Q1264 90 1309.5 118.5 Q1355 147 1387.5 193.5 Q1420 240 1438 300 Q1456 360 1456 424 Z M713 1157 Q713 1193 705 1226.5 Q697 1260 679 1286 Q661 1312 632 1327.5 Q603 1343 561 1343 Q500 1343 452.5 1311 Q405 1279 372 1230 Q339 1181 322 1121.5 Q305 1062 305 1008 Q305 973 314 940 Q323 907 342 881 Q361 855 391.5 839 Q422 823 465 823 Q520 823 565.5 851.5 Q611 880 644 926.5 Q677 973 695 1033 Q713 1093 713 1157 Z " />
<glyph glyph-name="Acircumflex" unicode="&#xc2;" horiz-adv-x="1294" d="M999 0 L934 401 L326 401 L94 0 L-104 0 L750 1434 L926 1434 L1176 0 L999 0 Z M815 1163 Q814 1173 813.5 1186 Q813 1199 813 1212 Q813 1226 813 1238 Q813 1251 813 1260 L809 1260 Q806 1251 801 1238.5 Q796 1226 790 1212.5 Q784 1199 777.5 1186 Q771 1173 766 1163 L412 553 L907 553 L815 1163 Z M1022 1567 L908 1798 L695 1567 L574 1567 L857 1898 L990 1898 L1135 1567 L1022 1567 Z " />
<glyph glyph-name="Ecircumflex" unicode="&#xca;" horiz-adv-x="1022" d="M1071 1282 L518 1282 L414 793 L926 793 L893 641 L381 641 L276 152 L864 152 L834 0 L74 0 L377 1434 L1104 1434 L1071 1282 Z M940 1567 L826 1798 L613 1567 L492 1567 L775 1898 L908 1898 L1053 1567 L940 1567 Z " />
<glyph glyph-name="Aacute" unicode="&#xc1;" horiz-adv-x="1294" d="M999 0 L934 401 L326 401 L94 0 L-104 0 L750 1434 L926 1434 L1176 0 L999 0 Z M815 1163 Q814 1173 813.5 1186 Q813 1199 813 1212 Q813 1226 813 1238 Q813 1251 813 1260 L809 1260 Q806 1251 801 1238.5 Q796 1226 790 1212.5 Q784 1199 777.5 1186 Q771 1173 766 1163 L412 553 L907 553 L815 1163 Z M801 1567 L678 1567 L967 1894 L1128 1894 L801 1567 Z " />
<glyph glyph-name="Edieresis" unicode="&#xcb;" horiz-adv-x="1022" d="M1071 1282 L518 1282 L414 793 L926 793 L893 641 L381 641 L276 152 L864 152 L834 0 L74 0 L377 1434 L1104 1434 L1071 1282 Z M1065 1665 Q1065 1623 1036 1595 Q1007 1567 966 1567 Q926 1567 897 1594.5 Q868 1622 868 1665 Q868 1686 876 1704 Q884 1722 897 1735 Q910 1748 927.5 1755.5 Q945 1763 964 1763 Q985 1763 1003.5 1755.5 Q1022 1748 1035.5 1734.5 Q1049 1721 1057 1703.5 Q1065 1686 1065 1665 Z M680 1665 Q680 1644 672 1626.5 Q664 1609 650.5 1595.5 Q637 1582 618.5 1574.5 Q600 1567 579 1567 Q560 1567 542 1574.5 Q524 1582 510.5 1595 Q497 1608 489 1626 Q481 1644 481 1665 Q481 1686 489 1704 Q497 1722 510.5 1735 Q524 1748 542 1755.5 Q560 1763 579 1763 Q600 1763 618.5 1755.5 Q637 1748 650.5 1734.5 Q664 1721 672 1703.5 Q680 1686 680 1665 Z " />
<glyph glyph-name="Egrave" unicode="&#xc8;" horiz-adv-x="1022" d="M1071 1282 L518 1282 L414 793 L926 793 L893 641 L381 641 L276 152 L864 152 L834 0 L74 0 L377 1434 L1104 1434 L1071 1282 Z M800 1567 L561 1894 L714 1894 L921 1567 L800 1567 Z " />
<glyph glyph-name="Iacute" unicode="&#xcd;" horiz-adv-x="545" d="M246 0 L74 0 L377 1434 L551 1434 L246 0 Z M434 1567 L311 1567 L600 1894 L761 1894 L434 1567 Z " />
<glyph glyph-name="Icircumflex" unicode="&#xce;" horiz-adv-x="545" d="M246 0 L74 0 L377 1434 L551 1434 L246 0 Z M653 1567 L539 1798 L326 1567 L205 1567 L488 1898 L621 1898 L766 1567 L653 1567 Z " />
<glyph glyph-name="Idieresis" unicode="&#xcf;" horiz-adv-x="545" d="M246 0 L74 0 L377 1434 L551 1434 L246 0 Z M787 1665 Q787 1623 758 1595 Q729 1567 688 1567 Q648 1567 619 1594.5 Q590 1622 590 1665 Q590 1686 598 1704 Q606 1722 619 1735 Q632 1748 649.5 1755.5 Q667 1763 686 1763 Q707 1763 725.5 1755.5 Q744 1748 757.5 1734.5 Q771 1721 779 1703.5 Q787 1686 787 1665 Z M402 1665 Q402 1644 394 1626.5 Q386 1609 372.5 1595.5 Q359 1582 340.5 1574.5 Q322 1567 301 1567 Q282 1567 264 1574.5 Q246 1582 232.5 1595 Q219 1608 211 1626 Q203 1644 203 1665 Q203 1686 211 1704 Q219 1722 232.5 1735 Q246 1748 264 1755.5 Q282 1763 301 1763 Q322 1763 340.5 1755.5 Q359 1748 372.5 1734.5 Q386 1721 394 1703.5 Q402 1686 402 1665 Z " />
<glyph glyph-name="Igrave" unicode="&#xcc;" horiz-adv-x="545" d="M246 0 L74 0 L377 1434 L551 1434 L246 0 Z M548 1567 L309 1894 L462 1894 L669 1567 L548 1567 Z " />
<glyph glyph-name="Oacute" unicode="&#xd3;" horiz-adv-x="1544" d="M1487 852 Q1487 759 1470 667.5 Q1453 576 1421 491 Q1389 406 1342.5 330 Q1296 254 1237 193 Q1189 143 1133 102.5 Q1077 62 1013 33.5 Q949 5 876 -10 Q803 -25 719 -25 Q584 -25 476 21.5 Q368 68 292.5 149.5 Q217 231 177 343 Q137 455 137 586 Q137 794 204.5 959 Q272 1124 393 1245 Q491 1343 619.5 1400.5 Q748 1458 911 1458 Q1043 1458 1149.5 1413 Q1256 1368 1331 1287 Q1406 1206 1446.5 1095 Q1487 984 1487 852 Z M1309 846 Q1309 953 1280 1038 Q1251 1123 1197 1183 Q1143 1243 1067 1275 Q991 1307 897 1307 Q786 1307 685 1259 Q584 1211 506 1126 Q462 1078 426.5 1016 Q391 954 365.5 884 Q340 814 326.5 738 Q313 662 313 584 Q313 484 340.5 400 Q368 316 420.5 255.5 Q473 195 550 161 Q627 127 727 127 Q838 127 939.5 171.5 Q1041 216 1118 303 Q1166 357 1201.5 423.5 Q1237 490 1261 561.5 Q1285 633 1297 706 Q1309 779 1309 846 Z M863 1567 L740 1567 L1029 1894 L1190 1894 L863 1567 Z " />
<glyph glyph-name="Ocircumflex" unicode="&#xd4;" horiz-adv-x="1544" d="M1487 852 Q1487 759 1470 667.5 Q1453 576 1421 491 Q1389 406 1342.5 330 Q1296 254 1237 193 Q1189 143 1133 102.5 Q1077 62 1013 33.5 Q949 5 876 -10 Q803 -25 719 -25 Q584 -25 476 21.5 Q368 68 292.5 149.5 Q217 231 177 343 Q137 455 137 586 Q137 794 204.5 959 Q272 1124 393 1245 Q491 1343 619.5 1400.5 Q748 1458 911 1458 Q1043 1458 1149.5 1413 Q1256 1368 1331 1287 Q1406 1206 1446.5 1095 Q1487 984 1487 852 Z M1309 846 Q1309 953 1280 1038 Q1251 1123 1197 1183 Q1143 1243 1067 1275 Q991 1307 897 1307 Q786 1307 685 1259 Q584 1211 506 1126 Q462 1078 426.5 1016 Q391 954 365.5 884 Q340 814 326.5 738 Q313 662 313 584 Q313 484 340.5 400 Q368 316 420.5 255.5 Q473 195 550 161 Q627 127 727 127 Q838 127 939.5 171.5 Q1041 216 1118 303 Q1166 357 1201.5 423.5 Q1237 490 1261 561.5 Q1285 633 1297 706 Q1309 779 1309 846 Z M1075 1567 L961 1798 L748 1567 L627 1567 L910 1898 L1043 1898 L1188 1567 L1075 1567 Z " />
<glyph glyph-name="Ograve" unicode="&#xd2;" horiz-adv-x="1544" d="M1487 852 Q1487 759 1470 667.5 Q1453 576 1421 491 Q1389 406 1342.5 330 Q1296 254 1237 193 Q1189 143 1133 102.5 Q1077 62 1013 33.5 Q949 5 876 -10 Q803 -25 719 -25 Q584 -25 476 21.5 Q368 68 292.5 149.5 Q217 231 177 343 Q137 455 137 586 Q137 794 204.5 959 Q272 1124 393 1245 Q491 1343 619.5 1400.5 Q748 1458 911 1458 Q1043 1458 1149.5 1413 Q1256 1368 1331 1287 Q1406 1206 1446.5 1095 Q1487 984 1487 852 Z M1309 846 Q1309 953 1280 1038 Q1251 1123 1197 1183 Q1143 1243 1067 1275 Q991 1307 897 1307 Q786 1307 685 1259 Q584 1211 506 1126 Q462 1078 426.5 1016 Q391 954 365.5 884 Q340 814 326.5 738 Q313 662 313 584 Q313 484 340.5 400 Q368 316 420.5 255.5 Q473 195 550 161 Q627 127 727 127 Q838 127 939.5 171.5 Q1041 216 1118 303 Q1166 357 1201.5 423.5 Q1237 490 1261 561.5 Q1285 633 1297 706 Q1309 779 1309 846 Z M985 1567 L746 1894 L899 1894 L1106 1567 L985 1567 Z " />
<glyph glyph-name="Uacute" unicode="&#xda;" horiz-adv-x="1411" d="M1247 563 Q1217 423 1171.5 313.5 Q1126 204 1054.5 129 Q983 54 880 14.5 Q777 -25 633 -25 Q522 -25 435 10 Q348 45 289 106 Q230 167 199 250 Q168 333 168 430 Q168 473 173.5 527 Q179 581 188 629 L362 1434 L535 1434 L362 639 Q358 616 353.5 589 Q349 562 345.5 535 Q342 508 340 484 Q338 460 338 442 Q338 362 362 303 Q386 244 428.5 205 Q471 166 528.5 146.5 Q586 127 653 127 Q738 127 805 151 Q872 175 923 226 Q974 277 1010.5 356 Q1047 435 1071 545 L1262 1434 L1434 1434 L1247 563 Z M881 1567 L758 1567 L1047 1894 L1208 1894 L881 1567 Z " />
<glyph glyph-name="Ucircumflex" unicode="&#xdb;" horiz-adv-x="1411" d="M1247 563 Q1217 423 1171.5 313.5 Q1126 204 1054.5 129 Q983 54 880 14.5 Q777 -25 633 -25 Q522 -25 435 10 Q348 45 289 106 Q230 167 199 250 Q168 333 168 430 Q168 473 173.5 527 Q179 581 188 629 L362 1434 L535 1434 L362 639 Q358 616 353.5 589 Q349 562 345.5 535 Q342 508 340 484 Q338 460 338 442 Q338 362 362 303 Q386 244 428.5 205 Q471 166 528.5 146.5 Q586 127 653 127 Q738 127 805 151 Q872 175 923 226 Q974 277 1010.5 356 Q1047 435 1071 545 L1262 1434 L1434 1434 L1247 563 Z M1081 1567 L967 1798 L754 1567 L633 1567 L916 1898 L1049 1898 L1194 1567 L1081 1567 Z " />
<glyph glyph-name="Ugrave" unicode="&#xd9;" horiz-adv-x="1411" d="M1247 563 Q1217 423 1171.5 313.5 Q1126 204 1054.5 129 Q983 54 880 14.5 Q777 -25 633 -25 Q522 -25 435 10 Q348 45 289 106 Q230 167 199 250 Q168 333 168 430 Q168 473 173.5 527 Q179 581 188 629 L362 1434 L535 1434 L362 639 Q358 616 353.5 589 Q349 562 345.5 535 Q342 508 340 484 Q338 460 338 442 Q338 362 362 303 Q386 244 428.5 205 Q471 166 528.5 146.5 Q586 127 653 127 Q738 127 805 151 Q872 175 923 226 Q974 277 1010.5 356 Q1047 435 1071 545 L1262 1434 L1434 1434 L1247 563 Z M974 1567 L735 1894 L888 1894 L1095 1567 L974 1567 Z " />
<glyph glyph-name="dotlessi" unicode="&#x131;" horiz-adv-x="530" d="M416 4 Q391 -4 359.5 -9 Q328 -14 297 -14 Q196 -14 146 36.5 Q96 87 96 172 Q96 197 101 231 Q106 265 117 315 L266 1024 L432 1024 L282 311 Q273 269 269.5 246 Q266 223 266 207 Q266 166 288.5 144.5 Q311 123 360 123 Q386 123 405.5 126 Q425 129 442 135 L416 4 Z " />
<glyph glyph-name="circumflex" unicode="&#x2c6;" horiz-adv-x="715" d="M657 1219 L543 1450 L330 1219 L209 1219 L492 1550 L625 1550 L770 1219 L657 1219 Z " />
<glyph glyph-name="tilde" unicode="&#x2dc;" horiz-adv-x="715" d="M848 1458 Q845 1413 827.5 1373 Q810 1333 781.5 1303 Q753 1273 714.5 1256 Q676 1239 631 1239 Q583 1239 550.5 1253.5 Q518 1268 492.5 1285 Q467 1302 443.5 1316.5 Q420 1331 389 1331 Q338 1331 308.5 1298 Q279 1265 274 1219 L178 1219 Q181 1267 199.5 1308 Q218 1349 248 1378 Q278 1407 318.5 1423.5 Q359 1440 406 1440 Q450 1440 479.5 1425 Q509 1410 534 1391.5 Q559 1373 583.5 1358 Q608 1343 641 1343 Q663 1343 682 1352 Q701 1361 716 1376.5 Q731 1392 740 1413 Q749 1434 752 1458 L848 1458 Z " />
<glyph glyph-name="overscore" unicode="&#x2c9;" horiz-adv-x="715" d="M240 1219 L256 1327 L764 1327 L748 1219 L240 1219 Z " />
<glyph glyph-name="breve" unicode="&#x2d8;" horiz-adv-x="715" d="M819 1473 Q801 1413 770.5 1366 Q740 1319 698.5 1286 Q657 1253 607 1236 Q557 1219 500 1219 Q445 1219 399.5 1235 Q354 1251 322.5 1279.5 Q291 1308 273.5 1347.5 Q256 1387 256 1434 Q256 1446 257.5 1454 Q259 1462 262 1473 L367 1473 Q365 1466 365 1460 Q365 1454 365 1446 Q365 1386 403.5 1352.5 Q442 1319 504 1319 Q581 1319 632 1356.5 Q683 1394 709 1473 L819 1473 Z " />
<glyph glyph-name="dotaccent" unicode="&#x2d9;" horiz-adv-x="715" d="M608 1319 Q608 1277 580 1248 Q552 1219 510 1219 Q491 1219 473.5 1226.5 Q456 1234 443 1247.5 Q430 1261 422 1279.5 Q414 1298 414 1319 Q414 1340 422 1357.5 Q430 1375 443 1387.5 Q456 1400 473.5 1407.5 Q491 1415 510 1415 Q530 1415 547.5 1407.5 Q565 1400 578.5 1387.5 Q592 1375 600 1357.5 Q608 1340 608 1319 Z " />
<glyph glyph-name="ring" unicode="&#x2da;" horiz-adv-x="715" d="M729 1374 Q729 1332 713 1296 Q697 1260 669 1233 Q641 1206 603 1191 Q565 1176 522 1176 Q479 1176 442 1189.5 Q405 1203 377.5 1228 Q350 1253 334.5 1288 Q319 1323 319 1366 Q319 1412 335.5 1449 Q352 1486 380 1511.5 Q408 1537 446.5 1551 Q485 1565 528 1565 Q573 1565 610 1551 Q647 1537 673.5 1511.5 Q700 1486 714.5 1451 Q729 1416 729 1374 Z M637 1372 Q637 1397 628 1417.5 Q619 1438 603.5 1452.5 Q588 1467 567 1475 Q546 1483 522 1483 Q473 1483 441.5 1451.5 Q410 1420 410 1372 Q410 1318 442 1287.5 Q474 1257 522 1257 Q547 1257 568 1266 Q589 1275 604.5 1291 Q620 1307 628.5 1327.5 Q637 1348 637 1372 Z " />
<glyph glyph-name="cedilla" unicode="&#xb8;" horiz-adv-x="715" d="M418 -238 Q418 -327 343 -380.5 Q268 -434 125 -434 Q105 -434 82 -432.5 Q59 -431 37 -428 L55 -340 Q96 -346 131 -346 Q218 -346 259.5 -321 Q301 -296 301 -254 Q301 -219 272.5 -198.5 Q244 -178 182 -178 Q168 -178 154.5 -179 Q141 -180 127 -182 L166 0 L262 0 L238 -104 Q275 -104 307.5 -112.5 Q340 -121 364.5 -138 Q389 -155 403.5 -180 Q418 -205 418 -238 Z " />
<glyph glyph-name="hungarumlaut" unicode="&#x2dd;" horiz-adv-x="715" d="M596 1219 L494 1219 L741 1544 L883 1544 L596 1219 Z M340 1219 L238 1219 L487 1544 L623 1544 L340 1219 Z " />
<glyph glyph-name="ogonek" unicode="&#x2db;" horiz-adv-x="715" d="M301 0 Q249 -47 213 -83 Q177 -119 155 -148.5 Q133 -178 123 -202.5 Q113 -227 113 -250 Q113 -330 193 -330 Q216 -330 241.5 -321.5 Q267 -313 283 -305 L268 -408 Q250 -417 222 -423.5 Q194 -430 160 -430 Q78 -430 38 -388.5 Q-2 -347 -2 -274 Q-2 -247 8 -217.5 Q18 -188 41 -154.5 Q64 -121 102.5 -82.5 Q141 -44 199 0 L301 0 Z " />
<glyph glyph-name="caron" unicode="&#x2c7;" horiz-adv-x="715" d="M559 1219 L424 1219 L279 1550 L391 1550 L506 1319 L721 1550 L840 1550 L559 1219 Z " />
<glyph glyph-name="Lslash" unicode="&#x141;" horiz-adv-x="948" d="M817 0 L74 0 L199 592 L29 518 L59 676 L233 752 L377 1434 L551 1434 L424 834 L739 979 L709 823 L389 674 L279 156 L850 156 L817 0 Z " />
<glyph glyph-name="lslash" unicode="&#x142;" horiz-adv-x="563" d="M315 311 Q306 269 302.5 246 Q299 223 299 207 Q299 166 321.5 144.5 Q344 123 393 123 Q419 123 438.5 126 Q458 129 475 135 L449 4 Q424 -4 392.5 -9 Q361 -14 330 -14 Q229 -14 179 36.5 Q129 87 129 172 Q129 197 134 231 Q139 265 150 315 L219 635 L49 535 L80 690 L250 786 L406 1517 L572 1517 L438 891 L618 995 L586 842 L406 739 L315 311 Z " />
<glyph glyph-name="Scaron" unicode="&#x160;" horiz-adv-x="1018" d="M991 1219 Q966 1237 931.5 1253 Q897 1269 857.5 1281 Q818 1293 775 1300 Q732 1307 690 1307 Q610 1307 555.5 1284.5 Q501 1262 468 1227.5 Q435 1193 420.5 1152 Q406 1111 406 1075 Q406 1028 419 990 Q432 952 458 917 Q484 882 525 847 Q566 812 621 772 Q683 727 731.5 683 Q780 639 814 592.5 Q848 546 865.5 494.5 Q883 443 883 383 Q883 346 875.5 301.5 Q868 257 848.5 212 Q829 167 795 124 Q761 81 708.5 48 Q656 15 582 -5 Q508 -25 408 -25 Q352 -25 298 -17 Q244 -9 195.5 4 Q147 17 106.5 33.5 Q66 50 37 66 L66 240 Q98 217 139 196.5 Q180 176 226 160.5 Q272 145 321 136 Q370 127 418 127 Q494 127 548.5 145 Q603 163 638.5 194.5 Q674 226 690.5 269 Q707 312 707 362 Q707 407 693 443 Q679 479 650 513.5 Q621 548 576.5 583.5 Q532 619 471 662 Q422 697 377.5 737.5 Q333 778 299.5 826 Q266 874 246.5 930.5 Q227 987 227 1053 Q227 1135 257.5 1208.5 Q288 1282 348 1337.5 Q408 1393 496.5 1425.5 Q585 1458 702 1458 Q747 1458 791.5 1452.5 Q836 1447 878 1437.5 Q920 1428 957.5 1416.5 Q995 1405 1024 1393 L991 1219 Z M790 1567 L655 1567 L510 1898 L622 1898 L737 1667 L952 1898 L1071 1898 L790 1567 Z " />
<glyph glyph-name="scaron" unicode="&#x161;" horiz-adv-x="809" d="M725 844 Q680 873 624 891 Q568 909 512 909 Q418 909 366.5 866 Q315 823 315 752 Q315 723 324.5 699 Q334 675 352.5 653.5 Q371 632 399.5 612 Q428 592 465 569 Q577 504 626.5 435.5 Q676 367 676 281 Q676 223 654.5 167.5 Q633 112 586 69.5 Q539 27 464.5 1 Q390 -25 283 -25 Q253 -25 217 -21 Q181 -17 144.5 -9 Q108 -1 74.5 10.5 Q41 22 16 37 L49 193 Q69 179 98.5 165 Q128 151 162.5 140 Q197 129 234.5 122 Q272 115 309 115 Q409 115 458.5 155 Q508 195 508 266 Q508 292 500.5 314 Q493 336 474 358 Q455 380 424 402.5 Q393 425 346 453 Q244 515 195.5 582.5 Q147 650 147 735 Q147 797 170 853.5 Q193 910 238.5 953.5 Q284 997 353 1023 Q422 1049 514 1049 Q586 1049 650.5 1035 Q715 1021 760 999 L725 844 Z M610 1219 L475 1219 L330 1550 L442 1550 L557 1319 L772 1550 L891 1550 L610 1219 Z " />
<glyph glyph-name="Zcaron" unicode="&#x17d;" horiz-adv-x="1167" d="M1309 1391 L227 152 L1026 152 L993 0 L-78 0 L-68 51 L1006 1282 L262 1282 L293 1434 L1319 1434 L1309 1391 Z M876 1567 L741 1567 L596 1898 L708 1898 L823 1667 L1038 1898 L1157 1898 L876 1567 Z " />
<glyph glyph-name="zcaron" unicode="&#x17e;" horiz-adv-x="926" d="M981 975 L213 139 L795 139 L764 0 L-78 0 L-66 53 L702 885 L168 885 L199 1024 L991 1024 L981 975 Z M682 1219 L547 1219 L402 1550 L514 1550 L629 1319 L844 1550 L963 1550 L682 1219 Z " />
<glyph glyph-name="brokenbar" unicode="&#xa6;" horiz-adv-x="492" d="M174 715 L174 1567 L319 1567 L319 715 L174 715 Z M174 -481 L174 371 L319 371 L319 -481 L174 -481 Z " />
<glyph glyph-name="Eth" unicode="&#xd0;" horiz-adv-x="1458" d="M1401 844 Q1401 736 1379 631 Q1357 526 1311.5 432.5 Q1266 339 1195.5 259.5 Q1125 180 1027.5 122.5 Q930 65 804.5 32.5 Q679 0 524 0 L74 0 L213 649 L47 649 L76 801 L244 801 L379 1434 L770 1434 Q913 1434 1029.5 1392.5 Q1146 1351 1228.5 1274.5 Q1311 1198 1356 1089 Q1401 980 1401 844 Z M1225 831 Q1225 936 1194 1020 Q1163 1104 1101.5 1162 Q1040 1220 949 1251 Q858 1282 737 1282 L518 1282 L414 801 L756 801 L725 649 L383 649 L276 152 L528 152 Q707 152 838 203.5 Q969 255 1055 346 Q1141 437 1183 561.5 Q1225 686 1225 831 Z " />
<glyph glyph-name="eth" unicode="&#xf0;" horiz-adv-x="1069" d="M799 1303 Q890 1187 941.5 1034 Q993 881 993 692 Q993 612 978.5 527.5 Q964 443 934.5 363.5 Q905 284 860 213 Q815 142 753.5 89.5 Q692 37 614 6 Q536 -25 440 -25 Q359 -25 292 1.5 Q225 28 177.5 79 Q130 130 104 204 Q78 278 78 373 Q78 462 95.5 546.5 Q113 631 145.5 706.5 Q178 782 224.5 844.5 Q271 907 328.5 952.5 Q386 998 453 1023.5 Q520 1049 594 1049 Q669 1049 721 1020 Q773 991 801 950 L805 950 Q795 991 778.5 1032.5 Q762 1074 742.5 1112.5 Q723 1151 701 1184 Q679 1217 657 1241 L362 1118 L322 1214 L590 1325 Q569 1350 542 1375.5 Q515 1401 485 1426 Q455 1451 425 1474 Q395 1497 369 1516 L588 1516 Q620 1491 658.5 1457.5 Q697 1424 729 1386 L1016 1507 L1059 1413 L799 1303 Z M825 653 Q825 702 814 748 Q803 794 777.5 830 Q752 866 710.5 887.5 Q669 909 608 909 Q524 909 457 861.5 Q390 814 343 738 Q296 662 271 568 Q246 474 246 381 Q246 320 259 271 Q272 222 298.5 187.5 Q325 153 363.5 134 Q402 115 453 115 Q517 115 569.5 140.5 Q622 166 663.5 208 Q705 250 735 305.5 Q765 361 785 420.5 Q805 480 815 540.5 Q825 601 825 653 Z " />
<glyph glyph-name="Yacute" unicode="&#xdd;" horiz-adv-x="1135" d="M651 545 L537 0 L365 0 L479 541 L211 1434 L393 1434 L571 774 Q578 751 582.5 727.5 Q587 704 590 688 L592 688 Q600 704 614 726.5 Q628 749 643 772 L1120 1434 L1313 1434 L651 545 Z M750 1567 L627 1567 L916 1894 L1077 1894 L750 1567 Z " />
<glyph glyph-name="yacute" unicode="&#xfd;" horiz-adv-x="991" d="M367 -170 Q321 -245 274 -302.5 Q227 -360 175.5 -400 Q124 -440 65.5 -460.5 Q7 -481 -63 -481 Q-86 -481 -114.5 -476.5 Q-143 -472 -160 -467 L-129 -322 Q-114 -330 -90 -335 Q-66 -340 -43 -340 Q26 -340 81.5 -302 Q137 -264 186 -186 L309 4 L123 1024 L293 1024 L412 238 Q415 216 415.5 195.5 Q416 175 414 160 L420 160 Q425 172 435.5 194 Q446 216 459 236 L913 1024 L1094 1024 L367 -170 Z M609 1219 L486 1219 L775 1546 L936 1546 L609 1219 Z " />
<glyph glyph-name="Thorn" unicode="&#xde;" horiz-adv-x="1178" d="M1128 834 Q1128 728 1092.5 634 Q1057 540 983.5 469.5 Q910 399 797.5 358 Q685 317 530 317 L315 317 L246 0 L74 0 L377 1434 L551 1434 L504 1208 L700 1208 Q816 1208 897 1177 Q978 1146 1029.5 1094 Q1081 1042 1104.5 974.5 Q1128 907 1128 834 Z M952 819 Q952 868 935 911.5 Q918 955 882 987 Q846 1019 789.5 1038 Q733 1057 653 1057 L471 1057 L346 469 L547 469 Q653 469 729.5 495.5 Q806 522 855.5 568.5 Q905 615 928.5 679.5 Q952 744 952 819 Z " />
<glyph glyph-name="thorn" unicode="&#xfe;" horiz-adv-x="1110" d="M1032 666 Q1032 592 1016 512.5 Q1000 433 967 356 Q934 279 884.5 210 Q835 141 768 88.5 Q701 36 616 5.5 Q531 -25 428 -25 Q369 -25 311.5 -14 Q254 -3 211 12 L109 -475 L-57 -475 L365 1516 L528 1516 L422 1014 Q410 958 397.5 906.5 Q385 855 371 809 L375 809 Q519 1049 729 1049 Q799 1049 855 1025 Q911 1001 950.5 953 Q990 905 1011 833 Q1032 761 1032 666 Z M864 659 Q864 713 854.5 759 Q845 805 823 838 Q801 871 766.5 890 Q732 909 682 909 Q630 909 584.5 887.5 Q539 866 500 830 Q461 794 429 746.5 Q397 699 372 648 Q347 597 329.5 545.5 Q312 494 303 449 L240 152 Q258 144 283 137.5 Q308 131 335 126 Q362 121 390 118 Q418 115 442 115 Q511 115 569.5 138 Q628 161 674.5 200.5 Q721 240 756.5 293.5 Q792 347 816 407.5 Q840 468 852 532.5 Q864 597 864 659 Z " />
<glyph glyph-name="minus" unicode="&#x2212;" horiz-adv-x="1403" d="M256 530 L256 664 L1196 664 L1196 530 L256 530 Z " />
<glyph glyph-name="multiply" unicode="&#xd7;" horiz-adv-x="1403" d="M1055 164 L717 504 L377 164 L283 258 L623 596 L283 936 L377 1030 L717 690 L1055 1030 L1149 936 L809 596 L1149 258 L1055 164 Z " />
<glyph glyph-name="onehalf" unicode="&#xbd;" horiz-adv-x="1939" d="M174 584 L199 696 L381 696 L508 1288 L301 1233 L328 1358 L676 1454 L512 696 L702 696 L678 584 L174 584 Z M1129 1 L1153 111 L1450 361 Q1495 399 1533.5 433.5 Q1572 468 1600 502.5 Q1628 537 1643.5 572 Q1659 607 1659 646 Q1659 689 1628 718.5 Q1597 748 1540 748 Q1485 748 1426 722.5 Q1367 697 1317 662 L1350 814 Q1385 834 1439 852.5 Q1493 871 1565 871 Q1624 871 1668 855 Q1712 839 1741 811 Q1770 783 1784.5 745 Q1799 707 1799 664 Q1799 603 1776 552 Q1753 501 1714.5 455 Q1676 409 1626.5 367 Q1577 325 1524 283 L1327 128 L1325 124 L1706 124 L1678 1 L1129 1 Z M477 0 L329 0 L1493 1434 L1638 1434 L477 0 Z " />
<glyph glyph-name="onequarter" unicode="&#xbc;" horiz-adv-x="1876" d="M174 584 L199 696 L381 696 L508 1288 L301 1233 L328 1358 L676 1454 L512 696 L702 696 L678 584 L174 584 Z M1571 206 L1526 1 L1395 1 L1440 206 L1049 206 L1067 298 L1548 851 L1708 851 L1593 314 L1706 314 L1683 206 L1571 206 Z M1552 732 Q1544 717 1531 699 Q1518 681 1501 663 L1208 314 L1462 314 L1532 640 Q1537 662 1543.5 687 Q1550 712 1556 730 L1552 732 Z M497 0 L349 0 L1513 1434 L1658 1434 L497 0 Z " />
<glyph glyph-name="threequarters" unicode="&#xbe;" horiz-adv-x="1968" d="M727 827 Q727 783 710 736 Q693 689 654 650.5 Q615 612 551 587.5 Q487 563 393 563 Q366 563 332 566.5 Q298 570 264 576 Q230 582 201 591 Q172 600 156 610 L184 743 Q202 731 227.5 720.5 Q253 710 282 701.5 Q311 693 342 688.5 Q373 684 401 684 Q454 684 490.5 696.5 Q527 709 549.5 729.5 Q572 750 582 775.5 Q592 801 592 827 Q592 857 581.5 881 Q571 905 547.5 922.5 Q524 940 487.5 949 Q451 958 399 958 L315 958 L342 1079 L426 1079 Q481 1079 523 1092 Q565 1105 593 1126.5 Q621 1148 635 1175.5 Q649 1203 649 1231 Q649 1274 618 1303.5 Q587 1333 518 1333 Q464 1333 415.5 1317 Q367 1301 322 1276 L352 1417 Q371 1425 395 1431.5 Q419 1438 444.5 1443 Q470 1448 496 1451 Q522 1454 545 1454 Q600 1454 644.5 1440 Q689 1426 720.5 1400.5 Q752 1375 769 1338 Q786 1301 786 1255 Q786 1169 728 1111 Q670 1053 571 1028 L571 1024 Q727 983 727 827 Z M1657 206 L1612 1 L1481 1 L1526 206 L1135 206 L1153 298 L1634 851 L1794 851 L1679 314 L1792 314 L1769 206 L1657 206 Z M1638 732 Q1630 717 1617 699 Q1604 681 1587 663 L1294 314 L1548 314 L1618 640 Q1623 662 1629.5 687 Q1636 712 1642 730 L1638 732 Z M535 0 L387 0 L1551 1434 L1696 1434 L535 0 Z " />
<glyph glyph-name="franc" unicode="&#x20a3;" horiz-adv-x="999" d="M546 279 L302 279 L243 0 L75 0 L134 279 L-24 279 L9 434 L167 434 L380 1434 L1107 1434 L1075 1282 L516 1282 L410 786 L928 786 L896 635 L378 635 L335 434 L579 434 L546 279 Z " />
<glyph glyph-name="Gbreve" unicode="&#x11e;" horiz-adv-x="1409" d="M1350 1190 Q1317 1212 1274.5 1233 Q1232 1254 1181 1270.5 Q1130 1287 1070.5 1297 Q1011 1307 944 1307 Q795 1307 678 1254 Q561 1201 480 1109.5 Q399 1018 356 894 Q313 770 313 629 Q313 512 345.5 419 Q378 326 439 261 Q500 196 586.5 161.5 Q673 127 782 127 Q857 127 917.5 139.5 Q978 152 1030 172 L1116 590 L784 590 L817 739 L1321 739 L1180 78 Q1095 33 992 3 Q889 -27 762 -27 Q615 -27 499 22 Q383 71 302.5 156.5 Q222 242 179.5 358.5 Q137 475 137 610 Q137 726 161 834 Q185 942 232 1036.5 Q279 1131 349 1208.5 Q419 1286 511 1341.5 Q603 1397 716.5 1427.5 Q830 1458 965 1458 Q1039 1458 1102.5 1449 Q1166 1440 1218.5 1426 Q1271 1412 1312 1395.5 Q1353 1379 1382 1364 L1350 1190 Z M1300 1820 Q1282 1760 1251.5 1713 Q1221 1666 1179.5 1633 Q1138 1600 1088 1583 Q1038 1566 981 1566 Q926 1566 880.5 1582 Q835 1598 803.5 1626.5 Q772 1655 754.5 1694.5 Q737 1734 737 1781 Q737 1793 738.5 1801 Q740 1809 743 1820 L848 1820 Q846 1813 846 1807 Q846 1801 846 1793 Q846 1733 884.5 1699.5 Q923 1666 985 1666 Q1062 1666 1113 1703.5 Q1164 1741 1190 1820 L1300 1820 Z " />
<glyph glyph-name="gbreve" unicode="&#x11f;" horiz-adv-x="1110" d="M850 74 Q825 -46 784 -147.5 Q743 -249 675.5 -323.5 Q608 -398 509 -439.5 Q410 -481 268 -481 Q170 -481 97.5 -458 Q25 -435 -35 -403 L-4 -250 Q59 -288 130 -314 Q201 -340 283 -340 Q372 -340 437.5 -314 Q503 -288 550.5 -237.5 Q598 -187 629.5 -114 Q661 -41 682 53 L717 213 L713 213 Q675 152 638.5 107.5 Q602 63 562 33.5 Q522 4 478 -10.5 Q434 -25 381 -25 Q312 -25 256 -0.5 Q200 24 160.5 72 Q121 120 99.5 192 Q78 264 78 358 Q78 447 97.5 533 Q117 619 154 696 Q191 773 244.5 837.5 Q298 902 366 949 Q434 996 515.5 1022.5 Q597 1049 690 1049 Q783 1049 876 1037 Q969 1025 1047 1010 L850 74 Z M858 889 Q824 897 775.5 903 Q727 909 672 909 Q578 909 500 865.5 Q422 822 365.5 747.5 Q309 673 277.5 574 Q246 475 246 365 Q246 311 255.5 265 Q265 219 285.5 186 Q306 153 338.5 134 Q371 115 418 115 Q473 115 519.5 138 Q566 161 605 199 Q644 237 674.5 285.5 Q705 334 728.5 385 Q752 436 768 485.5 Q784 535 793 575 L858 889 Z M1073 1473 Q1055 1413 1024.5 1366 Q994 1319 952.5 1286 Q911 1253 861 1236 Q811 1219 754 1219 Q699 1219 653.5 1235 Q608 1251 576.5 1279.5 Q545 1308 527.5 1347.5 Q510 1387 510 1434 Q510 1446 511.5 1454 Q513 1462 516 1473 L621 1473 Q619 1466 619 1460 Q619 1454 619 1446 Q619 1386 657.5 1352.5 Q696 1319 758 1319 Q835 1319 886 1356.5 Q937 1394 963 1473 L1073 1473 Z " />
<glyph glyph-name="Idot" unicode="&#x130;" horiz-adv-x="545" d="M246 0 L74 0 L377 1434 L551 1434 L246 0 Z M603 1667 Q603 1625 575 1596 Q547 1567 505 1567 Q486 1567 468.5 1574.5 Q451 1582 438 1595.5 Q425 1609 417 1627.5 Q409 1646 409 1667 Q409 1688 417 1705.5 Q425 1723 438 1735.5 Q451 1748 468.5 1755.5 Q486 1763 505 1763 Q525 1763 542.5 1755.5 Q560 1748 573.5 1735.5 Q587 1723 595 1705.5 Q603 1688 603 1667 Z " />
<glyph glyph-name="Scedilla" unicode="&#x15e;" horiz-adv-x="1018" d="M616 -238 Q616 -327 541 -380.5 Q466 -434 323 -434 Q303 -434 280 -432.5 Q257 -431 235 -428 L253 -340 Q294 -346 329 -346 Q416 -346 457.5 -321 Q499 -296 499 -254 Q499 -219 470.5 -198.5 Q442 -178 380 -178 Q366 -178 352.5 -179 Q339 -180 325 -182 L359 -23 Q328 -21 298 -17 Q244 -9 195.5 4 Q147 17 106.5 33.5 Q66 50 37 66 L66 240 Q98 217 139 196.5 Q180 176 226 160.5 Q272 145 321 136 Q370 127 418 127 Q494 127 548.5 145 Q603 163 638.5 194.5 Q674 226 690.5 269 Q707 312 707 362 Q707 407 693 443 Q679 479 650 513.5 Q621 548 576.5 583.5 Q532 619 471 662 Q422 697 377.5 737.5 Q333 778 299.5 826 Q266 874 246.5 930.5 Q227 987 227 1053 Q227 1135 257.5 1208.5 Q288 1282 348 1337.5 Q408 1393 496.5 1425.5 Q585 1458 702 1458 Q747 1458 791.5 1452.5 Q836 1447 878 1437.5 Q920 1428 957.5 1416.5 Q995 1405 1024 1393 L991 1219 Q966 1237 931.5 1253 Q897 1269 857.5 1281 Q818 1293 775 1300 Q732 1307 690 1307 Q610 1307 555.5 1284.5 Q501 1262 468 1227.5 Q435 1193 420.5 1152 Q406 1111 406 1075 Q406 1028 419 990 Q432 952 458 917 Q484 882 525 847 Q566 812 621 772 Q683 727 731.5 683 Q780 639 814 592.5 Q848 546 865.5 494.5 Q883 443 883 383 Q883 346 875.5 301.5 Q868 257 848.5 212 Q829 167 795 124 Q761 81 708.5 48 Q656 15 582 -5 Q526 -20 454 -24 L436 -104 Q473 -104 505.5 -112.5 Q538 -121 562.5 -138 Q587 -155 601.5 -180 Q616 -205 616 -238 Z " />
<glyph glyph-name="scedilla" unicode="&#x15f;" horiz-adv-x="809" d="M497 -238 Q497 -327 422 -380.5 Q347 -434 204 -434 Q184 -434 161 -432.5 Q138 -431 116 -428 L134 -340 Q175 -346 210 -346 Q297 -346 338.5 -321 Q380 -296 380 -254 Q380 -219 351.5 -198.5 Q323 -178 261 -178 Q247 -178 233.5 -179 Q220 -180 206 -182 L240 -23 Q229 -22 217 -21 Q181 -17 144.5 -9 Q108 -1 74.5 10.5 Q41 22 16 37 L49 193 Q69 179 98.5 165 Q128 151 162.5 140 Q197 129 234.5 122 Q272 115 309 115 Q409 115 458.5 155 Q508 195 508 266 Q508 292 500.5 314 Q493 336 474 358 Q455 380 424 402.5 Q393 425 346 453 Q244 515 195.5 582.5 Q147 650 147 735 Q147 797 170 853.5 Q193 910 238.5 953.5 Q284 997 353 1023 Q422 1049 514 1049 Q586 1049 650.5 1035 Q715 1021 760 999 L725 844 Q680 873 624 891 Q568 909 512 909 Q418 909 366.5 866 Q315 823 315 752 Q315 723 324.5 699 Q334 675 352.5 653.5 Q371 632 399.5 612 Q428 592 465 569 Q577 504 626.5 435.5 Q676 367 676 281 Q676 223 654.5 167.5 Q633 112 586 69.5 Q539 27 464 1 Q409 -18 335 -23 L317 -104 Q354 -104 386.5 -112.5 Q419 -121 443.5 -138 Q468 -155 482.5 -180 Q497 -205 497 -238 Z " />
<glyph glyph-name="Cacute" unicode="&#x106;" horiz-adv-x="1309" d="M1325 1196 Q1296 1215 1258.5 1235 Q1221 1255 1176 1271 Q1131 1287 1077.5 1297 Q1024 1307 963 1307 Q813 1307 692.5 1254 Q572 1201 488 1108 Q404 1015 358.5 889.5 Q313 764 313 618 Q313 499 346 407.5 Q379 316 440 253.5 Q501 191 586 159 Q671 127 774 127 Q840 127 894 134.5 Q948 142 994 155.5 Q1040 169 1080.5 187.5 Q1121 206 1159 227 L1120 51 Q1039 14 946.5 -5.5 Q854 -25 739 -25 Q603 -25 491.5 20 Q380 65 301.5 147.5 Q223 230 180 346 Q137 462 137 604 Q137 792 196.5 949 Q256 1106 365.5 1219 Q475 1332 628.5 1395 Q782 1458 969 1458 Q1097 1458 1195.5 1430.5 Q1294 1403 1362 1368 L1325 1196 Z M924 1567 L801 1567 L1090 1894 L1251 1894 L924 1567 Z " />
<glyph glyph-name="cacute" unicode="&#x107;" horiz-adv-x="893" d="M864 821 Q822 858 762.5 883.5 Q703 909 631 909 Q562 909 506.5 885 Q451 861 408 821 Q365 781 334 729 Q303 677 283 621 Q263 565 253.5 509.5 Q244 454 244 406 Q244 263 307 189 Q370 115 479 115 Q545 115 616 142.5 Q687 170 750 213 L715 49 Q650 14 585.5 -5.5 Q521 -25 449 -25 Q355 -25 285.5 7 Q216 39 170 95 Q124 151 101 227.5 Q78 304 78 393 Q78 477 95 558.5 Q112 640 145.5 712.5 Q179 785 228 847 Q277 909 340.5 953.5 Q404 998 482 1023.5 Q560 1049 651 1049 Q694 1049 733 1043 Q772 1037 804 1027 Q836 1017 861 1005.5 Q886 994 901 983 L864 821 Z M694 1219 L571 1219 L860 1546 L1021 1546 L694 1219 Z " />
<glyph glyph-name="Ccaron" unicode="&#x10c;" horiz-adv-x="1309" d="M1325 1196 Q1296 1215 1258.5 1235 Q1221 1255 1176 1271 Q1131 1287 1077.5 1297 Q1024 1307 963 1307 Q813 1307 692.5 1254 Q572 1201 488 1108 Q404 1015 358.5 889.5 Q313 764 313 618 Q313 499 346 407.5 Q379 316 440 253.5 Q501 191 586 159 Q671 127 774 127 Q840 127 894 134.5 Q948 142 994 155.5 Q1040 169 1080.5 187.5 Q1121 206 1159 227 L1120 51 Q1039 14 946.5 -5.5 Q854 -25 739 -25 Q603 -25 491.5 20 Q380 65 301.5 147.5 Q223 230 180 346 Q137 462 137 604 Q137 792 196.5 949 Q256 1106 365.5 1219 Q475 1332 628.5 1395 Q782 1458 969 1458 Q1097 1458 1195.5 1430.5 Q1294 1403 1362 1368 L1325 1196 Z M991 1567 L856 1567 L711 1898 L823 1898 L938 1667 L1153 1898 L1272 1898 L991 1567 Z " />
<glyph glyph-name="ccaron" unicode="&#x10d;" horiz-adv-x="893" d="M864 821 Q822 858 762.5 883.5 Q703 909 631 909 Q562 909 506.5 885 Q451 861 408 821 Q365 781 334 729 Q303 677 283 621 Q263 565 253.5 509.5 Q244 454 244 406 Q244 263 307 189 Q370 115 479 115 Q545 115 616 142.5 Q687 170 750 213 L715 49 Q650 14 585.5 -5.5 Q521 -25 449 -25 Q355 -25 285.5 7 Q216 39 170 95 Q124 151 101 227.5 Q78 304 78 393 Q78 477 95 558.5 Q112 640 145.5 712.5 Q179 785 228 847 Q277 909 340.5 953.5 Q404 998 482 1023.5 Q560 1049 651 1049 Q694 1049 733 1043 Q772 1037 804 1027 Q836 1017 861 1005.5 Q886 994 901 983 L864 821 Z M733 1219 L598 1219 L453 1550 L565 1550 L680 1319 L895 1550 L1014 1550 L733 1219 Z " />
<glyph glyph-name="dslash" unicode="&#x111;" horiz-adv-x="1110" d="M901 315 Q894 283 887.5 238 Q881 193 876 147.5 Q871 102 867.5 62 Q864 22 864 0 L694 0 Q694 17 696.5 45.5 Q699 74 702.5 105 Q706 136 710 164.5 Q714 193 717 211 L713 211 Q677 153 641 108.5 Q605 64 565 34.5 Q525 5 480 -10 Q435 -25 381 -25 Q311 -25 255 0 Q199 25 159.5 73.5 Q120 122 99 193.5 Q78 265 78 358 Q78 432 93.5 512 Q109 592 141.5 669 Q174 746 224 815 Q274 884 343 936 Q412 988 501 1018.5 Q590 1049 700 1049 Q756 1049 804 1041.5 Q852 1034 887 1026 L924 1202 L592 1202 L621 1335 L952 1335 L991 1516 L1153 1516 L1115 1335 L1251 1335 L1222 1202 L1087 1202 L901 315 Z M858 885 Q820 896 778.5 902.5 Q737 909 690 909 Q603 909 536.5 882 Q470 855 420.5 810 Q371 765 337.5 707.5 Q304 650 283.5 589.5 Q263 529 254.5 470.5 Q246 412 246 365 Q246 309 255.5 263 Q265 217 286.5 184 Q308 151 342 133 Q376 115 424 115 Q474 115 517.5 136 Q561 157 599 193 Q637 229 668 276 Q699 323 724 376 Q749 429 766.5 483.5 Q784 538 795 588 L858 885 Z " />
<glyph glyph-name="uni00AF" unicode="&#xaf;" horiz-adv-x="715" d="M240 1219 L256 1327 L764 1327 L748 1219 L240 1219 Z " />
<glyph glyph-name="uni2219" unicode="&#x2219;" horiz-adv-x="444" d="M336 623 Q336 576 303 543 Q270 510 223 510 Q177 510 145 543 Q113 576 113 623 Q113 669 145 702 Q177 735 223 735 Q270 735 303 702 Q336 669 336 623 Z " />
<glyph glyph-name="Abreve" unicode="&#x102;" horiz-adv-x="1294" d="M999 0 L934 401 L326 401 L94 0 L-104 0 L750 1434 L926 1434 L1176 0 L999 0 Z M815 1163 Q814 1173 813.5 1186 Q813 1199 813 1212 Q813 1226 813 1238 Q813 1251 813 1260 L809 1260 Q806 1251 801 1238.5 Q796 1226 790 1212.5 Q784 1199 777.5 1186 Q771 1173 766 1163 L412 553 L907 553 L815 1163 Z M1165 1822 Q1147 1762 1116.5 1715 Q1086 1668 1044.5 1635 Q1003 1602 953 1585 Q903 1568 846 1568 Q791 1568 745.5 1584 Q700 1600 668.5 1628.5 Q637 1657 619.5 1696.5 Q602 1736 602 1783 Q602 1795 603.5 1803 Q605 1811 608 1822 L713 1822 Q711 1815 711 1809 Q711 1803 711 1795 Q711 1735 749.5 1701.5 Q788 1668 850 1668 Q927 1668 978 1705.5 Q1029 1743 1055 1822 L1165 1822 Z " />
<glyph glyph-name="abreve" unicode="&#x103;" horiz-adv-x="1110" d="M905 328 Q897 290 889.5 242.5 Q882 195 876.5 148.5 Q871 102 867.5 62 Q864 22 864 0 L694 0 Q695 20 697 48 Q699 76 702.5 106 Q706 136 709.5 165 Q713 194 717 215 L713 215 Q682 166 650 122.5 Q618 79 579 46 Q540 13 492 -6 Q444 -25 379 -25 Q312 -25 256.5 -1 Q201 23 161 70.5 Q121 118 99.5 189.5 Q78 261 78 356 Q78 414 90 488 Q102 562 130.5 639 Q159 716 206.5 789.5 Q254 863 324.5 921 Q395 979 491 1014 Q587 1049 713 1049 Q793 1049 878 1037 Q963 1025 1047 1008 L905 328 Z M858 889 Q823 897 776 903 Q729 909 688 909 Q601 909 534.5 881.5 Q468 854 419 809.5 Q370 765 336.5 707 Q303 649 283 588.5 Q263 528 254.5 469 Q246 410 246 362 Q246 305 256 259.5 Q266 214 287.5 182 Q309 150 342.5 132.5 Q376 115 422 115 Q472 115 515.5 135.5 Q559 156 597 191 Q635 226 666 272 Q697 318 722 369.5 Q747 421 764.5 474.5 Q782 528 793 578 L858 889 Z M1030 1473 Q1012 1413 981.5 1366 Q951 1319 909.5 1286 Q868 1253 818 1236 Q768 1219 711 1219 Q656 1219 610.5 1235 Q565 1251 533.5 1279.5 Q502 1308 484.5 1347.5 Q467 1387 467 1434 Q467 1446 468.5 1454 Q470 1462 473 1473 L578 1473 Q576 1466 576 1460 Q576 1454 576 1446 Q576 1386 614.5 1352.5 Q653 1319 715 1319 Q792 1319 843 1356.5 Q894 1394 920 1473 L1030 1473 Z " />
<glyph glyph-name="Aogonek" unicode="&#x104;" horiz-adv-x="1294" d="M1102 0 Q1050 -47 1014 -83 Q978 -119 956 -148.5 Q934 -178 924 -202.5 Q914 -227 914 -250 Q914 -330 994 -330 Q1017 -330 1042.5 -321.5 Q1068 -313 1084 -305 L1069 -408 Q1051 -417 1023 -423.5 Q995 -430 961 -430 Q879 -430 839 -388.5 Q799 -347 799 -274 Q799 -247 809 -217.5 Q819 -188 842 -154.5 Q865 -121 903.5 -82.5 Q942 -44 1000 0 L999 0 L934 401 L326 401 L94 0 L-104 0 L750 1434 L926 1434 L1176 0 L1102 0 Z M815 1163 Q814 1173 813.5 1186 Q813 1199 813 1212 L813 1260 L809 1260 Q806 1251 801 1238.5 Q796 1226 790 1212.5 Q784 1199 777 1186 L766 1163 L412 553 L907 553 L815 1163 Z " />
<glyph glyph-name="aogonek" unicode="&#x105;" horiz-adv-x="1110" d="M796 0 Q744 -47 708 -83 Q672 -119 650 -148.5 Q628 -178 618 -202.5 Q608 -227 608 -250 Q608 -330 688 -330 Q711 -330 736.5 -321.5 Q762 -313 778 -305 L763 -408 Q745 -417 717 -423.5 Q689 -430 655 -430 Q573 -430 533 -388.5 Q493 -347 493 -274 Q493 -247 503 -217.5 Q513 -188 536 -154.5 Q559 -121 597.5 -82.5 Q636 -44 694 0 Q695 20 697 48 Q699 76 702.5 106 Q706 136 709.5 165 Q713 194 717 215 L713 215 Q682 166 650 122.5 Q618 79 579 46 Q540 13 492 -6 Q444 -25 379 -25 Q312 -25 256.5 -1 Q201 23 161 70.5 Q121 118 99.5 189.5 Q78 261 78 356 Q78 414 90 488 Q102 562 130.5 639 Q159 716 206.5 789.5 Q254 863 324.5 921 Q395 979 491 1014 Q587 1049 713 1049 Q793 1049 878 1037 Q963 1025 1047 1008 L905 328 Q897 290 889.5 242.5 Q882 195 876.5 148.5 Q871 102 867.5 62 Q864 22 864 0 L796 0 Z M858 889 Q823 897 776 903 Q729 909 688 909 Q601 909 534.5 881.5 Q468 854 419 809.5 Q370 765 336.5 707 Q303 649 283 588.5 Q263 528 254.5 469 Q246 410 246 362 Q246 305 256 259.5 Q266 214 287.5 182 Q309 150 342.5 132.5 Q376 115 422 115 Q472 115 515.5 135.5 Q559 156 597 191 Q635 226 666 272 Q697 318 722 369.5 Q747 421 764.5 474.5 Q782 528 793 578 L858 889 Z " />
<glyph glyph-name="Dcaron" unicode="&#x10e;" horiz-adv-x="1458" d="M1401 854 Q1401 748 1379.5 643 Q1358 538 1313.5 443 Q1269 348 1199 267 Q1129 186 1032 126.5 Q935 67 809.5 33.5 Q684 0 528 0 L74 0 L379 1434 L778 1434 Q918 1434 1033 1394.5 Q1148 1355 1229.5 1280 Q1311 1205 1356 1097.5 Q1401 990 1401 854 Z M1225 842 Q1225 1052 1102 1167 Q979 1282 737 1282 L518 1282 L276 152 L543 152 Q712 152 839.5 206 Q967 260 1052.5 354 Q1138 448 1181.5 573.5 Q1225 699 1225 842 Z M857 1567 L722 1567 L577 1898 L689 1898 L804 1667 L1019 1898 L1138 1898 L857 1567 Z " />
<glyph glyph-name="dcaron" unicode="&#x10f;" horiz-adv-x="1221" d="M901 315 Q894 283 887.5 238 Q881 193 876 147.5 Q871 102 867.5 62 Q864 22 864 0 L694 0 Q694 17 696.5 45.5 Q699 74 702.5 105 Q706 136 710 164.5 Q714 193 717 211 L713 211 Q677 153 641 108.5 Q605 64 565 34.5 Q525 5 480 -10 Q435 -25 381 -25 Q311 -25 255 0 Q199 25 159.5 73.5 Q120 122 99 193.5 Q78 265 78 358 Q78 432 93.5 512 Q109 592 141.5 669 Q174 746 224 815 Q274 884 343 936 Q412 988 501 1018.5 Q590 1049 700 1049 Q756 1049 804 1041.5 Q852 1034 887 1026 L991 1516 L1153 1516 L901 315 Z M858 885 Q820 896 778.5 902.5 Q737 909 690 909 Q603 909 536.5 882 Q470 855 420.5 810 Q371 765 337.5 707.5 Q304 650 283.5 589.5 Q263 529 254.5 470.5 Q246 412 246 365 Q246 309 255.5 263 Q265 217 286.5 184 Q308 151 342 133 Q376 115 424 115 Q474 115 517.5 136 Q561 157 599 193 Q637 229 668 276 Q699 323 724 376 Q749 429 766.5 483.5 Q784 538 795 588 L858 885 Z M1525 1516 L1304 1256 L1181 1256 L1353 1516 L1525 1516 Z " />
<glyph glyph-name="Dcroat" unicode="&#x110;" horiz-adv-x="1458" d="M1401 844 Q1401 736 1379 631 Q1357 526 1311.5 432.5 Q1266 339 1195.5 259.5 Q1125 180 1027.5 122.5 Q930 65 804.5 32.5 Q679 0 524 0 L74 0 L213 649 L47 649 L76 801 L244 801 L379 1434 L770 1434 Q913 1434 1029.5 1392.5 Q1146 1351 1228.5 1274.5 Q1311 1198 1356 1089 Q1401 980 1401 844 Z M1225 831 Q1225 936 1194 1020 Q1163 1104 1101.5 1162 Q1040 1220 949 1251 Q858 1282 737 1282 L518 1282 L414 801 L756 801 L725 649 L383 649 L276 152 L528 152 Q707 152 838 203.5 Q969 255 1055 346 Q1141 437 1183 561.5 Q1225 686 1225 831 Z " />
<glyph glyph-name="Eogonek" unicode="&#x118;" horiz-adv-x="1022" d="M695 0 Q643 -47 607 -83 Q571 -119 549 -148.5 Q527 -178 517 -202.5 Q507 -227 507 -250 Q507 -330 587 -330 Q610 -330 635.5 -321.5 Q661 -313 677 -305 L662 -408 Q644 -417 616 -423.5 Q588 -430 554 -430 Q472 -430 432 -388.5 Q392 -347 392 -274 Q392 -247 402 -217.5 Q412 -188 435 -154.5 Q458 -121 496.5 -82.5 Q535 -44 593 0 L74 0 L377 1434 L1104 1434 L1071 1282 L518 1282 L414 793 L926 793 L893 641 L381 641 L276 152 L864 152 L834 0 L695 0 Z " />
<glyph glyph-name="eogonek" unicode="&#x119;" horiz-adv-x="997" d="M958 784 Q958 703 922 636.5 Q886 570 803 522.5 Q720 475 584 449 Q448 423 248 422 Q246 411 246 399 L246 379 Q246 325 261 277 Q276 229 307.5 193 Q339 157 388.5 136 Q438 115 506 115 Q575 115 657.5 141.5 Q740 168 815 217 L784 55 Q729 23 653 -1 Q603 -16 546 -22 Q510 -56 483 -83 Q447 -119 425 -148.5 Q403 -178 393 -202.5 Q383 -227 383 -250 Q383 -330 463 -330 Q486 -330 511.5 -321.5 Q537 -313 553 -305 L538 -408 Q520 -417 492 -423.5 Q464 -430 430 -430 Q348 -430 308 -388.5 Q268 -347 268 -274 Q268 -247 278 -217.5 Q288 -188 311 -154.5 Q334 -121 372 -82 Q400 -54 438 -23 Q354 -18 292 10 Q215 45 167.5 103.5 Q120 162 99 238.5 Q78 315 78 399 Q78 489 98 572.5 Q118 656 154.5 728 Q191 800 242 859.5 Q293 919 355 961 Q417 1003 488 1026 Q559 1049 635 1049 Q714 1049 774.5 1028 Q835 1007 875.5 970.5 Q916 934 937 886 Q958 838 958 784 Z M791 776 Q791 839 744.5 874 Q698 909 621 909 Q560 909 503 882.5 Q446 856 398 809.5 Q350 763 315 698.5 Q280 634 264 559 Q407 559 507 573.5 Q607 588 670 616 Q733 644 762 684.5 Q791 725 791 776 Z " />
<glyph glyph-name="Ecaron" unicode="&#x11a;" horiz-adv-x="1022" d="M1071 1282 L518 1282 L414 793 L926 793 L893 641 L381 641 L276 152 L864 152 L834 0 L74 0 L377 1434 L1104 1434 L1071 1282 Z M825 1567 L690 1567 L545 1898 L657 1898 L772 1667 L987 1898 L1106 1898 L825 1567 Z " />
<glyph glyph-name="ecaron" unicode="&#x11b;" horiz-adv-x="997" d="M958 784 Q958 703 922 636.5 Q886 570 803 522.5 Q720 475 584 449 Q448 423 248 422 Q246 411 246 399 Q246 388 246 379 Q246 325 261 277 Q276 229 307.5 193 Q339 157 388.5 136 Q438 115 506 115 Q575 115 657.5 141.5 Q740 168 815 217 L784 55 Q729 23 653 -1 Q577 -25 483 -25 Q370 -25 292.5 10 Q215 45 167.5 103.5 Q120 162 99 238.5 Q78 315 78 399 Q78 489 98 572.5 Q118 656 154.5 728 Q191 800 242 859.5 Q293 919 355 961 Q417 1003 488 1026 Q559 1049 635 1049 Q714 1049 774.5 1028 Q835 1007 875.5 970.5 Q916 934 937 886 Q958 838 958 784 Z M791 776 Q791 839 744.5 874 Q698 909 621 909 Q560 909 503 882.5 Q446 856 398 809.5 Q350 763 315 698.5 Q280 634 264 559 Q407 559 507 573.5 Q607 588 670 616 Q733 644 762 684.5 Q791 725 791 776 Z M747 1219 L612 1219 L467 1550 L579 1550 L694 1319 L909 1550 L1028 1550 L747 1219 Z " />
<glyph glyph-name="Lacute" unicode="&#x139;" horiz-adv-x="948" d="M817 0 L74 0 L377 1434 L551 1434 L279 156 L850 156 L817 0 Z M787 1567 L664 1567 L953 1894 L1114 1894 L787 1567 Z " />
<glyph glyph-name="lacute" unicode="&#x13a;" horiz-adv-x="530" d="M416 4 Q391 -4 359.5 -9 Q328 -14 297 -14 Q196 -14 146 36.5 Q96 87 96 172 Q96 197 101 231 Q106 265 117 315 L373 1517 L539 1517 L282 311 Q273 269 269.5 246 Q266 223 266 207 Q266 166 288.5 144.5 Q311 123 360 123 Q386 123 405.5 126 Q425 129 442 135 L416 4 Z M467 1652 L344 1652 L633 1979 L794 1979 L467 1652 Z " />
<glyph glyph-name="Lcaron" unicode="&#x13d;" horiz-adv-x="965" d="M817 0 L74 0 L377 1434 L551 1434 L279 156 L850 156 L817 0 Z M1094 1434 L873 1174 L750 1174 L922 1434 L1094 1434 Z " />
<glyph glyph-name="lcaron" unicode="&#x13e;" horiz-adv-x="604" d="M416 4 Q391 -4 359.5 -9 Q328 -14 297 -14 Q196 -14 146 36.5 Q96 87 96 172 Q96 197 101 231 Q106 265 117 315 L373 1517 L539 1517 L282 311 Q273 269 269.5 246 Q266 223 266 207 Q266 166 288.5 144.5 Q311 123 360 123 Q386 123 405.5 126 Q425 129 442 135 L416 4 Z M918 1516 L697 1256 L574 1256 L746 1516 L918 1516 Z " />
<glyph glyph-name="Ldot" unicode="&#x13f;" horiz-adv-x="965" d="M817 0 L74 0 L377 1434 L551 1434 L279 156 L850 156 L817 0 Z M894 751 Q894 709 866 680 Q838 651 796 651 Q777 651 759.5 658.5 Q742 666 729 679.5 Q716 693 708 711.5 Q700 730 700 751 Q700 772 708 789.5 Q716 807 729 819.5 Q742 832 759.5 839.5 Q777 847 796 847 Q816 847 833.5 839.5 Q851 832 864.5 819.5 Q878 807 886 789.5 Q894 772 894 751 Z " />
<glyph glyph-name="ldot" unicode="&#x140;" horiz-adv-x="645" d="M416 4 Q391 -4 359.5 -9 Q328 -14 297 -14 Q196 -14 146 36.5 Q96 87 96 172 Q96 197 101 231 Q106 265 117 315 L373 1517 L539 1517 L282 311 Q273 269 269.5 246 Q266 223 266 207 Q266 166 288.5 144.5 Q311 123 360 123 Q386 123 405.5 126 Q425 129 442 135 L416 4 Z M708 751 Q708 709 680 680 Q652 651 610 651 Q591 651 573.5 658.5 Q556 666 543 679.5 Q530 693 522 711.5 Q514 730 514 751 Q514 772 522 789.5 Q530 807 543 819.5 Q556 832 573.5 839.5 Q591 847 610 847 Q630 847 647.5 839.5 Q665 832 678.5 819.5 Q692 807 700 789.5 Q708 772 708 751 Z " />
<glyph glyph-name="Nacute" unicode="&#x143;" horiz-adv-x="1538" d="M1241 0 L1055 0 L526 1149 Q523 1157 519 1168.5 Q515 1180 511 1193 Q507 1206 504 1218 Q501 1230 500 1237 L494 1237 Q493 1227 491.5 1212.5 Q490 1198 488 1183 Q486 1168 483.5 1153.5 Q481 1139 479 1128 L240 0 L74 0 L377 1434 L578 1434 L1085 309 Q1090 300 1095 287.5 Q1100 275 1105 261.5 Q1110 248 1114.5 235 Q1119 222 1122 213 L1126 213 Q1127 225 1129 241 Q1131 257 1133 274.5 Q1135 292 1138 309 Q1141 326 1143 338 L1376 1434 L1546 1434 L1241 0 Z M937 1567 L814 1567 L1103 1894 L1264 1894 L937 1567 Z " />
<glyph glyph-name="nacute" unicode="&#x144;" horiz-adv-x="1151" d="M1046 768 Q1046 753 1042.5 727 Q1039 701 1033.5 671 Q1028 641 1022.5 611.5 Q1017 582 1012 561 L893 0 L727 0 L852 600 Q856 616 860 637 Q864 658 867 679 Q870 700 872 717.5 Q874 735 874 745 Q874 821 837.5 865 Q801 909 729 909 Q663 909 598 870 Q533 831 478 771 Q423 711 383.5 639 Q344 567 330 500 L223 0 L57 0 L215 731 Q223 770 231 812.5 Q239 855 246 894.5 Q253 934 258 968 Q263 1002 266 1024 L426 1024 Q421 985 414 942.5 Q407 900 402 864 Q396 822 389 782 L393 782 Q428 837 470.5 885.5 Q513 934 562.5 970.5 Q612 1007 667.5 1028 Q723 1049 784 1049 Q852 1049 901 1028.5 Q950 1008 982.5 971 Q1015 934 1030.5 882 Q1046 830 1046 768 Z M775 1219 L652 1219 L941 1546 L1102 1546 L775 1219 Z " />
<glyph glyph-name="Ncaron" unicode="&#x147;" horiz-adv-x="1538" d="M1241 0 L1055 0 L526 1149 Q523 1157 519 1168.5 Q515 1180 511 1193 Q507 1206 504 1218 Q501 1230 500 1237 L494 1237 Q493 1227 491.5 1212.5 Q490 1198 488 1183 Q486 1168 483.5 1153.5 Q481 1139 479 1128 L240 0 L74 0 L377 1434 L578 1434 L1085 309 Q1090 300 1095 287.5 Q1100 275 1105 261.5 Q1110 248 1114.5 235 Q1119 222 1122 213 L1126 213 Q1127 225 1129 241 Q1131 257 1133 274.5 Q1135 292 1138 309 Q1141 326 1143 338 L1376 1434 L1546 1434 L1241 0 Z M1031 1567 L896 1567 L751 1898 L863 1898 L978 1667 L1193 1898 L1312 1898 L1031 1567 Z " />
<glyph glyph-name="ncaron" unicode="&#x148;" horiz-adv-x="1151" d="M1046 768 Q1046 753 1042.5 727 Q1039 701 1033.5 671 Q1028 641 1022.5 611.5 Q1017 582 1012 561 L893 0 L727 0 L852 600 Q856 616 860 637 Q864 658 867 679 Q870 700 872 717.5 Q874 735 874 745 Q874 821 837.5 865 Q801 909 729 909 Q663 909 598 870 Q533 831 478 771 Q423 711 383.5 639 Q344 567 330 500 L223 0 L57 0 L215 731 Q223 770 231 812.5 Q239 855 246 894.5 Q253 934 258 968 Q263 1002 266 1024 L426 1024 Q421 985 414 942.5 Q407 900 402 864 Q396 822 389 782 L393 782 Q428 837 470.5 885.5 Q513 934 562.5 970.5 Q612 1007 667.5 1028 Q723 1049 784 1049 Q852 1049 901 1028.5 Q950 1008 982.5 971 Q1015 934 1030.5 882 Q1046 830 1046 768 Z M784 1219 L649 1219 L504 1550 L616 1550 L731 1319 L946 1550 L1065 1550 L784 1219 Z " />
<glyph glyph-name="Ohungarumlaut" unicode="&#x150;" horiz-adv-x="1544" d="M1487 852 Q1487 759 1470 667.5 Q1453 576 1421 491 Q1389 406 1342.5 330 Q1296 254 1237 193 Q1189 143 1133 102.5 Q1077 62 1013 33.5 Q949 5 876 -10 Q803 -25 719 -25 Q584 -25 476 21.5 Q368 68 292.5 149.5 Q217 231 177 343 Q137 455 137 586 Q137 794 204.5 959 Q272 1124 393 1245 Q491 1343 619.5 1400.5 Q748 1458 911 1458 Q1043 1458 1149.5 1413 Q1256 1368 1331 1287 Q1406 1206 1446.5 1095 Q1487 984 1487 852 Z M1309 846 Q1309 953 1280 1038 Q1251 1123 1197 1183 Q1143 1243 1067 1275 Q991 1307 897 1307 Q786 1307 685 1259 Q584 1211 506 1126 Q462 1078 426.5 1016 Q391 954 365.5 884 Q340 814 326.5 738 Q313 662 313 584 Q313 484 340.5 400 Q368 316 420.5 255.5 Q473 195 550 161 Q627 127 727 127 Q838 127 939.5 171.5 Q1041 216 1118 303 Q1166 357 1201.5 423.5 Q1237 490 1261 561.5 Q1285 633 1297 706 Q1309 779 1309 846 Z M1041 1568 L939 1568 L1186 1893 L1328 1893 L1041 1568 Z M785 1568 L683 1568 L932 1893 L1068 1893 L785 1568 Z " />
<glyph glyph-name="ohungarumlaut" unicode="&#x151;" horiz-adv-x="1096" d="M1018 645 Q1018 509 979.5 387 Q941 265 868.5 173.5 Q796 82 692.5 28.5 Q589 -25 459 -25 Q371 -25 300.5 3 Q230 31 180.5 83.5 Q131 136 104.5 210.5 Q78 285 78 379 Q78 520 118.5 642.5 Q159 765 232.5 855.5 Q306 946 408.5 997.5 Q511 1049 635 1049 Q722 1049 792.5 1021 Q863 993 913 940.5 Q963 888 990.5 813.5 Q1018 739 1018 645 Z M850 637 Q850 702 834 752.5 Q818 803 789 837.5 Q760 872 719 890.5 Q678 909 627 909 Q539 909 468 864 Q397 819 348 745.5 Q299 672 272.5 578.5 Q246 485 246 387 Q246 325 261.5 274.5 Q277 224 305.5 188.5 Q334 153 375.5 134 Q417 115 469 115 Q558 115 629 159.5 Q700 204 749 277.5 Q798 351 824 445 Q850 539 850 637 Z M808 1219 L706 1219 L953 1544 L1095 1544 L808 1219 Z M552 1219 L450 1219 L699 1544 L835 1544 L552 1219 Z " />
<glyph glyph-name="Racute" unicode="&#x154;" horiz-adv-x="1192" d="M1169 1079 Q1169 986 1136.5 911 Q1104 836 1047 782 Q990 728 911 695.5 Q832 663 739 655 L739 651 Q786 636 821.5 588 Q857 540 879 459 L999 0 L815 0 L709 428 Q686 522 635.5 566 Q585 610 502 610 L377 610 L246 0 L74 0 L377 1434 L772 1434 Q877 1434 952 1406 Q1027 1378 1075 1329.5 Q1123 1281 1146 1216.5 Q1169 1152 1169 1079 Z M993 1061 Q993 1109 978 1149.5 Q963 1190 932 1219.5 Q901 1249 853 1265.5 Q805 1282 739 1282 L518 1282 L408 762 L606 762 Q711 762 784.5 787 Q858 812 904.5 853 Q951 894 972 948.5 Q993 1003 993 1061 Z M758 1567 L635 1567 L924 1894 L1085 1894 L758 1567 Z " />
<glyph glyph-name="racute" unicode="&#x155;" horiz-adv-x="727" d="M766 850 L762 850 Q742 862 709.5 873.5 Q677 885 645 885 Q587 885 534 847.5 Q481 810 437.5 748.5 Q394 687 361.5 608 Q329 529 311 446 L215 0 L51 0 L195 680 Q204 722 213 768 Q222 814 229.5 860 Q237 906 243 948 Q249 990 252 1024 L414 1024 Q411 994 407 960.5 Q403 927 399 895.5 Q395 864 391 838.5 Q387 813 385 799 L389 799 Q421 856 454 902 Q487 948 523.5 980.5 Q560 1013 601 1031 Q642 1049 690 1049 Q718 1049 745.5 1043.5 Q773 1038 795 1032 L766 850 Z M575 1219 L452 1219 L741 1546 L902 1546 L575 1219 Z " />
<glyph glyph-name="Rcaron" unicode="&#x158;" horiz-adv-x="1192" d="M1169 1079 Q1169 986 1136.5 911 Q1104 836 1047 782 Q990 728 911 695.5 Q832 663 739 655 L739 651 Q786 636 821.5 588 Q857 540 879 459 L999 0 L815 0 L709 428 Q686 522 635.5 566 Q585 610 502 610 L377 610 L246 0 L74 0 L377 1434 L772 1434 Q877 1434 952 1406 Q1027 1378 1075 1329.5 Q1123 1281 1146 1216.5 Q1169 1152 1169 1079 Z M993 1061 Q993 1109 978 1149.5 Q963 1190 932 1219.5 Q901 1249 853 1265.5 Q805 1282 739 1282 L518 1282 L408 762 L606 762 Q711 762 784.5 787 Q858 812 904.5 853 Q951 894 972 948.5 Q993 1003 993 1061 Z M802 1567 L667 1567 L522 1898 L634 1898 L749 1667 L964 1898 L1083 1898 L802 1567 Z " />
<glyph glyph-name="rcaron" unicode="&#x159;" horiz-adv-x="727" d="M766 850 L762 850 Q742 862 709.5 873.5 Q677 885 645 885 Q587 885 534 847.5 Q481 810 437.5 748.5 Q394 687 361.5 608 Q329 529 311 446 L215 0 L51 0 L195 680 Q204 722 213 768 Q222 814 229.5 860 Q237 906 243 948 Q249 990 252 1024 L414 1024 Q411 994 407 960.5 Q403 927 399 895.5 Q395 864 391 838.5 Q387 813 385 799 L389 799 Q421 856 454 902 Q487 948 523.5 980.5 Q560 1013 601 1031 Q642 1049 690 1049 Q718 1049 745.5 1043.5 Q773 1038 795 1032 L766 850 Z M591 1219 L456 1219 L311 1550 L423 1550 L538 1319 L753 1550 L872 1550 L591 1219 Z " />
<glyph glyph-name="Sacute" unicode="&#x15a;" horiz-adv-x="1018" d="M991 1219 Q966 1237 931.5 1253 Q897 1269 857.5 1281 Q818 1293 775 1300 Q732 1307 690 1307 Q610 1307 555.5 1284.5 Q501 1262 468 1227.5 Q435 1193 420.5 1152 Q406 1111 406 1075 Q406 1028 419 990 Q432 952 458 917 Q484 882 525 847 Q566 812 621 772 Q683 727 731.5 683 Q780 639 814 592.5 Q848 546 865.5 494.5 Q883 443 883 383 Q883 346 875.5 301.5 Q868 257 848.5 212 Q829 167 795 124 Q761 81 708.5 48 Q656 15 582 -5 Q508 -25 408 -25 Q352 -25 298 -17 Q244 -9 195.5 4 Q147 17 106.5 33.5 Q66 50 37 66 L66 240 Q98 217 139 196.5 Q180 176 226 160.5 Q272 145 321 136 Q370 127 418 127 Q494 127 548.5 145 Q603 163 638.5 194.5 Q674 226 690.5 269 Q707 312 707 362 Q707 407 693 443 Q679 479 650 513.5 Q621 548 576.5 583.5 Q532 619 471 662 Q422 697 377.5 737.5 Q333 778 299.5 826 Q266 874 246.5 930.5 Q227 987 227 1053 Q227 1135 257.5 1208.5 Q288 1282 348 1337.5 Q408 1393 496.5 1425.5 Q585 1458 702 1458 Q747 1458 791.5 1452.5 Q836 1447 878 1437.5 Q920 1428 957.5 1416.5 Q995 1405 1024 1393 L991 1219 Z M726 1566 L603 1566 L892 1893 L1053 1893 L726 1566 Z " />
<glyph glyph-name="sacute" unicode="&#x15b;" horiz-adv-x="809" d="M725 844 Q680 873 624 891 Q568 909 512 909 Q418 909 366.5 866 Q315 823 315 752 Q315 723 324.5 699 Q334 675 352.5 653.5 Q371 632 399.5 612 Q428 592 465 569 Q577 504 626.5 435.5 Q676 367 676 281 Q676 223 654.5 167.5 Q633 112 586 69.5 Q539 27 464.5 1 Q390 -25 283 -25 Q253 -25 217 -21 Q181 -17 144.5 -9 Q108 -1 74.5 10.5 Q41 22 16 37 L49 193 Q69 179 98.5 165 Q128 151 162.5 140 Q197 129 234.5 122 Q272 115 309 115 Q409 115 458.5 155 Q508 195 508 266 Q508 292 500.5 314 Q493 336 474 358 Q455 380 424 402.5 Q393 425 346 453 Q244 515 195.5 582.5 Q147 650 147 735 Q147 797 170 853.5 Q193 910 238.5 953.5 Q284 997 353 1023 Q422 1049 514 1049 Q586 1049 650.5 1035 Q715 1021 760 999 L725 844 Z M578 1219 L455 1219 L744 1546 L905 1546 L578 1219 Z " />
<glyph glyph-name="Tcedilla" unicode="&#x162;" horiz-adv-x="1077" d="M614 -238 Q614 -327 539 -380.5 Q464 -434 321 -434 Q301 -434 278 -432.5 Q255 -431 233 -428 L251 -340 Q292 -346 327 -346 Q414 -346 455.5 -321 Q497 -296 497 -254 Q497 -219 468.5 -198.5 Q440 -178 378 -178 Q364 -178 350.5 -179 Q337 -180 323 -182 L362 0 L340 0 L612 1282 L195 1282 L227 1434 L1223 1434 L1190 1282 L782 1282 L512 0 L458 0 L434 -104 Q471 -104 503.5 -112.5 Q536 -121 560.5 -138 Q585 -155 599.5 -180 Q614 -205 614 -238 Z " />
<glyph glyph-name="tcedilla" unicode="&#x163;" horiz-adv-x="662" d="M495 -238 Q495 -327 420 -380.5 Q345 -434 202 -434 Q182 -434 159 -432.5 Q136 -431 114 -428 L132 -340 Q173 -346 208 -346 Q295 -346 336.5 -321 Q378 -296 378 -254 Q378 -219 349.5 -198.5 Q321 -178 259 -178 Q245 -178 231.5 -179 Q218 -180 204 -182 L242 -3 Q204 12 179 38 Q154 65 142.5 103.5 Q131 142 131 190 Q131 219 136.5 257.5 Q142 296 150 328 L268 885 L98 885 L129 1024 L297 1024 L350 1274 Q354 1276 380.5 1283.5 Q407 1291 438.5 1300.5 Q470 1310 496.5 1318 Q523 1326 526 1327 L463 1024 L721 1024 L690 885 L432 885 L317 342 Q311 311 305 275 Q299 239 299 217 Q299 166 321.5 143.5 Q344 121 393 121 Q405 121 424 125 Q443 129 463 135 Q483 141 502.5 148.5 Q522 156 537 162 L506 18 Q471 3 426.5 -7.5 Q382 -18 342 -18 L335 -18 L315 -104 Q352 -104 384.5 -112.5 Q417 -121 441.5 -138 Q466 -155 480.5 -180 Q495 -205 495 -238 Z " />
<glyph glyph-name="Tcaron" unicode="&#x164;" horiz-adv-x="1077" d="M1190 1282 L782 1282 L512 0 L340 0 L612 1282 L195 1282 L227 1434 L1223 1434 L1190 1282 Z M811 1567 L676 1567 L531 1898 L643 1898 L758 1667 L973 1898 L1092 1898 L811 1567 Z " />
<glyph glyph-name="tcaron" unicode="&#x165;" horiz-adv-x="745" d="M690 885 L432 885 L317 342 Q311 311 305 275 Q299 239 299 217 Q299 166 321.5 143.5 Q344 121 393 121 Q405 121 424 125 Q443 129 463 135 Q483 141 502.5 148.5 Q522 156 537 162 L506 18 Q471 3 426.5 -7.5 Q382 -18 342 -18 Q285 -18 245 -3.5 Q205 11 179.5 38 Q154 65 142.5 103.5 Q131 142 131 190 Q131 219 136.5 257.5 Q142 296 150 328 L268 885 L98 885 L129 1024 L297 1024 L350 1274 Q354 1276 380.5 1283.5 Q407 1291 438.5 1300.5 Q470 1310 496.5 1318 Q523 1326 526 1327 L463 1024 L721 1024 L690 885 Z M1049 1516 L828 1256 L705 1256 L877 1516 L1049 1516 Z " />
<glyph glyph-name="Uring" unicode="&#x16e;" horiz-adv-x="1411" d="M1247 563 Q1217 423 1171.5 313.5 Q1126 204 1054.5 129 Q983 54 880 14.5 Q777 -25 633 -25 Q522 -25 435 10 Q348 45 289 106 Q230 167 199 250 Q168 333 168 430 Q168 473 173.5 527 Q179 581 188 629 L362 1434 L535 1434 L362 639 Q358 616 353.5 589 Q349 562 345.5 535 Q342 508 340 484 Q338 460 338 442 Q338 362 362 303 Q386 244 428.5 205 Q471 166 528.5 146.5 Q586 127 653 127 Q738 127 805 151 Q872 175 923 226 Q974 277 1010.5 356 Q1047 435 1071 545 L1262 1434 L1434 1434 L1247 563 Z M1127 1765 Q1127 1723 1111 1687 Q1095 1651 1067 1624 Q1039 1597 1001 1582 Q963 1567 920 1567 Q877 1567 840 1580.5 Q803 1594 775.5 1619 Q748 1644 732.5 1679 Q717 1714 717 1757 Q717 1803 733.5 1840 Q750 1877 778 1902.5 Q806 1928 844.5 1942 Q883 1956 926 1956 Q971 1956 1008 1942 Q1045 1928 1071.5 1902.5 Q1098 1877 1112.5 1842 Q1127 1807 1127 1765 Z M1035 1763 Q1035 1788 1026 1808.5 Q1017 1829 1001.5 1843.5 Q986 1858 965 1866 Q944 1874 920 1874 Q871 1874 839.5 1842.5 Q808 1811 808 1763 Q808 1709 840 1678.5 Q872 1648 920 1648 Q945 1648 966 1657 Q987 1666 1002.5 1682 Q1018 1698 1026.5 1718.5 Q1035 1739 1035 1763 Z " />
<glyph glyph-name="uring" unicode="&#x16f;" horiz-adv-x="1143" d="M930 291 Q921 252 913.5 210 Q906 168 899 129 Q892 90 887 56 Q882 22 879 0 L719 0 Q724 39 730.5 81.5 Q737 124 743 160 Q750 202 756 242 L752 242 Q717 187 674.5 138.5 Q632 90 582.5 53.5 Q533 17 477.5 -4 Q422 -25 362 -25 Q296 -25 246.5 -4.5 Q197 16 164 53 Q131 90 114.5 142 Q98 194 98 258 Q98 271 102 297 Q106 323 111 353 Q116 383 122.5 412.5 Q129 442 133 463 L252 1024 L418 1024 L291 424 Q287 408 283 387 Q279 366 275.5 345 Q272 324 270 306.5 Q268 289 268 279 Q268 204 304.5 159.5 Q341 115 414 115 Q458 115 502 133 Q546 151 587.5 181.5 Q629 212 666 252.5 Q703 293 733 338.5 Q763 384 784 432 Q805 480 815 524 L922 1024 L1087 1024 L930 291 Z M919 1374 Q919 1332 903 1296 Q887 1260 859 1233 Q831 1206 793 1191 Q755 1176 712 1176 Q669 1176 632 1189.5 Q595 1203 567.5 1228 Q540 1253 524.5 1288 Q509 1323 509 1366 Q509 1412 525.5 1449 Q542 1486 570 1511.5 Q598 1537 636.5 1551 Q675 1565 718 1565 Q763 1565 800 1551 Q837 1537 863.5 1511.5 Q890 1486 904.5 1451 Q919 1416 919 1374 Z M827 1372 Q827 1397 818 1417.5 Q809 1438 793.5 1452.5 Q778 1467 757 1475 Q736 1483 712 1483 Q663 1483 631.5 1451.5 Q600 1420 600 1372 Q600 1318 632 1287.5 Q664 1257 712 1257 Q737 1257 758 1266 Q779 1275 794.5 1291 Q810 1307 818.5 1327.5 Q827 1348 827 1372 Z " />
<glyph glyph-name="Uhungarumlaut" unicode="&#x170;" horiz-adv-x="1411" d="M1247 563 Q1217 423 1171.5 313.5 Q1126 204 1054.5 129 Q983 54 880 14.5 Q777 -25 633 -25 Q522 -25 435 10 Q348 45 289 106 Q230 167 199 250 Q168 333 168 430 Q168 473 173.5 527 Q179 581 188 629 L362 1434 L535 1434 L362 639 Q358 616 353.5 589 Q349 562 345.5 535 Q342 508 340 484 Q338 460 338 442 Q338 362 362 303 Q386 244 428.5 205 Q471 166 528.5 146.5 Q586 127 653 127 Q738 127 805 151 Q872 175 923 226 Q974 277 1010.5 356 Q1047 435 1071 545 L1262 1434 L1434 1434 L1247 563 Z M1000 1567 L898 1567 L1145 1892 L1287 1892 L1000 1567 Z M744 1567 L642 1567 L891 1892 L1027 1892 L744 1567 Z " />
<glyph glyph-name="uhungarumlaut" unicode="&#x171;" horiz-adv-x="1143" d="M930 291 Q921 252 913.5 210 Q906 168 899 129 Q892 90 887 56 Q882 22 879 0 L719 0 Q724 39 730.5 81.5 Q737 124 743 160 Q750 202 756 242 L752 242 Q717 187 674.5 138.5 Q632 90 582.5 53.5 Q533 17 477.5 -4 Q422 -25 362 -25 Q296 -25 246.5 -4.5 Q197 16 164 53 Q131 90 114.5 142 Q98 194 98 258 Q98 271 102 297 Q106 323 111 353 Q116 383 122.5 412.5 Q129 442 133 463 L252 1024 L418 1024 L291 424 Q287 408 283 387 Q279 366 275.5 345 Q272 324 270 306.5 Q268 289 268 279 Q268 204 304.5 159.5 Q341 115 414 115 Q458 115 502 133 Q546 151 587.5 181.5 Q629 212 666 252.5 Q703 293 733 338.5 Q763 384 784 432 Q805 480 815 524 L922 1024 L1087 1024 L930 291 Z M818 1219 L716 1219 L963 1544 L1105 1544 L818 1219 Z M562 1219 L460 1219 L709 1544 L845 1544 L562 1219 Z " />
<glyph glyph-name="Zacute" unicode="&#x179;" horiz-adv-x="1167" d="M1309 1391 L227 152 L1026 152 L993 0 L-78 0 L-68 51 L1006 1282 L262 1282 L293 1434 L1319 1434 L1309 1391 Z M799 1568 L676 1568 L965 1895 L1126 1895 L799 1568 Z " />
<glyph glyph-name="zacute" unicode="&#x17a;" horiz-adv-x="926" d="M981 975 L213 139 L795 139 L764 0 L-78 0 L-66 53 L702 885 L168 885 L199 1024 L991 1024 L981 975 Z M616 1219 L493 1219 L782 1546 L943 1546 L616 1219 Z " />
<glyph glyph-name="Zdotaccent" unicode="&#x17b;" horiz-adv-x="1167" d="M1309 1391 L227 152 L1026 152 L993 0 L-78 0 L-68 51 L1006 1282 L262 1282 L293 1434 L1319 1434 L1309 1391 Z M909 1666 Q909 1624 881 1595 Q853 1566 811 1566 Q792 1566 774.5 1573.5 Q757 1581 744 1594.5 Q731 1608 723 1626.5 Q715 1645 715 1666 Q715 1687 723 1704.5 Q731 1722 744 1734.5 Q757 1747 774.5 1754.5 Q792 1762 811 1762 Q831 1762 848.5 1754.5 Q866 1747 879.5 1734.5 Q893 1722 901 1704.5 Q909 1687 909 1666 Z " />
<glyph glyph-name="zdotaccent" unicode="&#x17c;" horiz-adv-x="926" d="M981 975 L213 139 L795 139 L764 0 L-78 0 L-66 53 L702 885 L168 885 L199 1024 L991 1024 L981 975 Z M716 1319 Q716 1277 688 1248 Q660 1219 618 1219 Q599 1219 581.5 1226.5 Q564 1234 551 1247.5 Q538 1261 530 1279.5 Q522 1298 522 1319 Q522 1340 530 1357.5 Q538 1375 551 1387.5 Q564 1400 581.5 1407.5 Q599 1415 618 1415 Q638 1415 655.5 1407.5 Q673 1400 686.5 1387.5 Q700 1375 708 1357.5 Q716 1340 716 1319 Z " />
<glyph glyph-name="Gamma" unicode="&#x393;" horiz-adv-x="967" d="M1089 1278 L517 1278 L245 0 L73 0 L378 1434 L1122 1434 L1089 1278 Z " />
<glyph glyph-name="Theta" unicode="&#x398;" horiz-adv-x="1544" d="M1487 852 Q1487 759 1470 667.5 Q1453 576 1421 491 Q1389 406 1342.5 330 Q1296 254 1237 193 Q1189 143 1133 102.5 Q1077 62 1013 33.5 Q949 5 876 -10 Q803 -25 719 -25 Q584 -25 476 21.5 Q368 68 292.5 149.5 Q217 231 177 343 Q137 455 137 586 Q137 794 204.5 959 Q272 1124 393 1245 Q491 1343 619.5 1400.5 Q748 1458 911 1458 Q1043 1458 1149.5 1413 Q1256 1368 1331 1287 Q1406 1206 1446.5 1095 Q1487 984 1487 852 Z M1309 846 Q1309 953 1280 1038 Q1251 1123 1197 1183 Q1143 1243 1067 1275 Q991 1307 897 1307 Q786 1307 685 1259 Q584 1211 506 1126 Q462 1078 426.5 1016 Q391 954 365.5 884 Q340 814 326.5 738 Q313 662 313 584 Q313 484 340.5 400 Q368 316 420.5 255.5 Q473 195 550 161 Q627 127 727 127 Q838 127 939.5 171.5 Q1041 216 1118 303 Q1166 357 1201.5 423.5 Q1237 490 1261 561.5 Q1285 633 1297 706 Q1309 779 1309 846 Z M1063 637 L525 637 L558 793 L1096 793 L1063 637 Z " />
<glyph glyph-name="Phi" unicode="&#x3a6;" horiz-adv-x="1544" d="M1517 825 Q1517 745 1499 666.5 Q1481 588 1445.5 517.5 Q1410 447 1356.5 387.5 Q1303 328 1232.5 284.5 Q1162 241 1074 216.5 Q986 192 880 192 L763 192 L718 -19 L552 -19 L597 192 L534 192 Q429 192 344 223.5 Q259 255 199 315 Q139 375 106 461 Q73 547 73 655 Q73 778 113.5 893 Q154 1008 234.5 1097 Q315 1186 435 1240 Q555 1294 714 1294 L833 1294 L866 1451 L1029 1451 L995 1294 L1058 1294 Q1162 1294 1246.5 1262 Q1331 1230 1391 1169.5 Q1451 1109 1484 1022 Q1517 935 1517 825 Z M1345 818 Q1345 901 1322.5 964 Q1300 1027 1258.5 1069 Q1217 1111 1158 1132.5 Q1099 1154 1025 1154 L966 1154 L792 329 L880 329 Q991 329 1078 367.5 Q1165 406 1224 472.5 Q1283 539 1314 628 Q1345 717 1345 818 Z M712 1154 Q601 1154 514 1116 Q427 1078 368 1012 Q309 946 278 857 Q247 768 247 667 Q247 583 269.5 520 Q292 457 334 414.5 Q376 372 435 350.5 Q494 329 567 329 L626 329 L800 1154 L712 1154 Z " />
<glyph glyph-name="alpha" unicode="&#x3b1;" horiz-adv-x="1282" d="M1286 1024 Q1271 996 1248 955 Q1225 914 1197 865.5 Q1169 817 1139 765.5 Q1109 714 1080.5 665.5 Q1052 617 1027 575.5 Q1002 534 985 505 Q991 405 1000.5 336 Q1010 267 1024 224 Q1038 181 1058 162 Q1078 143 1106 143 Q1118 143 1134.5 145 Q1151 147 1163 152 L1120 -2 Q1105 -7 1087 -10.5 Q1069 -14 1044 -14 Q1003 -14 970 3.5 Q937 21 913.5 60 Q890 99 876 163 Q862 227 858 320 L856 320 Q761 145 649.5 59.5 Q538 -26 397 -26 Q324 -26 264.5 -1 Q205 24 164 72.5 Q123 121 100.5 192 Q78 263 78 355 Q78 449 99 537 Q120 625 158 702.5 Q196 780 249 843.5 Q302 907 365.5 953 Q429 999 501 1024 Q573 1049 649 1049 Q722 1049 774 1022 Q826 995 861 949 Q896 903 916.5 843 Q937 783 946 717 L948 717 Q965 747 986 787 Q1007 827 1029 869 Q1051 911 1071.5 951.5 Q1092 992 1107 1024 L1286 1024 L1286 1024 Z M649 915 Q568 915 496 868.5 Q424 822 369 744.5 Q314 667 282 567 Q250 467 250 359 Q250 304 262 259.5 Q274 215 295.5 183 Q317 151 348.5 133.5 Q380 116 419 116 Q513 116 605.5 190.5 Q698 265 788 424 Q794 435 803 451.5 Q812 468 821 484 Q832 502 842 522 Q838 598 826.5 669 Q815 740 793 794.5 Q771 849 736 882 Q701 915 649 915 Z " />
<glyph glyph-name="delta" unicode="&#x3b4;" horiz-adv-x="1196" d="M1180 1299 Q1146 1321 1105.5 1338.5 Q1065 1356 1022.5 1368.5 Q980 1381 936.5 1387.5 Q893 1394 854 1394 Q727 1394 657 1351 Q587 1308 587 1233 Q587 1189 605.5 1152 Q624 1115 656.5 1080.5 Q689 1046 732.5 1012 Q776 978 827 940 Q892 892 942.5 841 Q993 790 1027 733.5 Q1061 677 1078.5 614 Q1096 551 1096 479 Q1096 371 1062.5 278.5 Q1029 186 959.5 118.5 Q890 51 784 13 Q678 -25 533 -25 Q427 -25 342 4.5 Q257 34 197.5 89.5 Q138 145 106 223.5 Q74 302 74 399 Q74 487 97.5 557 Q121 627 160 682 Q199 737 251 778.5 Q303 820 359.5 850.5 Q416 881 474.5 901.5 Q533 922 586 936 Q552 964 521.5 997 Q491 1030 468 1068 Q445 1106 431.5 1148 Q418 1190 418 1235 Q418 1320 456 1377.5 Q494 1435 557.5 1469.5 Q621 1504 703 1519 Q785 1534 872 1534 Q972 1534 1061.5 1514.5 Q1151 1495 1214 1464 L1180 1299 Z M692 847 Q603 824 522 790.5 Q441 757 379 705.5 Q317 654 280.5 580 Q244 506 244 403 Q244 337 263.5 283.5 Q283 230 320 192.5 Q357 155 411 135 Q465 115 535 115 Q624 115 696 138.5 Q768 162 819 207 Q870 252 898 318.5 Q926 385 926 471 Q926 539 906.5 594 Q887 649 854.5 694 Q822 739 779.5 776.5 Q737 814 692 847 Z " />
<glyph glyph-name="epsilon" unicode="&#x3b5;" horiz-adv-x="936" d="M887 834 Q863 851 829.5 864.5 Q796 878 758.5 888.5 Q721 899 683 904.5 Q645 910 612 910 Q561 910 512.5 901.5 Q464 893 426.5 874 Q389 855 366.5 824.5 Q344 794 344 750 Q344 702 367 672 Q390 642 426.5 624.5 Q463 607 507.5 600.5 Q552 594 594 594 Q605 594 625.5 594 Q646 594 668 594.5 Q690 595 709.5 596 Q729 597 739 598 L715 459 Q708 461 668.5 462 Q629 463 573 463 Q493 463 426 453 Q359 443 310.5 420 Q262 397 235 360 Q208 323 208 268 Q208 234 221.5 205.5 Q235 177 264 156.5 Q293 136 339 125 Q385 114 450 114 Q539 114 632 138.5 Q725 163 808 205 L771 37 Q709 11 621 -7 Q533 -25 430 -25 Q328 -25 254 -4 Q180 17 131.5 54.5 Q83 92 60 143 Q37 194 37 254 Q37 326 68 376.5 Q99 427 147 460.5 Q195 494 252.5 512 Q310 530 364 537 L366 541 Q329 550 294.5 568 Q260 586 233.5 612.5 Q207 639 191.5 674.5 Q176 710 176 754 Q176 835 213.5 891.5 Q251 948 313 983 Q375 1018 454.5 1033.5 Q534 1049 618 1049 Q715 1049 793 1033 Q871 1017 917 991 L887 834 Z " />
<glyph glyph-name="sigma" unicode="&#x3c3;" horiz-adv-x="1171" d="M1239 892 L995 892 Q1014 841 1026 772.5 Q1038 704 1038 627 Q1038 488 1002.5 368.5 Q967 249 897 161.5 Q827 74 724.5 24.5 Q622 -25 487 -25 Q390 -25 314 4.5 Q238 34 185.5 88 Q133 142 105.5 218.5 Q78 295 78 390 Q78 542 123.5 660 Q169 778 253.5 859 Q338 940 458.5 982 Q579 1024 729 1024 L1268 1024 L1239 892 Z M870 631 Q870 702 862.5 771 Q855 840 838 890 L720 890 Q621 890 534.5 860 Q448 830 384.5 768 Q321 706 284.5 611 Q248 516 248 387 Q248 323 266 272.5 Q284 222 317.5 186.5 Q351 151 398 132.5 Q445 114 502 114 Q574 114 629.5 137 Q685 160 725.5 199 Q766 238 794 289.5 Q822 341 838.5 398.5 Q855 456 862.5 516 Q870 576 870 631 Z " />
<glyph glyph-name="tau" unicode="&#x3c4;" horiz-adv-x="1001" d="M1041 885 L634 885 L513 311 Q510 299 507.5 284 Q505 269 502.5 254 Q500 239 498.5 226.5 Q497 214 497 207 Q497 180 506 163.5 Q515 147 529 138 Q543 129 559.5 126 Q576 123 591 123 Q617 123 636.5 126 Q656 129 673 135 L646 4 Q621 -4 589.5 -9 Q558 -14 527 -14 Q475 -14 437 -0.5 Q399 13 374.5 38 Q350 63 338.5 97 Q327 131 327 172 Q327 187 329 206 Q331 225 334 245 Q337 265 340.5 283.5 Q344 302 347 315 L468 885 L325 885 Q291 885 255 878.5 Q219 872 185 862 Q151 852 120 839 Q89 826 64 813 L97 970 Q142 991 208.5 1007.5 Q275 1024 366 1024 L1072 1024 L1041 885 Z " />
<glyph glyph-name="phi" unicode="&#x3c6;" horiz-adv-x="1494" d="M1416 651 Q1416 529 1388.5 431.5 Q1361 334 1312.5 258.5 Q1264 183 1199 129.5 Q1134 76 1059.5 41.5 Q985 7 904.5 -9 Q824 -25 744 -25 L714 -25 L618 -481 L452 -481 L549 -25 L521 -25 Q424 -25 342.5 2 Q261 29 202 81.5 Q143 134 110.5 212 Q78 290 78 391 Q78 492 102.5 582 Q127 672 169 751 Q211 830 268 898.5 Q325 967 390 1024 L586 1024 Q513 963 451 891.5 Q389 820 344 741 Q299 662 274 576 Q249 490 249 399 Q249 311 277.5 254.5 Q306 198 350.5 166 Q395 134 450.5 121.5 Q506 109 560 109 L577 109 L710 733 Q726 808 754.5 867 Q783 926 826.5 966.5 Q870 1007 929 1028 Q988 1049 1066 1049 Q1146 1049 1210.5 1020 Q1275 991 1321 938.5 Q1367 886 1391.5 813 Q1416 740 1416 651 Z M1244 645 Q1244 773 1193 844 Q1142 915 1057 915 Q983 915 940 873 Q897 831 878 741 L743 109 L769 109 Q855 109 940 139 Q1025 169 1092.5 233.5 Q1160 298 1202 399.5 Q1244 501 1244 645 Z " />
<glyph glyph-name="underscoredbl" unicode="&#x2017;" horiz-adv-x="850" d="M0 -277 L0 -158 L850 -158 L850 -277 L0 -277 Z M0 -514 L0 -395 L850 -395 L850 -514 L0 -514 Z " />
<glyph glyph-name="exclamdbl" unicode="&#x203c;" horiz-adv-x="983" d="M367 403 L231 403 L432 1434 L604 1434 L367 403 Z M354 92 Q354 69 345 49 Q336 29 321 14 Q306 -1 286 -9.5 Q266 -18 244 -18 Q221 -18 200.5 -9.5 Q180 -1 165 14 Q150 29 141.5 49 Q133 69 133 92 Q133 115 141.5 135.5 Q150 156 165 171 Q180 186 200.5 194.5 Q221 203 244 203 Q266 203 286 194.5 Q306 186 321 171 Q336 156 345 135.5 Q354 115 354 92 Z M769 403 L633 403 L834 1434 L1006 1434 L769 403 Z M756 92 Q756 69 747 49 Q738 29 723 14 Q708 -1 688 -9.5 Q668 -18 646 -18 Q623 -18 602.5 -9.5 Q582 -1 567 14 Q552 29 543.5 49 Q535 69 535 92 Q535 115 543.5 135.5 Q552 156 567 171 Q582 186 602.5 194.5 Q623 203 646 203 Q668 203 688 194.5 Q708 186 723 171 Q738 156 747 135.5 Q756 115 756 92 Z " />
<glyph glyph-name="nsuperior" unicode="&#x207f;" horiz-adv-x="803" d="M260 717 L131 717 L284 1436 L413 1436 L378 1280 L382 1280 Q405 1316 434 1348 Q463 1380 498 1404 Q533 1428 572.5 1442 Q612 1456 655 1456 Q736 1456 784 1406 Q832 1356 832 1262 Q832 1241 829 1212 Q826 1183 818 1148 L727 717 L598 717 L694 1167 Q696 1176 697.5 1187 Q699 1198 700.5 1209.5 Q702 1221 703 1231 Q704 1241 704 1248 Q704 1290 679.5 1316.5 Q655 1343 604 1343 Q554 1343 509 1317 Q464 1291 429 1252.5 Q394 1214 370.5 1170 Q347 1126 339 1090 L260 717 Z " />
<glyph glyph-name="peseta" unicode="&#x20a7;" horiz-adv-x="2273" d="M1598 741 L1362 741 L1277 342 Q1274 327 1271 309 Q1268 291 1265 273 Q1262 255 1260.5 239.5 Q1259 224 1259 213 Q1259 170 1277.5 145.5 Q1296 121 1338 121 Q1364 121 1407.5 131.5 Q1451 142 1497 162 L1466 15 Q1431 0 1386.5 -9 Q1342 -18 1302 -18 Q1245 -18 1205.5 -2.5 Q1166 13 1141 41 Q1116 69 1105 108.5 Q1094 148 1094 196 Q1094 225 1098.5 262 Q1103 299 1110 328 L1198 741 L1042 741 L1061 827 Q1025 752 964 694 Q891 624 778.5 583.5 Q666 543 512 543 L364 543 L250 0 L78 0 L381 1434 L682 1434 Q798 1434 879 1402.5 Q960 1371 1011.5 1318.5 Q1063 1266 1086.5 1198 Q1110 1130 1110 1057 Q1110 963 1082 880 L1227 880 L1280 1130 Q1282 1131 1295.5 1135 Q1309 1139 1328 1144.5 Q1347 1150 1368.5 1156.5 Q1390 1163 1409 1168.5 Q1428 1174 1441 1178 Q1454 1182 1456 1183 L1393 880 L1629 880 L1598 741 Z M933 1042 Q933 1096 914.5 1140.5 Q896 1185 860 1216.5 Q824 1248 770.5 1265 Q717 1282 647 1282 L522 1282 L397 694 L528 694 Q634 694 710.5 720.5 Q787 747 836.5 793.5 Q886 840 909.5 903.5 Q933 967 933 1042 Z M2195 678 Q2153 708 2096 726.5 Q2039 745 1987 745 Q1899 745 1846.5 716 Q1794 687 1794 629 Q1794 608 1803 591.5 Q1812 575 1831.5 559.5 Q1851 544 1881.5 528.5 Q1912 513 1955 495 Q2014 470 2054 444 Q2094 418 2118 389.5 Q2142 361 2152 328 Q2162 295 2162 254 Q2162 195 2140 144 Q2118 93 2073.5 55.5 Q2029 18 1962 -3.5 Q1895 -25 1805 -25 Q1765 -25 1724 -21 Q1683 -17 1645.5 -9 Q1608 -1 1575 10.5 Q1542 22 1517 37 L1550 193 Q1570 179 1599.5 165 Q1629 151 1663.5 140 Q1698 129 1735.5 122 Q1773 115 1810 115 Q1865 115 1904 125 Q1943 135 1968 153 Q1993 171 2004.5 195 Q2016 219 2016 247 Q2016 270 2007 289 Q1998 308 1977 325.5 Q1956 343 1922.5 361 Q1889 379 1840 401 Q1786 425 1749.5 449.5 Q1713 474 1690.5 502 Q1668 530 1658 562 Q1648 594 1648 633 Q1648 689 1672.5 735.5 Q1697 782 1742 815 Q1787 848 1850.5 866.5 Q1914 885 1992 885 Q2020 885 2053 881.5 Q2086 878 2118 871 Q2150 864 2179.5 855 Q2209 846 2230 835 L2195 678 Z " />
<glyph glyph-name="IJ" unicode="&#x132;" horiz-adv-x="1268" d="M246 0 L74 0 L377 1434 L551 1434 L246 0 Z M1094 508 Q1066 378 1024.5 278 Q983 178 925 111 Q867 44 791 9.5 Q715 -25 618 -25 Q600 -25 575 -22 Q550 -19 526 -13.5 Q502 -8 482 -2 Q462 4 453 10 L481 170 Q492 161 507.5 152.5 Q523 144 541 138 Q559 132 579 128.5 Q599 125 618 125 Q672 125 718 144.5 Q764 164 801.5 208.5 Q839 253 869 324.5 Q899 396 921 500 L1118 1434 L1290 1434 L1094 508 Z " />
<glyph glyph-name="ij" unicode="&#x133;" horiz-adv-x="1025" d="M416 4 Q391 -4 359.5 -9 Q328 -14 297 -14 Q196 -14 146 36.5 Q96 87 96 172 Q96 197 101 231 Q106 265 117 315 L266 1024 L432 1024 L282 311 Q273 269 269.5 246 Q266 223 266 207 Q266 166 288.5 144.5 Q311 123 360 123 Q386 123 405.5 126 Q425 129 442 135 L416 4 Z M533 1389 Q533 1344 502.5 1312 Q472 1280 427 1280 Q383 1280 350.5 1311.5 Q318 1343 318 1389 Q318 1435 350.5 1464 Q383 1493 427 1493 Q471 1493 502 1463.5 Q533 1434 533 1389 Z M758 47 Q703 -217 587.5 -349 Q472 -481 289 -481 Q272 -481 252.5 -479 Q233 -477 213.5 -473 Q194 -469 175.5 -463.5 Q157 -458 142 -451 L171 -297 Q183 -305 199 -313 Q215 -321 233 -327.5 Q251 -334 269.5 -338 Q288 -342 304 -342 Q407 -342 478 -253 Q549 -164 586 16 L801 1024 L965 1024 L758 47 Z M1066 1389 Q1066 1344 1035.5 1312 Q1005 1280 960 1280 Q916 1280 883.5 1311.5 Q851 1343 851 1389 Q851 1435 883.5 1464 Q916 1493 960 1493 Q1004 1493 1035 1463.5 Q1066 1434 1066 1389 Z " />
<glyph glyph-name="napostrophe" unicode="&#x149;" horiz-adv-x="1241" d="M1136 768 Q1136 753 1132.5 727 Q1129 701 1123.5 671 Q1118 641 1112.5 611.5 Q1107 582 1102 561 L983 0 L817 0 L942 600 Q946 616 950 637 Q954 658 957 679 Q960 700 962 717.5 Q964 735 964 745 Q964 821 927.5 865 Q891 909 819 909 Q753 909 688 870 Q623 831 568 771 Q513 711 473.5 639 Q434 567 420 500 L313 0 L147 0 L305 731 Q313 770 321 812.5 Q329 855 336 894.5 Q343 934 348 968 Q353 1002 356 1024 L516 1024 Q511 985 504 942.5 Q497 900 492 864 Q486 822 479 782 L483 782 Q518 837 560.5 885.5 Q603 934 652.5 970.5 Q702 1007 757.5 1028 Q813 1049 874 1049 Q942 1049 991 1028.5 Q1040 1008 1072.5 971 Q1105 934 1120.5 882 Q1136 830 1136 768 Z M193 987 L77 987 L253 1434 L400 1434 L193 987 Z " />
<glyph glyph-name="minute" unicode="&#x2032;" horiz-adv-x="469" d="M489 1434 L383 987 L269 987 L353 1434 L489 1434 Z " />
<glyph glyph-name="second" unicode="&#x2033;" horiz-adv-x="772" d="M773 1434 L668 987 L552 987 L638 1434 L773 1434 Z M491 1434 L386 987 L271 987 L356 1434 L491 1434 Z " />
<glyph glyph-name="uni2105" unicode="&#x2105;" horiz-adv-x="1646" d="M1535 428 Q1535 251 1429 119 Q1316 -20 1149 -20 Q992 -20 916 83 Q858 162 858 276 Q858 448 965 579 Q1080 721 1252 721 Q1382 721 1458.5 643.5 Q1535 566 1535 428 Z M1510 1434 L282 0 L135 0 L1363 1434 L1510 1434 Z M1400 423 Q1400 609 1250 609 Q1136 609 1061 497 Q993 396 993 275 Q993 91 1152 91 Q1259 91 1331 194 Q1400 291 1400 423 Z M744 1271 Q665 1339 575 1339 Q449 1339 375 1226 Q314 1132 314 1016 Q314 828 468 828 Q554 828 672 907 L642 766 Q539 713 447 713 Q315 713 244 798 Q177 877 177 1007 Q177 1191 284 1318 Q400 1454 589 1454 Q703 1454 776 1404 L744 1271 Z " />
<glyph glyph-name="uni2113" unicode="&#x2113;" horiz-adv-x="662" d="M3 453 L193 677 L193 1112 Q193 1184 201 1252 Q209 1320 234 1373.5 Q259 1427 306 1459 Q353 1491 430 1491 Q478 1491 517.5 1477 Q557 1463 585.5 1436 Q614 1409 629.5 1369.5 Q645 1330 645 1279 Q645 1222 623 1158.5 Q601 1095 556 1021 Q511 947 443.5 858.5 Q376 770 285 662 L285 263 Q285 215 291.5 177.5 Q298 140 313 113.5 Q328 87 353.5 73 Q379 59 418 59 Q463 59 512.5 88.5 Q562 118 616 165 L616 66 Q564 23 511.5 -1 Q459 -25 391 -25 Q291 -25 242 43 Q193 111 193 263 L193 554 L63 399 L3 453 Z M285 785 Q414 937 484.5 1057.5 Q555 1178 555 1277 Q555 1313 545 1338 Q535 1363 517.5 1379 Q500 1395 477.5 1402.5 Q455 1410 430 1410 Q382 1410 353.5 1385.5 Q325 1361 309.5 1319.5 Q294 1278 289.5 1223 Q285 1168 285 1108 L285 785 Z " />
<glyph glyph-name="uni25A1" unicode="&#x25a1;" horiz-adv-x="1237" d="M145 944 L1090 944 L1090 0 L145 0 L145 944 Z M221 868 L221 76 L1014 76 L1014 868 L221 868 Z " />
<glyph glyph-name="uni25AA" unicode="&#x25aa;" horiz-adv-x="725" d="M594 907 L594 444 L131 444 L131 907 L594 907 Z " />
<glyph glyph-name="uni25AB" unicode="&#x25ab;" horiz-adv-x="725" d="M594 907 L594 444 L131 444 L131 907 L594 907 Z M518 831 L207 831 L207 520 L518 520 L518 831 Z " />
<glyph glyph-name="uni25CF" unicode="&#x25cf;" horiz-adv-x="1237" d="M618 1018 Q734 1018 838.5 958.5 Q943 899 999 799 Q1059 692 1059 578 Q1059 394 931.5 265.5 Q804 137 621 137 Q437 137 307.5 265.5 Q178 394 178 578 Q178 697 238 801 Q298 905 403.5 961.5 Q509 1018 618 1018 Z " />
<glyph glyph-name="openbullet" unicode="&#x25e6;" horiz-adv-x="725" d="M363 928 Q467 928 540.5 854.5 Q614 781 614 678 Q614 573 541 499.5 Q468 426 363 426 Q259 426 185.5 500 Q112 574 112 678 Q112 780 185.5 854 Q259 928 363 928 Z M362 852 Q290 852 239 801 Q188 750 188 678 Q188 604 239 553 Q290 502 364 502 Q437 502 487.5 553 Q538 604 538 678 Q538 751 486.5 801.5 Q435 852 362 852 Z " />
<glyph glyph-name="Amacron" unicode="&#x100;" horiz-adv-x="1294" d="M999 0 L934 401 L326 401 L94 0 L-104 0 L750 1434 L926 1434 L1176 0 L999 0 Z M815 1163 Q814 1173 813.5 1186 Q813 1199 813 1212 Q813 1226 813 1238 Q813 1251 813 1260 L809 1260 Q806 1251 801 1238.5 Q796 1226 790 1212.5 Q784 1199 777.5 1186 Q771 1173 766 1163 L412 553 L907 553 L815 1163 Z M583 1567 L599 1675 L1107 1675 L1091 1567 L583 1567 Z " />
<glyph glyph-name="amacron" unicode="&#x101;" horiz-adv-x="1110" d="M905 328 Q897 290 889.5 242.5 Q882 195 876.5 148.5 Q871 102 867.5 62 Q864 22 864 0 L694 0 Q695 20 697 48 Q699 76 702.5 106 Q706 136 709.5 165 Q713 194 717 215 L713 215 Q682 166 650 122.5 Q618 79 579 46 Q540 13 492 -6 Q444 -25 379 -25 Q312 -25 256.5 -1 Q201 23 161 70.5 Q121 118 99.5 189.5 Q78 261 78 356 Q78 414 90 488 Q102 562 130.5 639 Q159 716 206.5 789.5 Q254 863 324.5 921 Q395 979 491 1014 Q587 1049 713 1049 Q793 1049 878 1037 Q963 1025 1047 1008 L905 328 Z M858 889 Q823 897 776 903 Q729 909 688 909 Q601 909 534.5 881.5 Q468 854 419 809.5 Q370 765 336.5 707 Q303 649 283 588.5 Q263 528 254.5 469 Q246 410 246 362 Q246 305 256 259.5 Q266 214 287.5 182 Q309 150 342.5 132.5 Q376 115 422 115 Q472 115 515.5 135.5 Q559 156 597 191 Q635 226 666 272 Q697 318 722 369.5 Q747 421 764.5 474.5 Q782 528 793 578 L858 889 Z M463 1219 L479 1327 L987 1327 L971 1219 L463 1219 Z " />
<glyph glyph-name="Ccircumflex" unicode="&#x108;" horiz-adv-x="1309" d="M1325 1196 Q1296 1215 1258.5 1235 Q1221 1255 1176 1271 Q1131 1287 1077.5 1297 Q1024 1307 963 1307 Q813 1307 692.5 1254 Q572 1201 488 1108 Q404 1015 358.5 889.5 Q313 764 313 618 Q313 499 346 407.5 Q379 316 440 253.5 Q501 191 586 159 Q671 127 774 127 Q840 127 894 134.5 Q948 142 994 155.5 Q1040 169 1080.5 187.5 Q1121 206 1159 227 L1120 51 Q1039 14 946.5 -5.5 Q854 -25 739 -25 Q603 -25 491.5 20 Q380 65 301.5 147.5 Q223 230 180 346 Q137 462 137 604 Q137 792 196.5 949 Q256 1106 365.5 1219 Q475 1332 628.5 1395 Q782 1458 969 1458 Q1097 1458 1195.5 1430.5 Q1294 1403 1362 1368 L1325 1196 Z M1113 1568 L999 1799 L786 1568 L665 1568 L948 1899 L1081 1899 L1226 1568 L1113 1568 Z " />
<glyph glyph-name="ccircumflex" unicode="&#x109;" horiz-adv-x="893" d="M864 821 Q822 858 762.5 883.5 Q703 909 631 909 Q562 909 506.5 885 Q451 861 408 821 Q365 781 334 729 Q303 677 283 621 Q263 565 253.5 509.5 Q244 454 244 406 Q244 263 307 189 Q370 115 479 115 Q545 115 616 142.5 Q687 170 750 213 L715 49 Q650 14 585.5 -5.5 Q521 -25 449 -25 Q355 -25 285.5 7 Q216 39 170 95 Q124 151 101 227.5 Q78 304 78 393 Q78 477 95 558.5 Q112 640 145.5 712.5 Q179 785 228 847 Q277 909 340.5 953.5 Q404 998 482 1023.5 Q560 1049 651 1049 Q694 1049 733 1043 Q772 1037 804 1027 Q836 1017 861 1005.5 Q886 994 901 983 L864 821 Z M833 1219 L719 1450 L506 1219 L385 1219 L668 1550 L801 1550 L946 1219 L833 1219 Z " />
</font>
</svg>
