<?xml version="1.0" encoding="UTF-8"?>
<svg xmlns="http://www.w3.org/2000/svg" xmlns:xlink="http://www.w3.org/1999/xlink" version="1.2" >
<font id="Segoe UI ExtraLight">
<font-face  font-family="Segoe UI" units-per-em="2048" ascent="1491" descent="-431" font-style="normal" font-weight="200" font-stretch="normal" cap-height="1434" x-height="1024" underline-position="-178" underline-thickness="119" />
<missing-glyph  horiz-adv-x="1322" d="M166 0 L166 1398 L1156 1398 L1156 0 L166 0 Z M314 148 L1008 148 L1008 1250 L314 1250 L314 148 Z " />
<glyph glyph-name="uni000D" unicode="&#xd;" d="" />
<glyph glyph-name="space" unicode="&#x20;" horiz-adv-x="561" d="" />
<glyph glyph-name="exclam" unicode="&#x21;" horiz-adv-x="582" d="M344 403 L233 403 L219 1434 L358 1434 L344 403 Z M291 -18 Q251 -18 223 9.5 Q195 37 195 77 Q195 118 223 145.5 Q251 173 291 173 Q310 173 327 166 Q344 159 357.5 146 Q371 133 379 115.5 Q387 98 387 77 Q387 57 379 39.5 Q371 22 357.5 9 Q344 -4 327 -11 Q310 -18 291 -18 Z " />
<glyph glyph-name="quotedbl" unicode="&#x22;" horiz-adv-x="744" d="M575 986 L460 986 L460 1434 L575 1434 L575 986 Z M285 986 L170 986 L170 1434 L285 1434 L285 986 Z " />
<glyph glyph-name="numbersign" unicode="&#x23;" horiz-adv-x="1223" d="M1138 936 L872 936 L802 613 L1085 613 L1063 521 L784 521 L697 123 L594 123 L680 521 L421 521 L336 123 L233 123 L318 521 L46 521 L65 613 L338 613 L406 936 L121 936 L141 1028 L425 1028 L511 1434 L614 1434 L528 1028 L788 1028 L875 1434 L977 1434 L890 1028 L1159 1028 L1138 936 Z M510 936 L439 613 L700 613 L770 936 L510 936 Z " />
<glyph glyph-name="dollar" unicode="&#x24;" horiz-adv-x="1079" d="M591 -209 L500 -209 L500 0 Q301 0 164 83 L164 221 Q197 196 237 176 Q277 156 321.5 141.5 Q366 127 411.5 119.5 Q457 112 500 112 L500 667 Q439 701 378.5 735.5 Q318 770 270 815 Q222 860 192 920 Q162 980 162 1065 Q162 1139 187 1202 Q212 1265 257 1313 Q302 1361 364 1392 Q426 1423 500 1434 L500 1615 L591 1615 L591 1437 Q679 1435 745 1420 Q811 1405 857 1382 L857 1251 Q752 1321 591 1324 L591 756 Q689 707 755 661 Q821 615 861 568.5 Q901 522 918 472 Q935 422 935 363 Q935 293 911.5 233 Q888 173 844 126.5 Q800 80 736 49 Q672 18 591 6 L591 -209 Z M500 1320 Q405 1302 349.5 1239 Q294 1176 294 1081 Q294 1037 303.5 1001.5 Q313 966 336.5 934 Q360 902 399.5 871.5 Q439 841 500 807 L500 1320 Z M591 117 Q697 137 750 196.5 Q803 256 803 347 Q803 387 791.5 422 Q780 457 755 489.5 Q730 522 689.5 553 Q649 584 591 617 L591 117 Z " />
<glyph glyph-name="percent" unicode="&#x25;" horiz-adv-x="1641" d="M410 722 Q334 722 273 748 Q212 774 169.5 821.5 Q127 869 104.5 935 Q82 1001 82 1082 Q82 1171 107 1241 Q132 1311 177 1359.5 Q222 1408 285 1433.5 Q348 1459 425 1459 Q500 1459 560 1434 Q620 1409 662 1362 Q704 1315 726.5 1247.5 Q749 1180 749 1094 Q749 1013 724.5 945 Q700 877 656 827.5 Q612 778 549.5 750 Q487 722 410 722 Z M421 1363 Q369 1363 326.5 1344 Q284 1325 255 1289.5 Q226 1254 210 1202.5 Q194 1151 194 1086 Q194 961 252.5 889 Q311 817 416 817 Q469 817 510 836.5 Q551 856 579 892 Q607 928 622 979 Q637 1030 637 1093 Q637 1224 579 1293.5 Q521 1363 421 1363 Z M431 -21 L310 -21 L1201 1433 L1321 1433 L431 -21 Z M1229 -23 Q1154 -23 1093 3 Q1032 29 989.5 76 Q947 123 924 189.5 Q901 256 901 337 Q901 425 926 495 Q951 565 996 614 Q1041 663 1104.5 689 Q1168 715 1244 715 Q1319 715 1379 690 Q1439 665 1481 618 Q1523 571 1545.5 502.5 Q1568 434 1568 348 Q1568 267 1543.5 199 Q1519 131 1475 81.5 Q1431 32 1368.5 4.5 Q1306 -23 1229 -23 Z M1240 617 Q1188 617 1146 598 Q1104 579 1074.5 543.5 Q1045 508 1029 456.5 Q1013 405 1013 340 Q1013 278 1028.5 228 Q1044 178 1072.5 143.5 Q1101 109 1142 90.5 Q1183 72 1235 72 Q1287 72 1328 91 Q1369 110 1397.5 146 Q1426 182 1441.5 233 Q1457 284 1457 348 Q1457 480 1399 548.5 Q1341 617 1240 617 Z " />
<glyph glyph-name="ampersand" unicode="&#x26;" horiz-adv-x="1436" d="M1228 0 L1054 173 Q857 -25 580 -25 Q476 -25 392.5 3.5 Q309 32 250.5 83.5 Q192 135 161 206 Q130 277 130 361 Q130 625 459 783 Q301 977 301 1123 Q301 1195 328 1256 Q355 1317 404 1362 Q453 1407 519.5 1432.5 Q586 1458 666 1458 Q740 1458 800 1436 Q860 1414 902 1375 Q944 1336 967 1282 Q990 1228 990 1164 Q990 1096 972 1040.5 Q954 985 914 936.5 Q874 888 810.5 845 Q747 802 656 759 Q746 664 847.5 563 Q949 462 1064 350 Q1091 390 1113.5 438.5 Q1136 487 1152 540 Q1168 593 1177 648.5 Q1186 704 1188 758 L1311 758 Q1306 487 1142 266 Q1196 213 1263 147.5 Q1330 82 1414 -1 L1228 0 Z M579 838 Q655 873 708.5 908.5 Q762 944 796 982 Q830 1020 846 1062 Q862 1104 862 1151 Q862 1195 846.5 1231.5 Q831 1268 804 1294.5 Q777 1321 741 1335.5 Q705 1350 663 1350 Q610 1350 567 1333 Q524 1316 494 1285.5 Q464 1255 447.5 1213 Q431 1171 431 1122 Q431 1004 579 838 Z M977 253 Q858 370 749.5 480.5 Q641 591 538 700 Q394 632 328 552.5 Q262 473 262 368 Q262 305 285.5 253 Q309 201 351 164.5 Q393 128 452.5 107.5 Q512 87 584 87 Q810 87 977 253 Z " />
<glyph glyph-name="quotesingle" unicode="&#x27;" horiz-adv-x="454" d="M285 986 L170 986 L170 1434 L285 1434 L285 986 Z " />
<glyph glyph-name="&amp;#x28;" unicode="&#x28;" horiz-adv-x="598" d="M451 -326 Q145 28 145 546 Q145 1077 453 1434 L576 1434 Q263 1064 263 548 Q263 48 573 -326 L451 -326 Z " />
<glyph glyph-name="&amp;#xfd3e;" unicode="&#xfd3e;" horiz-adv-x="598" d="M451 -326 Q145 28 145 546 Q145 1077 453 1434 L576 1434 Q263 1064 263 548 Q263 48 573 -326 L451 -326 Z " />
<glyph glyph-name="&amp;#x29;" unicode="&#x29;" horiz-adv-x="598" d="M25 -326 Q335 48 335 548 Q335 1064 22 1434 L145 1434 Q453 1077 453 546 Q453 28 147 -326 L25 -326 Z " />
<glyph glyph-name="&amp;#xfd3f;" unicode="&#xfd3f;" horiz-adv-x="598" d="M25 -326 Q335 48 335 548 Q335 1064 22 1434 L145 1434 Q453 1077 453 546 Q453 28 147 -326 L25 -326 Z " />
<glyph glyph-name="asterisk" unicode="&#x2a;" horiz-adv-x="842" d="M487 1049 L682 794 L589 731 L424 1002 L256 731 L164 794 L358 1049 L73 1115 L106 1220 L384 1120 L364 1434 L480 1434 L462 1120 L736 1220 L770 1115 L487 1049 Z " />
<glyph glyph-name="plus" unicode="&#x2b;" horiz-adv-x="1366" d="M737 542 L737 135 L629 135 L629 542 L221 542 L221 651 L629 651 L629 1059 L737 1059 L737 651 L1145 651 L1145 542 L737 542 Z " />
<glyph glyph-name="comma" unicode="&#x2c;" horiz-adv-x="449" d="M140 -256 L43 -256 L176 227 L307 227 L140 -256 Z " />
<glyph glyph-name="&amp;#x2d;" unicode="&#x2d;" horiz-adv-x="817" d="M144 530 L144 640 L691 640 L691 530 L144 530 Z " />
<glyph glyph-name="&amp;#x2010;" unicode="&#x2010;" horiz-adv-x="817" d="M144 530 L144 640 L691 640 L691 530 L144 530 Z " />
<glyph glyph-name="period" unicode="&#x2e;" horiz-adv-x="449" d="M224 -20 Q184 -20 156 8 Q128 36 128 76 Q128 117 155.5 145 Q183 173 224 173 Q244 173 261.5 165.5 Q279 158 292 145.5 Q305 133 313 115 Q321 97 321 76 Q321 56 313 38.5 Q305 21 292 8 Q279 -5 261.5 -12.5 Q244 -20 224 -20 Z " />
<glyph glyph-name="slash" unicode="&#x2f;" horiz-adv-x="774" d="M93 -238 L-29 -238 L664 1434 L789 1434 L93 -238 Z " />
<glyph glyph-name="zero" unicode="0" horiz-adv-x="1079" d="M526 -24 Q423 -24 342 22 Q261 68 204.5 157.5 Q148 247 118.5 380 Q89 513 89 687 Q89 1069 209.5 1263.5 Q330 1458 557 1458 Q989 1458 989 723 Q989 541 958 402 Q927 263 867.5 168 Q808 73 722 24.5 Q636 -24 526 -24 Z M549 1346 Q389 1346 305 1184 Q221 1022 221 697 Q221 397 301.5 241.5 Q382 86 540 86 Q617 86 676.5 126.5 Q736 167 776 245.5 Q816 324 836.5 440 Q857 556 857 707 Q857 1346 549 1346 Z " />
<glyph glyph-name="one" unicode="1" horiz-adv-x="768" d="M426 0 L426 1282 Q391 1252 347.5 1224 Q304 1196 258.5 1171.5 Q213 1147 167.5 1127.5 Q122 1108 83 1095 L83 1208 Q201 1246 308.5 1312.5 Q416 1379 517 1466 L554 1466 L554 0 L426 0 Z " />
<glyph glyph-name="two" unicode="2" horiz-adv-x="1079" d="M791 1066 Q791 1134 770.5 1186.5 Q750 1239 713 1274.5 Q676 1310 624 1328 Q572 1346 509 1346 Q413 1346 324.5 1300.5 Q236 1255 158 1179 L158 1321 Q234 1386 324 1422 Q414 1458 527 1458 Q545 1458 561.5 1456 Q578 1454 594 1450 Q668 1442 728.5 1412.5 Q789 1383 832 1336 Q875 1289 898.5 1224.5 Q922 1160 922 1081 Q922 989 898 916 Q874 843 829.5 781.5 Q785 720 722.5 665.5 Q660 611 583 556 Q497 494 435.5 446.5 Q374 399 333.5 356 Q293 313 272 270 Q251 227 245 174 Q240 160 238.5 146 Q237 132 237 115 L951 115 L951 0 L102 0 L102 69 Q102 165 124.5 235.5 Q147 306 195 367.5 Q243 429 318 490 Q393 551 498 627 Q569 679 624 727.5 Q679 776 716 827.5 Q753 879 772 937 Q791 995 791 1066 Z " />
<glyph glyph-name="three" unicode="3" horiz-adv-x="1079" d="M123 193 Q278 86 443 86 Q511 86 574 103 Q637 120 685.5 156.5 Q734 193 763 249.5 Q792 306 792 385 Q792 535 686.5 611 Q581 687 376 687 L262 687 L262 798 L367 798 Q553 798 647 871.5 Q741 945 741 1086 Q741 1213 671.5 1279.5 Q602 1346 463 1346 Q319 1346 179 1248 L179 1377 Q329 1458 490 1458 Q566 1458 636 1437 Q706 1416 758.5 1373.5 Q811 1331 842.5 1267.5 Q874 1204 874 1119 Q874 832 590 752 L590 748 Q660 740 721 713.5 Q782 687 827 642.5 Q872 598 898 536.5 Q924 475 924 399 Q924 297 886 218 Q848 139 782 85 Q716 31 627.5 3 Q539 -25 439 -25 Q257 -25 123 52 L123 193 Z " />
<glyph glyph-name="four" unicode="4" horiz-adv-x="1124" d="M856 1434 L856 472 L1080 472 L1080 356 L856 356 L856 0 L729 0 L729 356 L50 356 L50 472 Q145 580 242.5 702.5 Q340 825 429 951.5 Q518 1078 593 1201.5 Q668 1325 719 1434 L856 1434 Z M729 472 L729 1229 Q655 1101 582 990.5 Q509 880 440.5 785.5 Q372 691 309.5 613 Q247 535 195 472 L729 472 Z " />
<glyph glyph-name="five" unicode="5" horiz-adv-x="1079" d="M160 172 Q303 86 446 86 Q528 86 594 110 Q660 134 706.5 178 Q753 222 778 284 Q803 346 803 421 Q803 579 706 662 Q609 745 420 745 Q344 745 202 733 L246 1434 L871 1434 L871 1318 L355 1318 L325 853 Q412 859 463 859 Q577 859 664.5 829.5 Q752 800 812 745 Q872 690 903 611 Q934 532 934 432 Q934 330 901 246 Q868 162 805 102 Q742 42 650 9 Q558 -24 441 -24 Q264 -24 160 32 L160 172 Z " />
<glyph glyph-name="six" unicode="6" horiz-adv-x="1079" d="M996 455 Q996 350 963.5 262 Q931 174 872.5 110.5 Q814 47 733.5 11 Q653 -25 557 -25 Q453 -25 371.5 18.5 Q290 62 233.5 146 Q177 230 147 352 Q117 474 117 630 Q117 817 156.5 970 Q196 1123 270 1231.5 Q344 1340 449.5 1399 Q555 1458 688 1458 Q821 1458 911 1420 L911 1293 Q806 1346 689 1346 Q588 1346 506.5 1298.5 Q425 1251 368 1164 Q311 1077 280 955.5 Q249 834 249 687 L253 687 Q356 897 596 897 Q687 897 760.5 864 Q834 831 886.5 772 Q939 713 967.5 632 Q996 551 996 455 Z M864 435 Q864 514 843.5 579 Q823 644 785 689.5 Q747 735 692 760 Q637 785 567 785 Q501 785 444.5 759 Q388 733 347 689 Q306 645 283 588 Q260 531 260 469 Q260 391 282 321.5 Q304 252 344 200 Q384 148 440 117.5 Q496 87 564 87 Q630 87 685 113 Q740 139 779.5 185.5 Q819 232 841.5 295.5 Q864 359 864 435 Z " />
<glyph glyph-name="seven" unicode="7" horiz-adv-x="1034" d="M964 1380 Q887 1241 821.5 1117 Q756 993 701.5 878 Q647 763 603 655 Q559 547 524.5 440 Q490 333 464.5 224 Q439 115 421 0 L286 0 Q310 156 359 320 Q408 484 476 651 Q544 818 628.5 986 Q713 1154 806 1318 L70 1318 L70 1434 L964 1434 L964 1380 Z " />
<glyph glyph-name="eight" unicode="8" horiz-adv-x="1079" d="M98 400 Q98 457 115 513.5 Q132 570 166 619.5 Q200 669 250 709 Q300 749 365 773 Q268 823 210.5 906.5 Q153 990 153 1092 Q153 1171 182.5 1238 Q212 1305 264 1354 Q316 1403 387.5 1430.5 Q459 1458 542 1458 Q626 1458 697.5 1430 Q769 1402 821 1353 Q873 1304 902 1237 Q931 1170 931 1092 Q931 1041 916 994 Q901 947 873.5 906 Q846 865 807.5 831.5 Q769 798 722 773 Q786 749 835 709 Q884 669 917.5 619.5 Q951 570 968 513.5 Q985 457 985 400 Q985 303 952.5 224.5 Q920 146 861.5 91 Q803 36 721.5 6.5 Q640 -23 541 -23 Q444 -23 363 6.5 Q282 36 223 91 Q164 146 131 224 Q98 302 98 400 Z M235 402 Q235 331 257 273.5 Q279 216 319.5 175 Q360 134 416 112 Q472 90 541 90 Q608 90 664.5 112.5 Q721 135 761.5 175.5 Q802 216 825 273.5 Q848 331 848 402 Q848 465 826 521.5 Q804 578 764 620.5 Q724 663 667.5 687.5 Q611 712 541 712 Q475 712 419 689 Q363 666 322 625 Q281 584 258 527 Q235 470 235 402 Z M285 1084 Q285 1029 305 981 Q325 933 360 898 Q395 863 442 842.5 Q489 822 542 822 Q595 822 642 842.5 Q689 863 724 898.5 Q759 934 779.5 982 Q800 1030 800 1084 Q800 1140 780 1188 Q760 1236 725.5 1271.5 Q691 1307 643.5 1327 Q596 1347 542 1347 Q485 1347 437.5 1326.5 Q390 1306 356 1270 Q322 1234 303.5 1186 Q285 1138 285 1084 Z " />
<glyph glyph-name="nine" unicode="9" horiz-adv-x="1079" d="M977 806 Q977 608 939 453.5 Q901 299 828.5 192.5 Q756 86 649 30.5 Q542 -25 404 -25 Q282 -25 175 18 L175 147 Q292 87 407 87 Q618 87 732 255.5 Q846 424 846 746 L842 746 Q746 538 506 538 Q416 538 341 571 Q266 604 212 662.5 Q158 721 128 802.5 Q98 884 98 982 Q98 1088 131.5 1175.5 Q165 1263 224.5 1326 Q284 1389 366 1423.5 Q448 1458 545 1458 Q646 1458 726.5 1416 Q807 1374 862.5 1291.5 Q918 1209 947.5 1087 Q977 965 977 806 Z M834 953 Q834 1040 811.5 1112.5 Q789 1185 749 1236.5 Q709 1288 653 1317 Q597 1346 531 1346 Q466 1346 411 1320 Q356 1294 316 1248.5 Q276 1203 253 1140 Q230 1077 230 1002 Q230 921 252 856 Q274 791 314 746 Q354 701 410.5 677 Q467 653 535 653 Q597 653 651.5 677 Q706 701 746.5 741.5 Q787 782 810.5 836.5 Q834 891 834 953 Z " />
<glyph glyph-name="colon" unicode="&#x3a;" horiz-adv-x="449" d="M224 852 Q204 852 186.5 859.5 Q169 867 156 880.5 Q143 894 135.5 911.5 Q128 929 128 949 Q128 989 156 1016.5 Q184 1044 224 1044 Q243 1044 260.5 1037 Q278 1030 291.5 1017.5 Q305 1005 313 987.5 Q321 970 321 949 Q321 928 313 910.5 Q305 893 291.5 880 Q278 867 260.5 859.5 Q243 852 224 852 Z M224 -20 Q184 -20 156 8 Q128 36 128 76 Q128 117 155.5 145 Q183 173 224 173 Q244 173 261.5 165.5 Q279 158 292 145.5 Q305 133 313 115 Q321 97 321 76 Q321 56 313 38.5 Q305 21 292 8 Q279 -5 261.5 -12.5 Q244 -20 224 -20 Z " />
<glyph glyph-name="semicolon" unicode="&#x3b;" horiz-adv-x="449" d="M231 852 Q189 852 162 880 Q135 908 135 949 Q135 990 162.5 1017 Q190 1044 231 1044 Q271 1044 299 1016.5 Q327 989 327 949 Q327 928 319 910.5 Q311 893 297.5 880 Q284 867 267 859.5 Q250 852 231 852 Z M140 -256 L43 -256 L176 227 L307 227 L140 -256 Z " />
<glyph glyph-name="less" unicode="&#x3c;" horiz-adv-x="1366" d="M260 569 L260 608 L1106 1082 L1106 960 L447 593 L447 589 L1106 265 L1106 142 L260 569 Z " />
<glyph glyph-name="equal" unicode="&#x3d;" horiz-adv-x="1366" d="M221 747 L221 855 L1145 855 L1145 747 L221 747 Z M221 340 L221 448 L1145 448 L1145 340 L221 340 Z " />
<glyph glyph-name="greater" unicode="&#x3e;" horiz-adv-x="1366" d="M260 142 L260 265 L921 588 L921 593 L260 960 L260 1082 L1106 608 L1106 569 L260 142 Z " />
<glyph glyph-name="question" unicode="&#x3f;" horiz-adv-x="899" d="M356 398 Q346 424 339 464.5 Q332 505 332 546 Q332 597 348 638.5 Q364 680 390 717 Q416 754 450.5 788 Q485 822 522 857 Q552 885 579.5 914 Q607 943 628 976 Q649 1009 662 1046.5 Q675 1084 675 1127 Q675 1179 656.5 1219 Q638 1259 605.5 1286.5 Q573 1314 528.5 1328.5 Q484 1343 433 1343 Q343 1343 267 1310.5 Q191 1278 125 1215 L125 1357 Q199 1408 277.5 1433 Q356 1458 445 1458 Q520 1458 585.5 1437.5 Q651 1417 699 1377 Q747 1337 775 1278.5 Q803 1220 803 1143 Q803 1087 787.5 1040 Q772 993 746.5 953 Q721 913 689 878 Q657 843 623 811 Q580 770 547.5 737.5 Q515 705 493 675 Q471 645 459.5 614 Q448 583 448 545 Q448 499 457.5 461.5 Q467 424 477 398 L356 398 Z M418 -18 Q399 -18 382 -11 Q365 -4 352 9 Q339 22 331 39.5 Q323 57 323 77 Q323 98 330.5 115.5 Q338 133 351 145.5 Q364 158 381.5 165.5 Q399 173 418 173 Q437 173 454.5 166 Q472 159 485.5 146 Q499 133 507 115.5 Q515 98 515 77 Q515 57 507 39.5 Q499 22 485.5 9 Q472 -4 454.5 -11 Q437 -18 418 -18 Z " />
<glyph glyph-name="at" unicode="&#x40;" horiz-adv-x="1944" d="M1154 423 Q1072 185 864 185 Q789 185 732 214.5 Q675 244 637 294 Q599 344 579.5 412 Q560 480 560 556 Q560 616 571 679 Q582 742 604 800.5 Q626 859 660 910.5 Q694 962 740 1000.5 Q786 1039 845.5 1061 Q905 1083 977 1083 Q1009 1083 1041 1074.5 Q1073 1066 1101 1049.5 Q1129 1033 1151 1008.5 Q1173 984 1185 952 L1189 952 L1199 1069 L1305 1069 L1256 496 Q1256 284 1392 284 Q1443 284 1482.5 304 Q1522 324 1551.5 358 Q1581 392 1602 436.5 Q1623 481 1635.5 529 Q1648 577 1654 626 Q1660 675 1660 718 Q1660 865 1611.5 983 Q1563 1101 1474.5 1184.5 Q1386 1268 1262 1312.5 Q1138 1357 988 1357 Q883 1357 790.5 1331 Q698 1305 620 1257.5 Q542 1210 480 1143 Q418 1076 375 993.5 Q332 911 309 815 Q286 719 286 614 Q286 458 335 328.5 Q384 199 475 106.5 Q566 14 694.5 -37 Q823 -88 983 -88 Q1231 -88 1407 -3 L1407 -112 Q1224 -188 973 -188 Q794 -188 646 -129 Q498 -70 392.5 36 Q287 142 228.5 289 Q170 436 170 611 Q170 727 197 834.5 Q224 942 274.5 1036 Q325 1130 397.5 1207.5 Q470 1285 562 1340 Q654 1395 763.5 1425.5 Q873 1456 997 1456 Q1105 1456 1205 1432 Q1305 1408 1391.5 1363.5 Q1478 1319 1549 1254.5 Q1620 1190 1671 1109 Q1722 1028 1749.5 932 Q1777 836 1777 727 Q1777 669 1767.5 606.5 Q1758 544 1738 483.5 Q1718 423 1687 369 Q1656 315 1613 274 Q1570 233 1513.5 209 Q1457 185 1387 185 Q1167 185 1158 423 L1154 423 Z M974 984 Q894 984 837.5 945.5 Q781 907 745.5 845.5 Q710 784 694 708.5 Q678 633 678 559 Q678 496 692 445 Q706 394 732.5 358.5 Q759 323 796.5 304 Q834 285 881 285 Q937 285 979.5 307.5 Q1022 330 1053.5 367 Q1085 404 1106 452.5 Q1127 501 1140 553.5 Q1153 606 1158.5 659 Q1164 712 1164 758 Q1164 870 1115 927 Q1066 984 974 984 Z " />
<glyph glyph-name="A" unicode="A" horiz-adv-x="1303" d="M1115 0 L957 424 L342 424 L188 0 L40 0 L586 1434 L720 1434 L1263 0 L1115 0 Z M678 1183 Q671 1202 663.5 1227 Q656 1252 651 1284 L647 1284 Q641 1252 633.5 1227 Q626 1202 619 1183 L387 545 L912 545 L678 1183 Z " />
<glyph glyph-name="B" unicode="B" horiz-adv-x="1144" d="M186 0 L186 1434 L578 1434 Q667 1434 738.5 1410 Q810 1386 860.5 1342.5 Q911 1299 938 1238 Q965 1177 965 1104 Q965 1042 948 988 Q931 934 899 889.5 Q867 845 820.5 812.5 Q774 780 715 761 L715 757 Q787 750 846 722 Q905 694 947 649 Q989 604 1012 543.5 Q1035 483 1035 411 Q1035 320 1002 244.5 Q969 169 909.5 114.5 Q850 60 768 30 Q686 0 587 0 L186 0 Z M319 1312 L319 803 L505 803 Q578 803 637 822 Q696 841 738 877 Q780 913 802.5 964 Q825 1015 825 1079 Q825 1312 535 1312 L319 1312 Z M319 683 L319 121 L566 121 Q725 121 810.5 195.5 Q896 270 896 407 Q896 683 521 683 L319 683 Z " />
<glyph glyph-name="C" unicode="C" horiz-adv-x="1270" d="M1150 53 Q984 -25 771 -25 Q619 -25 495 28.5 Q371 82 283.5 177 Q196 272 148.5 403 Q101 534 101 689 Q101 852 151.5 992.5 Q202 1133 296 1236.5 Q390 1340 523.5 1399 Q657 1458 823 1458 Q1006 1458 1150 1402 L1150 1260 Q996 1337 821 1337 Q682 1337 574 1289 Q466 1241 392 1155.5 Q318 1070 279 953.5 Q240 837 240 699 Q240 575 275 465.5 Q310 356 378.5 274 Q447 192 549 144 Q651 96 786 96 Q993 96 1150 183 L1150 53 Z " />
<glyph glyph-name="D" unicode="D" horiz-adv-x="1408" d="M186 0 L186 1434 L563 1434 Q931 1434 1119 1257.5 Q1307 1081 1307 736 Q1307 570 1254.5 434 Q1202 298 1103 201.5 Q1004 105 863 52.5 Q722 0 545 0 L186 0 Z M319 1312 L319 121 L539 121 Q687 121 803.5 161 Q920 201 1001 278.5 Q1082 356 1124.5 470 Q1167 584 1167 732 Q1167 1312 554 1312 L319 1312 Z " />
<glyph glyph-name="E" unicode="E" horiz-adv-x="1030" d="M186 0 L186 1434 L885 1434 L885 1312 L319 1312 L319 786 L843 786 L843 666 L319 666 L319 121 L917 121 L917 0 L186 0 Z " />
<glyph glyph-name="F" unicode="F" horiz-adv-x="976" d="M319 1312 L319 772 L843 772 L843 651 L319 651 L319 0 L186 0 L186 1434 L885 1434 L885 1312 L319 1312 Z " />
<glyph glyph-name="G" unicode="G" horiz-adv-x="1386" d="M1240 99 Q1019 -25 772 -25 Q616 -25 492 28.5 Q368 82 281 177.5 Q194 273 147.5 405.5 Q101 538 101 697 Q101 802 123.5 899 Q146 996 189.5 1081 Q233 1166 296 1235 Q359 1304 440.5 1354 Q522 1404 620 1431 Q718 1458 831 1458 Q1044 1458 1211 1382 L1211 1235 Q1027 1337 815 1337 Q684 1337 578 1289 Q472 1241 397.5 1157 Q323 1073 282 958.5 Q241 844 240 710 Q239 577 274.5 464.5 Q310 352 380 270 Q450 188 553 142 Q656 96 791 96 Q973 96 1107 172 L1107 609 L781 609 L781 730 L1240 730 L1240 99 Z " />
<glyph glyph-name="H" unicode="H" horiz-adv-x="1420" d="M1101 0 L1101 671 L319 671 L319 0 L186 0 L186 1434 L319 1434 L319 791 L1101 791 L1101 1434 L1234 1434 L1234 0 L1101 0 Z " />
<glyph glyph-name="I" unicode="I" horiz-adv-x="506" d="M319 0 L186 0 L186 1434 L319 1434 L319 0 Z " />
<glyph glyph-name="J" unicode="J" horiz-adv-x="697" d="M521 504 Q521 236 422 106 Q323 -24 142 -24 Q107 -24 76 -19.5 Q45 -15 19 -5 L19 126 Q75 96 144 96 Q271 96 329.5 196 Q388 296 388 504 L388 1434 L521 1434 L521 504 Z " />
<glyph glyph-name="K" unicode="K" horiz-adv-x="1133" d="M937 0 L354 671 Q330 700 323 712 L319 712 L319 0 L186 0 L186 1434 L319 1434 L319 759 L323 759 Q330 770 338 780 Q346 790 355 801 L913 1434 L1082 1434 L460 742 L1123 0 L937 0 Z " />
<glyph glyph-name="L" unicode="L" horiz-adv-x="951" d="M186 0 L186 1434 L319 1434 L319 121 L895 121 L895 0 L186 0 Z " />
<glyph glyph-name="M" unicode="M" horiz-adv-x="1772" d="M1455 0 L1455 990 Q1455 1066 1467 1235 L1463 1235 Q1449 1190 1437.5 1157 Q1426 1124 1416 1103 L916 0 L859 0 L358 1096 Q336 1146 313 1237 L309 1237 Q313 1191 314.5 1132 Q316 1073 316 1001 L316 0 L186 0 L186 1434 L343 1434 L830 356 Q845 322 859.5 286.5 Q874 251 886 211 L892 211 Q906 251 917.5 284 Q929 317 946 355 L1437 1434 L1586 1434 L1586 0 L1455 0 Z " />
<glyph glyph-name="N" unicode="N" horiz-adv-x="1492" d="M1168 0 L372 1151 Q357 1173 342.5 1196 Q328 1219 319 1241 L314 1241 Q316 1223 317.5 1191 Q319 1159 319 1111 L319 0 L186 0 L186 1434 L333 1434 L1116 297 Q1134 270 1148.5 246.5 Q1163 223 1175 203 L1180 203 Q1176 236 1174 277 Q1172 318 1172 368 L1172 1434 L1306 1434 L1306 0 L1168 0 Z " />
<glyph glyph-name="O" unicode="O" horiz-adv-x="1551" d="M770 -25 Q615 -25 491 31.5 Q367 88 280.5 186 Q194 284 147.5 416.5 Q101 549 101 701 Q101 869 147.5 1008.5 Q194 1148 283 1247.5 Q372 1347 501 1402.5 Q630 1458 795 1458 Q947 1458 1068 1403.5 Q1189 1349 1274 1252.5 Q1359 1156 1404.5 1024 Q1450 892 1450 737 Q1450 574 1405.5 434.5 Q1361 295 1274.5 193 Q1188 91 1061.5 33 Q935 -25 770 -25 Z M781 1337 Q651 1337 550.5 1287.5 Q450 1238 381 1153.5 Q312 1069 276.5 955.5 Q241 842 240 714 Q239 592 271.5 480.5 Q304 369 369.5 283.5 Q435 198 535 147 Q635 96 769 96 Q903 96 1004.5 142.5 Q1106 189 1174 271.5 Q1242 354 1276.5 468 Q1311 582 1311 717 Q1311 843 1280.5 956 Q1250 1069 1185.5 1153.5 Q1121 1238 1021 1287.5 Q921 1337 781 1337 Z " />
<glyph glyph-name="P" unicode="P" horiz-adv-x="1130" d="M319 558 L319 0 L186 0 L186 1434 L556 1434 Q669 1434 756 1406 Q843 1378 903 1325 Q963 1272 994 1195 Q1025 1118 1025 1019 Q1025 919 990 834.5 Q955 750 889.5 688.5 Q824 627 730 592.5 Q636 558 517 558 L319 558 Z M319 1312 L319 680 L509 680 Q694 680 790 766 Q886 852 886 1009 Q886 1312 532 1312 L319 1312 Z " />
<glyph glyph-name="Q" unicode="Q" horiz-adv-x="1551" d="M770 -24 Q618 -24 494.5 29 Q371 82 283.5 177.5 Q196 273 148.5 406.5 Q101 540 101 701 Q101 874 149.5 1013.5 Q198 1153 288 1252 Q378 1351 506.5 1404.5 Q635 1458 795 1458 Q941 1458 1061.5 1405.5 Q1182 1353 1268.5 1257.5 Q1355 1162 1402.5 1029.5 Q1450 897 1450 737 Q1450 505 1368.5 336.5 Q1287 168 1141 76 L1537 -193 L1295 -193 L1007 13 Q953 -5 894 -14.5 Q835 -24 770 -24 Z M781 1337 Q662 1337 562.5 1291.5 Q463 1246 391.5 1164 Q320 1082 280 967.5 Q240 853 240 714 Q240 574 278 460 Q316 346 385 265 Q454 184 551.5 140 Q649 96 769 96 Q894 96 994 138 Q1094 180 1164.5 260 Q1235 340 1273 455.5 Q1311 571 1311 717 Q1311 864 1274 979 Q1237 1094 1168 1173.5 Q1099 1253 1001 1295 Q903 1337 781 1337 Z " />
<glyph glyph-name="R" unicode="R" horiz-adv-x="1181" d="M967 0 L751 411 Q719 472 689 513 Q659 554 627 578.5 Q595 603 558.5 613.5 Q522 624 477 624 L319 624 L319 0 L186 0 L186 1434 L599 1434 Q680 1434 755.5 1410 Q831 1386 890 1339 Q949 1292 984.5 1221 Q1020 1150 1020 1056 Q1020 980 997 916 Q974 852 931.5 802.5 Q889 753 828.5 718.5 Q768 684 692 667 L692 663 Q721 651 745 632 Q769 613 791.5 586 Q814 559 836 524 Q858 489 882 444 L1123 0 L967 0 Z M319 1312 L319 745 L557 745 Q629 745 689 766 Q749 787 791.5 826 Q834 865 857.5 920 Q881 975 881 1044 Q881 1169 800.5 1240.5 Q720 1312 568 1312 L319 1312 Z " />
<glyph glyph-name="S" unicode="S" horiz-adv-x="1053" d="M130 210 Q166 183 209.5 161.5 Q253 140 298.5 125.5 Q344 111 390 103.5 Q436 96 478 96 Q641 96 722 159 Q803 222 803 340 Q803 397 784 439.5 Q765 482 725 519 Q685 556 624 592.5 Q563 629 480 675 Q388 725 322.5 769.5 Q257 814 215.5 860.5 Q174 907 154.5 961 Q135 1015 135 1084 Q135 1171 172 1240 Q209 1309 272 1357.5 Q335 1406 419.5 1432 Q504 1458 600 1458 Q769 1458 883 1411 L883 1264 Q756 1337 585 1337 Q521 1337 464.5 1321.5 Q408 1306 365.5 1276 Q323 1246 298.5 1201.5 Q274 1157 274 1098 Q274 1042 290.5 1001.5 Q307 961 343.5 925 Q380 889 439.5 853.5 Q499 818 585 772 Q675 724 742 678.5 Q809 633 853.5 583.5 Q898 534 920 478.5 Q942 423 942 355 Q942 261 907 189.5 Q872 118 809 71 Q746 24 659 0 Q572 -24 468 -24 Q434 -24 387 -18.5 Q340 -13 292 -2.5 Q244 8 200.5 22.5 Q157 37 130 54 L130 210 Z " />
<glyph glyph-name="T" unicode="T" horiz-adv-x="1060" d="M596 1312 L596 0 L463 0 L463 1312 L50 1312 L50 1434 L1010 1434 L1010 1312 L596 1312 Z " />
<glyph glyph-name="U" unicode="U" horiz-adv-x="1367" d="M1199 576 Q1199 -25 671 -25 Q168 -25 168 554 L168 1434 L301 1434 L301 566 Q301 330 396 213 Q491 96 690 96 Q1066 96 1066 552 L1066 1434 L1199 1434 L1199 576 Z " />
<glyph glyph-name="V" unicode="V" horiz-adv-x="1254" d="M681 0 L551 0 L29 1434 L178 1434 L584 288 Q595 256 603.5 223.5 Q612 191 617 156 L621 156 Q626 184 635 217.5 Q644 251 658 290 L1081 1434 L1225 1434 L681 0 Z " />
<glyph glyph-name="W" unicode="W" horiz-adv-x="1873" d="M1422 0 L1283 0 L976 1063 Q965 1101 958.5 1136 Q952 1171 951 1204 L947 1204 Q943 1146 918 1065 L600 0 L461 0 L38 1434 L186 1434 L502 309 Q513 272 519.5 238.5 Q526 205 530 174 L534 174 Q540 219 567 309 L903 1434 L1008 1434 L1323 305 Q1332 271 1339 238.5 Q1346 206 1350 175 L1354 175 Q1356 195 1362 220 Q1368 245 1376 276 L1690 1434 L1835 1434 L1422 0 Z " />
<glyph glyph-name="X" unicode="X" horiz-adv-x="1180" d="M967 0 L637 548 Q626 567 614 589.5 Q602 612 594 633 L589 633 Q579 613 568.5 592 Q558 571 544 548 L206 0 L43 0 L510 722 L76 1434 L238 1434 L545 912 Q559 889 571.5 864.5 Q584 840 597 814 L601 814 Q615 843 628.5 868 Q642 893 655 914 L967 1434 L1121 1434 L681 724 L1129 0 L967 0 Z " />
<glyph glyph-name="Y" unicode="Y" horiz-adv-x="1119" d="M617 537 L617 0 L484 0 L484 534 L34 1434 L185 1434 L513 764 Q519 752 529 728 Q539 704 553 667 L556 667 Q562 685 573 709 Q584 733 600 763 L943 1434 L1085 1434 L617 537 Z " />
<glyph glyph-name="Z" unicode="Z" horiz-adv-x="1167" d="M249 121 L1088 121 L1088 0 L49 0 L49 39 L900 1312 L117 1312 L117 1434 L1105 1434 L1105 1400 L249 121 Z " />
<glyph glyph-name="bracketleft" unicode="&#x5b;" horiz-adv-x="598" d="M204 -326 L204 1434 L547 1434 L547 1332 L323 1332 L323 -224 L547 -224 L547 -326 L204 -326 Z " />
<glyph glyph-name="backslash" unicode="&#x5c;" horiz-adv-x="763" d="M657 -239 L-27 1434 L98 1434 L779 -239 L657 -239 Z " />
<glyph glyph-name="bracketright" unicode="&#x5d;" horiz-adv-x="598" d="M52 -326 L52 -224 L275 -224 L275 1332 L52 1332 L52 1434 L394 1434 L394 -326 L52 -326 Z " />
<glyph glyph-name="asciicircum" unicode="&#x5e;" horiz-adv-x="1366" d="M999 663 L680 1279 L675 1279 L366 663 L245 663 L648 1458 L701 1458 L1122 663 L999 663 Z " />
<glyph glyph-name="underscore" unicode="&#x5f;" horiz-adv-x="850" d="M0 -282 L0 -178 L850 -178 L850 -282 L0 -282 Z " />
<glyph glyph-name="grave" unicode="&#x60;" horiz-adv-x="528" d="M334 1203 L79 1531 L215 1531 L442 1203 L334 1203 Z " />
<glyph glyph-name="a" unicode="a" horiz-adv-x="1026" d="M755 0 L755 182 L751 182 Q701 84 614.5 30 Q528 -24 419 -24 Q345 -24 285.5 -3 Q226 18 184.5 56.5 Q143 95 120.5 149 Q98 203 98 268 Q98 407 184 489.5 Q270 572 444 597 L755 642 Q755 937 526 937 Q347 937 194 806 L194 946 Q226 969 266.5 987.5 Q307 1006 352 1019.5 Q397 1033 444.5 1040.5 Q492 1048 537 1048 Q708 1048 795.5 952 Q883 856 883 666 L883 0 L755 0 Z M491 497 Q422 487 373 472 Q324 457 292 431.5 Q260 406 245 368.5 Q230 331 230 276 Q230 235 244.5 200 Q259 165 286.5 139.5 Q314 114 353.5 100 Q393 86 443 86 Q511 86 568 112 Q625 138 666.5 184 Q708 230 731.5 294 Q755 358 755 433 L755 534 L491 497 Z " />
<glyph glyph-name="b" unicode="b" horiz-adv-x="1175" d="M293 165 L293 0 L165 0 L165 1516 L293 1516 L293 828 L297 828 Q354 935 449.5 991.5 Q545 1048 665 1048 Q763 1048 840.5 1012.5 Q918 977 971.5 911 Q1025 845 1053.5 752 Q1082 659 1082 545 Q1082 418 1049.5 313.5 Q1017 209 957 134 Q897 59 811.5 17.5 Q726 -24 620 -24 Q403 -24 297 165 L293 165 Z M293 426 Q293 356 316.5 294.5 Q340 233 382 186.5 Q424 140 483.5 113 Q543 86 615 86 Q692 86 754 118.5 Q816 151 859.5 211 Q903 271 926.5 356 Q950 441 950 546 Q950 636 928 708.5 Q906 781 865.5 832 Q825 883 767.5 910 Q710 937 639 937 Q559 937 495 907.5 Q431 878 386 827 Q341 776 317 707.5 Q293 639 293 562 L293 426 Z " />
<glyph glyph-name="c" unicode="c" horiz-adv-x="927" d="M846 46 Q732 -23 570 -25 Q460 -26 372 13 Q284 52 222 121.5 Q160 191 127 285.5 Q94 380 94 491 Q94 606 129 707.5 Q164 809 231 884.5 Q298 960 395 1004 Q492 1048 617 1048 Q744 1048 849 999 L849 863 Q737 937 607 937 Q516 937 445 902.5 Q374 868 325.5 808.5 Q277 749 251.5 669.5 Q226 590 226 501 Q226 419 247.5 344 Q269 269 313.5 211.5 Q358 154 426 120 Q494 86 586 86 Q730 86 846 172 L846 46 Z " />
<glyph glyph-name="d" unicode="d" horiz-adv-x="1176" d="M883 0 L883 180 L879 180 Q828 83 733.5 29.5 Q639 -24 519 -24 Q423 -24 344.5 11.5 Q266 47 210 114 Q154 181 123.5 276 Q93 371 93 491 Q93 615 126.5 717.5 Q160 820 221.5 893.5 Q283 967 369.5 1007.5 Q456 1048 562 1048 Q783 1048 879 871 L883 871 L883 1516 L1011 1516 L1011 0 L883 0 Z M883 618 Q883 685 860 743 Q837 801 796 844 Q755 887 697.5 912 Q640 937 571 937 Q495 937 431 907 Q367 877 321.5 820.5 Q276 764 250.5 683 Q225 602 225 499 Q225 402 248 325 Q271 248 313.5 195 Q356 142 415 114 Q474 86 546 86 Q624 86 686.5 114 Q749 142 792.5 191 Q836 240 859.5 306 Q883 372 883 447 L883 618 Z " />
<glyph glyph-name="e" unicode="e" horiz-adv-x="1052" d="M226 489 Q227 395 251 320 Q275 245 320 193 Q365 141 429.5 113.5 Q494 86 575 86 Q748 86 902 207 L902 81 Q755 -24 546 -24 Q443 -24 359 12 Q275 48 216 116.5 Q157 185 125 285 Q93 385 93 513 Q93 628 128 726 Q163 824 225 895.5 Q287 967 372 1007.5 Q457 1048 558 1048 Q657 1048 733 1013.5 Q809 979 860.5 915 Q912 851 939 759 Q966 667 966 553 L966 489 L226 489 Z M834 601 Q831 761 758 849 Q685 937 555 937 Q490 937 434.5 914 Q379 891 337 847.5 Q295 804 267.5 741.5 Q240 679 229 601 L834 601 Z " />
<glyph glyph-name="f" unicode="f" horiz-adv-x="603" d="M642 1395 Q599 1423 531 1423 Q351 1423 351 1188 L351 1024 L606 1024 L606 912 L351 912 L351 0 L223 0 L223 912 L44 912 L44 1024 L223 1024 L223 1196 Q223 1273 242.5 1335.5 Q262 1398 300 1442.5 Q338 1487 395.5 1511 Q453 1535 528 1535 Q600 1535 642 1516 L642 1395 Z " />
<glyph glyph-name="g" unicode="g" horiz-adv-x="1176" d="M1011 79 Q1011 -206 881.5 -343.5 Q752 -481 482 -481 Q314 -481 164 -406 L164 -276 Q331 -369 482 -369 Q883 -369 883 55 L883 178 L879 178 Q761 -24 519 -24 Q424 -24 345.5 11 Q267 46 211 112 Q155 178 124 272.5 Q93 367 93 486 Q93 612 126 715.5 Q159 819 220 893 Q281 967 367.5 1007.5 Q454 1048 562 1048 Q779 1048 879 872 L883 872 L883 1024 L1011 1024 L1011 79 Z M883 622 Q883 686 860 743 Q837 800 796 843 Q755 886 698.5 911.5 Q642 937 574 937 Q494 937 429.5 906 Q365 875 319.5 818 Q274 761 249.5 679.5 Q225 598 225 496 Q225 402 248 326 Q271 250 313 197 Q355 144 414.5 115 Q474 86 547 86 Q623 86 685 113.5 Q747 141 791 189.5 Q835 238 859 303.5 Q883 369 883 445 L883 622 Z " />
<glyph glyph-name="h" unicode="h" horiz-adv-x="1127" d="M856 0 L856 602 Q856 774 794 855.5 Q732 937 601 937 Q539 937 483 912 Q427 887 385 840 Q343 793 318 725.5 Q293 658 293 573 L293 0 L165 0 L165 1516 L293 1516 L293 847 L297 847 Q417 1048 641 1048 Q812 1048 898 943 Q984 838 984 633 L984 0 L856 0 Z " />
<glyph glyph-name="i" unicode="i" horiz-adv-x="458" d="M228 1283 Q191 1283 164 1309 Q137 1335 137 1375 Q137 1414 164 1439.5 Q191 1465 228 1465 Q247 1465 264 1458.5 Q281 1452 293.5 1440 Q306 1428 313.5 1411.5 Q321 1395 321 1375 Q321 1356 314 1339 Q307 1322 294 1309.5 Q281 1297 264.5 1290 Q248 1283 228 1283 Z M165 0 L165 1024 L293 1024 L293 0 L165 0 Z " />
<glyph glyph-name="j" unicode="j" horiz-adv-x="458" d="M293 36 Q293 -218 203 -350 Q113 -482 -84 -482 Q-154 -482 -225 -448 L-225 -324 Q-147 -370 -77 -370 Q165 -370 165 14 L165 1024 L293 1024 L293 36 Z M228 1283 Q191 1283 164 1309 Q137 1335 137 1375 Q137 1414 164 1439.5 Q191 1465 228 1465 Q247 1465 264 1458.5 Q281 1452 293.5 1440 Q306 1428 313.5 1411.5 Q321 1395 321 1375 Q321 1356 314 1339 Q307 1322 294 1309.5 Q281 1297 264.5 1290 Q248 1283 228 1283 Z " />
<glyph glyph-name="k" unicode="k" horiz-adv-x="963" d="M768 0 L297 499 L293 499 L293 0 L165 0 L165 1516 L293 1516 L293 547 L297 547 L744 1024 L911 1024 L431 529 L949 0 L768 0 Z " />
<glyph glyph-name="l" unicode="l" horiz-adv-x="458" d="M165 0 L165 1516 L293 1516 L293 0 L165 0 Z " />
<glyph glyph-name="m" unicode="m" horiz-adv-x="1723" d="M1452 0 L1452 602 Q1452 694 1438 757.5 Q1424 821 1394.5 861 Q1365 901 1319.5 919 Q1274 937 1211 937 Q1155 937 1105 910.5 Q1055 884 1017.5 837.5 Q980 791 958.5 728 Q937 665 937 592 L937 0 L809 0 L809 615 Q809 937 562 937 Q505 937 456 911.5 Q407 886 370.5 840 Q334 794 313.5 729.5 Q293 665 293 587 L293 0 L165 0 L165 1024 L293 1024 L293 858 L297 858 Q405 1048 612 1048 Q666 1048 714 1031.5 Q762 1015 800 985.5 Q838 956 865.5 915 Q893 874 907 825 Q961 934 1047.5 991 Q1134 1048 1243 1048 Q1580 1048 1580 632 L1580 0 L1452 0 Z " />
<glyph glyph-name="n" unicode="n" horiz-adv-x="1127" d="M856 0 L856 590 Q856 937 604 937 Q537 937 480 910.5 Q423 884 381.5 837 Q340 790 316.5 725.5 Q293 661 293 586 L293 0 L165 0 L165 1024 L293 1024 L293 846 L297 846 Q411 1048 640 1048 Q808 1048 896 939 Q984 830 984 624 L984 0 L856 0 Z " />
<glyph glyph-name="o" unicode="o" horiz-adv-x="1174" d="M584 -24 Q470 -24 379.5 14 Q289 52 225 121.5 Q161 191 127 288 Q93 385 93 503 Q93 631 129 732 Q165 833 231.5 903.5 Q298 974 392 1011 Q486 1048 602 1048 Q713 1048 802 1011.5 Q891 975 953 906 Q1015 837 1048 738 Q1081 639 1081 513 Q1081 393 1046.5 294.5 Q1012 196 948 125 Q884 54 792 15 Q700 -24 584 -24 Z M594 937 Q510 937 442 908 Q374 879 325.5 823.5 Q277 768 251 687.5 Q225 607 225 505 Q225 409 251 332 Q277 255 324.5 200 Q372 145 440 115.5 Q508 86 592 86 Q678 86 744 114.5 Q810 143 856 197.5 Q902 252 925.5 331 Q949 410 949 511 Q949 718 857 827.5 Q765 937 594 937 Z " />
<glyph glyph-name="p" unicode="p" horiz-adv-x="1175" d="M293 165 L293 -471 L165 -471 L165 1024 L293 1024 L293 828 L297 828 Q354 935 449.5 991.5 Q545 1048 665 1048 Q763 1048 840.5 1012.5 Q918 977 971.5 912 Q1025 847 1053.5 754 Q1082 661 1082 545 Q1082 418 1050 313.5 Q1018 209 958 134 Q898 59 812.5 17.5 Q727 -24 620 -24 Q404 -24 297 165 L293 165 Z M293 426 Q293 356 316.5 294.5 Q340 233 382 186.5 Q424 140 483.5 113 Q543 86 615 86 Q692 86 754 118.5 Q816 151 859.5 211 Q903 271 926.5 356 Q950 441 950 546 Q950 636 928 708.5 Q906 781 865.5 832 Q825 883 767.5 910 Q710 937 639 937 Q559 937 495 907.5 Q431 878 386 827 Q341 776 317 707.5 Q293 639 293 562 L293 426 Z " />
<glyph glyph-name="q" unicode="q" horiz-adv-x="1176" d="M883 -471 L883 182 L879 182 Q770 -24 519 -24 Q422 -24 343 12 Q264 48 208.5 115 Q153 182 123 277.5 Q93 373 93 492 Q93 620 127.5 722.5 Q162 825 224 897.5 Q286 970 372.5 1009 Q459 1048 564 1048 Q783 1048 879 870 L883 870 L883 1024 L1011 1024 L1011 -471 L883 -471 Z M883 612 Q883 681 860.5 740.5 Q838 800 797 843.5 Q756 887 698 912 Q640 937 569 937 Q493 937 430 907.5 Q367 878 321.5 822 Q276 766 250.5 683.5 Q225 601 225 496 Q225 400 248 324 Q271 248 313 195 Q355 142 413 114 Q471 86 541 86 Q623 86 686.5 114.5 Q750 143 793.5 192 Q837 241 860 307 Q883 373 883 449 L883 612 Z " />
<glyph glyph-name="r" unicode="r" horiz-adv-x="694" d="M673 893 Q628 926 557 926 Q506 926 467 906.5 Q428 887 398.5 854 Q369 821 348.5 777.5 Q328 734 315.5 687 Q303 640 297.5 592 Q292 544 292 501 L292 0 L165 0 L165 1024 L292 1024 L292 805 L296 805 Q314 861 341.5 905.5 Q369 950 405 980.5 Q441 1011 483.5 1027 Q526 1043 573 1043 Q604 1043 628.5 1039 Q653 1035 673 1027 L673 893 Z " />
<glyph glyph-name="s" unicode="s" horiz-adv-x="832" d="M107 184 Q136 161 170 143 Q204 125 240 112 Q276 99 312.5 92.5 Q349 86 382 86 Q610 86 610 257 Q610 296 594 324.5 Q578 353 548 376.5 Q518 400 476 420 Q434 440 381 462 Q310 491 259 521 Q208 551 175 586.5 Q142 622 126 664.5 Q110 707 110 761 Q110 829 139.5 882 Q169 935 219 972 Q269 1009 334.5 1028.5 Q400 1048 472 1048 Q605 1048 704 998 L704 863 Q589 937 456 937 Q408 937 368.5 925 Q329 913 301 891 Q273 869 257.5 838.5 Q242 808 242 771 Q242 733 254 704.5 Q266 676 291.5 653 Q317 630 357.5 609 Q398 588 456 564 Q530 534 584 504.5 Q638 475 673 440.5 Q708 406 725 363.5 Q742 321 742 265 Q742 196 713.5 142 Q685 88 634.5 51 Q584 14 516 -5 Q448 -24 368 -24 Q213 -24 107 41 L107 184 Z " />
<glyph glyph-name="t" unicode="t" horiz-adv-x="651" d="M605 12 Q539 -21 461 -21 Q213 -21 213 265 L213 912 L33 912 L33 1024 L213 1024 L213 1282 L341 1324 L341 1024 L605 1024 L605 912 L341 912 L341 285 Q341 181 375 135 Q409 89 490 89 Q550 89 605 125 L605 12 Z " />
<glyph glyph-name="u" unicode="u" horiz-adv-x="1128" d="M835 0 L835 174 L831 174 Q727 -24 508 -24 Q143 -24 143 422 L143 1024 L271 1024 L271 446 Q271 262 336.5 174 Q402 86 537 86 Q603 86 657.5 111.5 Q712 137 751.5 183.5 Q791 230 813 295 Q835 360 835 439 L835 1024 L963 1024 L963 0 L835 0 Z " />
<glyph glyph-name="v" unicode="v" horiz-adv-x="954" d="M530 0 L408 0 L16 1024 L157 1024 L440 244 Q466 173 473 119 L477 119 Q489 191 508 240 L801 1024 L938 1024 L530 0 Z " />
<glyph glyph-name="w" unicode="w" horiz-adv-x="1433" d="M1090 0 L962 0 L745 752 Q735 787 729 843 L725 843 Q723 828 718.5 806 Q714 784 704 754 L465 0 L340 0 L30 1024 L167 1024 L392 230 Q402 195 406 141 L414 141 Q416 159 420.5 182 Q425 205 433 231 L681 1024 L787 1024 L1009 229 Q1018 195 1024 140 L1032 140 Q1031 157 1036 179.5 Q1041 202 1049 229 L1274 1024 L1403 1024 L1090 0 Z " />
<glyph glyph-name="x" unicode="x" horiz-adv-x="902" d="M526 504 L862 0 L708 0 L500 339 Q488 358 475.5 378 Q463 398 450 421 L446 421 Q441 411 430.5 394.5 Q420 378 405 353 L181 0 L30 0 L376 501 L41 1024 L190 1024 L403 665 Q419 638 431 616.5 Q443 595 451 581 L455 581 Q468 600 479 619.5 Q490 639 502 659 L728 1024 L872 1024 L526 504 Z " />
<glyph glyph-name="y" unicode="y" horiz-adv-x="959" d="M462 -186 Q402 -336 324 -408.5 Q246 -481 135 -481 Q80 -481 42 -468 L42 -348 Q64 -356 86.5 -360 Q109 -364 132 -364 Q195 -364 241.5 -324.5 Q288 -285 322 -205 L411 5 L17 1024 L159 1024 L452 213 Q458 197 463.5 176.5 Q469 156 474 136 L479 136 Q484 153 488.5 170.5 Q493 188 501 209 L812 1024 L947 1024 L462 -186 Z " />
<glyph glyph-name="z" unicode="z" horiz-adv-x="938" d="M240 112 L871 112 L871 0 L45 0 L45 43 L688 912 L98 912 L98 1024 L886 1024 L886 988 L240 112 Z " />
<glyph glyph-name="braceleft" unicode="&#x7b;" horiz-adv-x="598" d="M530 -326 Q390 -322 319.5 -250 Q249 -178 249 -25 L249 273 Q249 383 209.5 442 Q170 501 93 509 L93 599 Q249 616 249 828 L249 1131 Q249 1285 319.5 1357.5 Q390 1430 530 1434 L530 1328 Q445 1323 408 1272.5 Q371 1222 371 1111 L371 818 Q371 601 223 556 L223 552 Q371 506 371 283 L371 1 Q371 -57 379 -98 Q387 -139 406 -166 Q425 -193 455 -206.5 Q485 -220 530 -221 L530 -326 Z " />
<glyph glyph-name="bar" unicode="&#x7c;" horiz-adv-x="476" d="M178 -481 L178 1566 L299 1566 L299 -481 L178 -481 Z " />
<glyph glyph-name="braceright" unicode="&#x7d;" horiz-adv-x="598" d="M505 509 Q350 492 350 273 L350 -25 Q350 -178 279.5 -250 Q209 -322 69 -326 L69 -221 Q110 -220 140 -208 Q170 -196 189.5 -170.5 Q209 -145 218.5 -103 Q228 -61 228 1 L228 283 Q228 505 376 552 L376 556 Q228 603 228 818 L228 1111 Q228 1170 218 1210.5 Q208 1251 188.5 1276.5 Q169 1302 139 1314 Q109 1326 69 1328 L69 1434 Q209 1430 279.5 1358 Q350 1286 350 1131 L350 828 Q350 614 505 599 L505 509 Z " />
<glyph glyph-name="asciitilde" unicode="&#x7e;" horiz-adv-x="1366" d="M1140 730 Q1133 599 1066 526.5 Q999 454 884 454 Q781 454 651 551 Q549 626 483 626 Q343 626 334 459 L227 459 Q230 523 249 574 Q268 625 301 661 Q334 697 380.5 716 Q427 735 484 735 Q584 735 699 651 Q734 626 760.5 608.5 Q787 591 809.5 580.5 Q832 570 851.5 565.5 Q871 561 890 561 Q954 561 991 605 Q1028 649 1034 730 L1140 730 Z " />
<glyph glyph-name="Adieresis" unicode="&#xc4;" horiz-adv-x="1303" d="M1115 0 L957 424 L342 424 L188 0 L40 0 L586 1434 L720 1434 L1263 0 L1115 0 Z M678 1183 Q671 1202 663.5 1227 Q656 1252 651 1284 L647 1284 Q641 1252 633.5 1227 Q626 1202 619 1183 L387 545 L912 545 L678 1183 Z M825 1551 Q792 1551 766.5 1574.5 Q741 1598 741 1636 Q741 1673 765.5 1696.5 Q790 1720 823 1720 Q859 1720 885 1696 Q911 1672 911 1636 Q911 1600 886.5 1575.5 Q862 1551 825 1551 Z M467 1551 Q449 1551 433.5 1557.5 Q418 1564 406 1575.5 Q394 1587 387 1602.5 Q380 1618 380 1636 Q380 1673 405 1696.5 Q430 1720 464 1720 Q482 1720 498 1713.5 Q514 1707 526 1696 Q538 1685 545 1669.5 Q552 1654 552 1636 Q552 1600 527 1575.5 Q502 1551 467 1551 Z " />
<glyph glyph-name="Aring" unicode="&#xc5;" horiz-adv-x="1304" d="M1115 0 L957 424 L342 424 L188 0 L40 0 L564 1376 Q447 1423 447 1546 Q447 1588 463 1623.5 Q479 1659 507 1684.5 Q535 1710 572.5 1724 Q610 1738 653 1738 Q696 1738 732.5 1724 Q769 1710 796 1685.5 Q823 1661 838.5 1626 Q854 1591 854 1549 Q854 1429 740 1379 L1263 0 L1115 0 Z M650 1663 Q596 1663 563 1631.5 Q530 1600 530 1549 Q530 1494 562 1464 Q594 1434 650 1434 Q703 1434 737.5 1466 Q772 1498 772 1549 Q772 1575 762.5 1596 Q753 1617 736.5 1632 Q720 1647 698 1655 Q676 1663 650 1663 Z M690 1151 Q679 1180 669.5 1209.5 Q660 1239 651 1284 L647 1284 Q641 1252 633.5 1227 Q626 1202 619 1183 L387 545 L912 545 L690 1151 Z " />
<glyph glyph-name="Ccedilla" unicode="&#xc7;" horiz-adv-x="1270" d="M1150 53 Q984 -25 771 -25 Q619 -25 495 28.5 Q371 82 283.5 177 Q196 272 148.5 403 Q101 534 101 689 Q101 852 151.5 992.5 Q202 1133 296 1236.5 Q390 1340 523.5 1399 Q657 1458 823 1458 Q1006 1458 1150 1402 L1150 1260 Q996 1337 821 1337 Q682 1337 574 1289 Q466 1241 392 1155.5 Q318 1070 279 953.5 Q240 837 240 699 Q240 575 275 465.5 Q310 356 378.5 274 Q447 192 549 144 Q651 96 786 96 Q993 96 1150 183 L1150 53 Z M952 -260 Q952 -433 687 -433 Q650 -433 615 -430 L615 -348 Q662 -354 693 -354 Q843 -354 843 -263 Q843 -181 706 -181 Q695 -181 682.5 -182 Q670 -183 654 -185 L654 0 L744 0 L744 -111 Q844 -111 898 -149 Q952 -187 952 -260 Z " />
<glyph glyph-name="Eacute" unicode="&#xc9;" horiz-adv-x="1030" d="M186 0 L186 1434 L885 1434 L885 1312 L319 1312 L319 786 L843 786 L843 666 L319 666 L319 121 L917 121 L917 0 L186 0 Z M523 1551 L415 1551 L643 1879 L778 1879 L523 1551 Z " />
<glyph glyph-name="Ntilde" unicode="&#xd1;" horiz-adv-x="1492" d="M1168 0 L372 1151 Q357 1173 342.5 1196 Q328 1219 319 1241 L314 1241 Q316 1223 317.5 1191 Q319 1159 319 1111 L319 0 L186 0 L186 1434 L333 1434 L1116 297 Q1134 270 1148.5 246.5 Q1163 223 1175 203 L1180 203 Q1176 236 1174 277 Q1172 318 1172 368 L1172 1434 L1306 1434 L1306 0 L1168 0 Z M1107 1788 Q1107 1737 1094.5 1695 Q1082 1653 1059 1622.5 Q1036 1592 1003 1575 Q970 1558 928 1558 Q860 1558 772 1622 Q702 1671 653 1671 Q558 1671 558 1543 L475 1543 Q475 1594 487.5 1636 Q500 1678 523 1708 Q546 1738 579 1754.5 Q612 1771 654 1771 Q722 1771 808 1709 Q879 1658 931 1658 Q972 1658 996.5 1690.5 Q1021 1723 1021 1788 L1107 1788 Z " />
<glyph glyph-name="Odieresis" unicode="&#xd6;" horiz-adv-x="1551" d="M770 -25 Q615 -25 491 31.5 Q367 88 280.5 186 Q194 284 147.5 416.5 Q101 549 101 701 Q101 869 147.5 1008.5 Q194 1148 283 1247.5 Q372 1347 501 1402.5 Q630 1458 795 1458 Q947 1458 1068 1403.5 Q1189 1349 1274 1252.5 Q1359 1156 1404.5 1024 Q1450 892 1450 737 Q1450 574 1405.5 434.5 Q1361 295 1274.5 193 Q1188 91 1061.5 33 Q935 -25 770 -25 Z M781 1337 Q651 1337 550.5 1287.5 Q450 1238 381 1153.5 Q312 1069 276.5 955.5 Q241 842 240 714 Q239 592 271.5 480.5 Q304 369 369.5 283.5 Q435 198 535 147 Q635 96 769 96 Q903 96 1004.5 142.5 Q1106 189 1174 271.5 Q1242 354 1276.5 468 Q1311 582 1311 717 Q1311 843 1280.5 956 Q1250 1069 1185.5 1153.5 Q1121 1238 1021 1287.5 Q921 1337 781 1337 Z M958 1551 Q925 1551 899.5 1574.5 Q874 1598 874 1636 Q874 1673 898.5 1696.5 Q923 1720 956 1720 Q992 1720 1018 1696 Q1044 1672 1044 1636 Q1044 1600 1019.5 1575.5 Q995 1551 958 1551 Z M600 1551 Q582 1551 566.5 1557.5 Q551 1564 539 1575.5 Q527 1587 520 1602.5 Q513 1618 513 1636 Q513 1673 538 1696.5 Q563 1720 597 1720 Q615 1720 631 1713.5 Q647 1707 659 1696 Q671 1685 678 1669.5 Q685 1654 685 1636 Q685 1600 660 1575.5 Q635 1551 600 1551 Z " />
<glyph glyph-name="Udieresis" unicode="&#xdc;" horiz-adv-x="1367" d="M1199 576 Q1199 -25 671 -25 Q168 -25 168 554 L168 1434 L301 1434 L301 566 Q301 330 396 213 Q491 96 690 96 Q1066 96 1066 552 L1066 1434 L1199 1434 L1199 576 Z M877 1551 Q844 1551 818.5 1574.5 Q793 1598 793 1636 Q793 1673 817.5 1696.5 Q842 1720 875 1720 Q911 1720 937 1696 Q963 1672 963 1636 Q963 1600 938.5 1575.5 Q914 1551 877 1551 Z M519 1551 Q501 1551 485.5 1557.5 Q470 1564 458 1575.5 Q446 1587 439 1602.5 Q432 1618 432 1636 Q432 1673 457 1696.5 Q482 1720 516 1720 Q534 1720 550 1713.5 Q566 1707 578 1696 Q590 1685 597 1669.5 Q604 1654 604 1636 Q604 1600 579 1575.5 Q554 1551 519 1551 Z " />
<glyph glyph-name="aacute" unicode="&#xe1;" horiz-adv-x="1026" d="M755 0 L755 182 L751 182 Q701 84 614.5 30 Q528 -24 419 -24 Q345 -24 285.5 -3 Q226 18 184.5 56.5 Q143 95 120.5 149 Q98 203 98 268 Q98 407 184 489.5 Q270 572 444 597 L755 642 Q755 937 526 937 Q347 937 194 806 L194 946 Q226 969 266.5 987.5 Q307 1006 352 1019.5 Q397 1033 444.5 1040.5 Q492 1048 537 1048 Q708 1048 795.5 952 Q883 856 883 666 L883 0 L755 0 Z M491 497 Q422 487 373 472 Q324 457 292 431.5 Q260 406 245 368.5 Q230 331 230 276 Q230 235 244.5 200 Q259 165 286.5 139.5 Q314 114 353.5 100 Q393 86 443 86 Q511 86 568 112 Q625 138 666.5 184 Q708 230 731.5 294 Q755 358 755 433 L755 534 L491 497 Z M473 1203 L365 1203 L593 1531 L728 1531 L473 1203 Z " />
<glyph glyph-name="agrave" unicode="&#xe0;" horiz-adv-x="1026" d="M755 0 L755 182 L751 182 Q701 84 614.5 30 Q528 -24 419 -24 Q345 -24 285.5 -3 Q226 18 184.5 56.5 Q143 95 120.5 149 Q98 203 98 268 Q98 407 184 489.5 Q270 572 444 597 L755 642 Q755 937 526 937 Q347 937 194 806 L194 946 Q226 969 266.5 987.5 Q307 1006 352 1019.5 Q397 1033 444.5 1040.5 Q492 1048 537 1048 Q708 1048 795.5 952 Q883 856 883 666 L883 0 L755 0 Z M491 497 Q422 487 373 472 Q324 457 292 431.5 Q260 406 245 368.5 Q230 331 230 276 Q230 235 244.5 200 Q259 165 286.5 139.5 Q314 114 353.5 100 Q393 86 443 86 Q511 86 568 112 Q625 138 666.5 184 Q708 230 731.5 294 Q755 358 755 433 L755 534 L491 497 Z M533 1203 L278 1531 L414 1531 L641 1203 L533 1203 Z " />
<glyph glyph-name="acircumflex" unicode="&#xe2;" horiz-adv-x="1026" d="M755 0 L755 182 L751 182 Q701 84 614.5 30 Q528 -24 419 -24 Q345 -24 285.5 -3 Q226 18 184.5 56.5 Q143 95 120.5 149 Q98 203 98 268 Q98 407 184 489.5 Q270 572 444 597 L755 642 Q755 937 526 937 Q347 937 194 806 L194 946 Q226 969 266.5 987.5 Q307 1006 352 1019.5 Q397 1033 444.5 1040.5 Q492 1048 537 1048 Q708 1048 795.5 952 Q883 856 883 666 L883 0 L755 0 Z M491 497 Q422 487 373 472 Q324 457 292 431.5 Q260 406 245 368.5 Q230 331 230 276 Q230 235 244.5 200 Q259 165 286.5 139.5 Q314 114 353.5 100 Q393 86 443 86 Q511 86 568 112 Q625 138 666.5 184 Q708 230 731.5 294 Q755 358 755 433 L755 534 L491 497 Z M677 1203 L516 1437 L354 1203 L256 1203 L474 1537 L563 1537 L781 1203 L677 1203 Z " />
<glyph glyph-name="adieresis" unicode="&#xe4;" horiz-adv-x="1026" d="M755 0 L755 182 L751 182 Q701 84 614.5 30 Q528 -24 419 -24 Q345 -24 285.5 -3 Q226 18 184.5 56.5 Q143 95 120.5 149 Q98 203 98 268 Q98 407 184 489.5 Q270 572 444 597 L755 642 Q755 937 526 937 Q347 937 194 806 L194 946 Q226 969 266.5 987.5 Q307 1006 352 1019.5 Q397 1033 444.5 1040.5 Q492 1048 537 1048 Q708 1048 795.5 952 Q883 856 883 666 L883 0 L755 0 Z M491 497 Q422 487 373 472 Q324 457 292 431.5 Q260 406 245 368.5 Q230 331 230 276 Q230 235 244.5 200 Q259 165 286.5 139.5 Q314 114 353.5 100 Q393 86 443 86 Q511 86 568 112 Q625 138 666.5 184 Q708 230 731.5 294 Q755 358 755 433 L755 534 L491 497 Z M686 1203 Q653 1203 627.5 1226.5 Q602 1250 602 1288 Q602 1325 626.5 1348.5 Q651 1372 684 1372 Q720 1372 746 1348 Q772 1324 772 1288 Q772 1252 747.5 1227.5 Q723 1203 686 1203 Z M328 1203 Q310 1203 294.5 1209.5 Q279 1216 267 1227.5 Q255 1239 248 1254.5 Q241 1270 241 1288 Q241 1325 266 1348.5 Q291 1372 325 1372 Q343 1372 359 1365.5 Q375 1359 387 1348 Q399 1337 406 1321.5 Q413 1306 413 1288 Q413 1252 388 1227.5 Q363 1203 328 1203 Z " />
<glyph glyph-name="atilde" unicode="&#xe3;" horiz-adv-x="1026" d="M755 0 L755 182 L751 182 Q701 84 614.5 30 Q528 -24 419 -24 Q345 -24 285.5 -3 Q226 18 184.5 56.5 Q143 95 120.5 149 Q98 203 98 268 Q98 407 184 489.5 Q270 572 444 597 L755 642 Q755 937 526 937 Q347 937 194 806 L194 946 Q226 969 266.5 987.5 Q307 1006 352 1019.5 Q397 1033 444.5 1040.5 Q492 1048 537 1048 Q708 1048 795.5 952 Q883 856 883 666 L883 0 L755 0 Z M491 497 Q422 487 373 472 Q324 457 292 431.5 Q260 406 245 368.5 Q230 331 230 276 Q230 235 244.5 200 Q259 165 286.5 139.5 Q314 114 353.5 100 Q393 86 443 86 Q511 86 568 112 Q625 138 666.5 184 Q708 230 731.5 294 Q755 358 755 433 L755 534 L491 497 Z M834 1440 Q834 1389 821.5 1347 Q809 1305 786 1274.5 Q763 1244 730 1227 Q697 1210 655 1210 Q587 1210 499 1274 Q429 1323 380 1323 Q285 1323 285 1195 L202 1195 Q202 1246 214.5 1288 Q227 1330 250 1360 Q273 1390 306 1406.5 Q339 1423 381 1423 Q449 1423 535 1361 Q606 1310 658 1310 Q699 1310 723.5 1342.5 Q748 1375 748 1440 L834 1440 Z " />
<glyph glyph-name="aring" unicode="&#xe5;" horiz-adv-x="1026" d="M755 0 L755 182 L751 182 Q701 84 614.5 30 Q528 -24 419 -24 Q345 -24 285.5 -3 Q226 18 184.5 56.5 Q143 95 120.5 149 Q98 203 98 268 Q98 407 184 489.5 Q270 572 444 597 L755 642 Q755 937 526 937 Q347 937 194 806 L194 946 Q226 969 266.5 987.5 Q307 1006 352 1019.5 Q397 1033 444.5 1040.5 Q492 1048 537 1048 Q708 1048 795.5 952 Q883 856 883 666 L883 0 L755 0 Z M491 497 Q422 487 373 472 Q324 457 292 431.5 Q260 406 245 368.5 Q230 331 230 276 Q230 235 244.5 200 Q259 165 286.5 139.5 Q314 114 353.5 100 Q393 86 443 86 Q511 86 568 112 Q625 138 666.5 184 Q708 230 731.5 294 Q755 358 755 433 L755 534 L491 497 Z M518 1182 Q478 1182 442 1195 Q406 1208 378 1232 Q350 1256 333.5 1291 Q317 1326 317 1369 Q317 1411 333 1446 Q349 1481 377 1506.5 Q405 1532 442 1546 Q479 1560 522 1560 Q561 1560 597.5 1547 Q634 1534 662 1509.5 Q690 1485 707 1450 Q724 1415 724 1372 Q724 1331 707.5 1296.5 Q691 1262 662.5 1236.5 Q634 1211 597 1196.5 Q560 1182 518 1182 Z M518 1486 Q465 1486 432 1454 Q399 1422 399 1371 Q399 1316 431 1286 Q463 1256 518 1256 Q545 1256 567.5 1264.5 Q590 1273 606.5 1288.5 Q623 1304 632 1325 Q641 1346 641 1371 Q641 1424 606 1455 Q571 1486 518 1486 Z " />
<glyph glyph-name="ccedilla" unicode="&#xe7;" horiz-adv-x="927" d="M846 46 Q732 -23 570 -25 Q460 -26 372 13 Q284 52 222 121.5 Q160 191 127 285.5 Q94 380 94 491 Q94 606 129 707.5 Q164 809 231 884.5 Q298 960 395 1004 Q492 1048 617 1048 Q744 1048 849 999 L849 863 Q737 937 607 937 Q516 937 445 902.5 Q374 868 325.5 808.5 Q277 749 251.5 669.5 Q226 590 226 501 Q226 419 247.5 344 Q269 269 313.5 211.5 Q358 154 426 120 Q494 86 586 86 Q730 86 846 172 L846 46 Z M759 -260 Q759 -433 494 -433 Q457 -433 422 -430 L422 -348 Q469 -354 500 -354 Q650 -354 650 -263 Q650 -181 513 -181 Q502 -181 489.5 -182 Q477 -183 461 -185 L461 0 L551 0 L551 -111 Q651 -111 705 -149 Q759 -187 759 -260 Z " />
<glyph glyph-name="eacute" unicode="&#xe9;" horiz-adv-x="1052" d="M226 489 Q227 395 251 320 Q275 245 320 193 Q365 141 429.5 113.5 Q494 86 575 86 Q748 86 902 207 L902 81 Q755 -24 546 -24 Q443 -24 359 12 Q275 48 216 116.5 Q157 185 125 285 Q93 385 93 513 Q93 628 128 726 Q163 824 225 895.5 Q287 967 372 1007.5 Q457 1048 558 1048 Q657 1048 733 1013.5 Q809 979 860.5 915 Q912 851 939 759 Q966 667 966 553 L966 489 L226 489 Z M834 601 Q831 761 758 849 Q685 937 555 937 Q490 937 434.5 914 Q379 891 337 847.5 Q295 804 267.5 741.5 Q240 679 229 601 L834 601 Z M510 1203 L402 1203 L630 1531 L765 1531 L510 1203 Z " />
<glyph glyph-name="egrave" unicode="&#xe8;" horiz-adv-x="1052" d="M226 489 Q227 395 251 320 Q275 245 320 193 Q365 141 429.5 113.5 Q494 86 575 86 Q748 86 902 207 L902 81 Q755 -24 546 -24 Q443 -24 359 12 Q275 48 216 116.5 Q157 185 125 285 Q93 385 93 513 Q93 628 128 726 Q163 824 225 895.5 Q287 967 372 1007.5 Q457 1048 558 1048 Q657 1048 733 1013.5 Q809 979 860.5 915 Q912 851 939 759 Q966 667 966 553 L966 489 L226 489 Z M834 601 Q831 761 758 849 Q685 937 555 937 Q490 937 434.5 914 Q379 891 337 847.5 Q295 804 267.5 741.5 Q240 679 229 601 L834 601 Z M583 1203 L328 1531 L464 1531 L691 1203 L583 1203 Z " />
<glyph glyph-name="ecircumflex" unicode="&#xea;" horiz-adv-x="1052" d="M226 489 Q227 395 251 320 Q275 245 320 193 Q365 141 429.5 113.5 Q494 86 575 86 Q748 86 902 207 L902 81 Q755 -24 546 -24 Q443 -24 359 12 Q275 48 216 116.5 Q157 185 125 285 Q93 385 93 513 Q93 628 128 726 Q163 824 225 895.5 Q287 967 372 1007.5 Q457 1048 558 1048 Q657 1048 733 1013.5 Q809 979 860.5 915 Q912 851 939 759 Q966 667 966 553 L966 489 L226 489 Z M834 601 Q831 761 758 849 Q685 937 555 937 Q490 937 434.5 914 Q379 891 337 847.5 Q295 804 267.5 741.5 Q240 679 229 601 L834 601 Z M711 1203 L550 1437 L388 1203 L290 1203 L508 1537 L597 1537 L815 1203 L711 1203 Z " />
<glyph glyph-name="edieresis" unicode="&#xeb;" horiz-adv-x="1052" d="M226 489 Q227 395 251 320 Q275 245 320 193 Q365 141 429.5 113.5 Q494 86 575 86 Q748 86 902 207 L902 81 Q755 -24 546 -24 Q443 -24 359 12 Q275 48 216 116.5 Q157 185 125 285 Q93 385 93 513 Q93 628 128 726 Q163 824 225 895.5 Q287 967 372 1007.5 Q457 1048 558 1048 Q657 1048 733 1013.5 Q809 979 860.5 915 Q912 851 939 759 Q966 667 966 553 L966 489 L226 489 Z M834 601 Q831 761 758 849 Q685 937 555 937 Q490 937 434.5 914 Q379 891 337 847.5 Q295 804 267.5 741.5 Q240 679 229 601 L834 601 Z M723 1203 Q690 1203 664.5 1226.5 Q639 1250 639 1288 Q639 1325 663.5 1348.5 Q688 1372 721 1372 Q757 1372 783 1348 Q809 1324 809 1288 Q809 1252 784.5 1227.5 Q760 1203 723 1203 Z M365 1203 Q347 1203 331.5 1209.5 Q316 1216 304 1227.5 Q292 1239 285 1254.5 Q278 1270 278 1288 Q278 1325 303 1348.5 Q328 1372 362 1372 Q380 1372 396 1365.5 Q412 1359 424 1348 Q436 1337 443 1321.5 Q450 1306 450 1288 Q450 1252 425 1227.5 Q400 1203 365 1203 Z " />
<glyph glyph-name="iacute" unicode="&#xed;" horiz-adv-x="458" d="M165 0 L165 1024 L293 1024 L293 0 L165 0 Z M244 1203 L136 1203 L364 1531 L499 1531 L244 1203 Z " />
<glyph glyph-name="igrave" unicode="&#xec;" horiz-adv-x="458" d="M165 0 L165 1024 L293 1024 L293 0 L165 0 Z M207 1203 L-48 1531 L88 1531 L315 1203 L207 1203 Z " />
<glyph glyph-name="icircumflex" unicode="&#xee;" horiz-adv-x="458" d="M165 0 L165 1024 L293 1024 L293 0 L165 0 Z M389 1203 L228 1437 L66 1203 L-32 1203 L186 1537 L275 1537 L493 1203 L389 1203 Z " />
<glyph glyph-name="idieresis" unicode="&#xef;" horiz-adv-x="458" d="M165 0 L165 1024 L293 1024 L293 0 L165 0 Z M410 1203 Q377 1203 351.5 1226.5 Q326 1250 326 1288 Q326 1325 350.5 1348.5 Q375 1372 408 1372 Q444 1372 470 1348 Q496 1324 496 1288 Q496 1252 471.5 1227.5 Q447 1203 410 1203 Z M52 1203 Q34 1203 18.5 1209.5 Q3 1216 -9 1227.5 Q-21 1239 -28 1254.5 Q-35 1270 -35 1288 Q-35 1325 -10 1348.5 Q15 1372 49 1372 Q67 1372 83 1365.5 Q99 1359 111 1348 Q123 1337 130 1321.5 Q137 1306 137 1288 Q137 1252 112 1227.5 Q87 1203 52 1203 Z " />
<glyph glyph-name="ntilde" unicode="&#xf1;" horiz-adv-x="1127" d="M856 0 L856 590 Q856 937 604 937 Q537 937 480 910.5 Q423 884 381.5 837 Q340 790 316.5 725.5 Q293 661 293 586 L293 0 L165 0 L165 1024 L293 1024 L293 846 L297 846 Q411 1048 640 1048 Q808 1048 896 939 Q984 830 984 624 L984 0 L856 0 Z M902 1440 Q902 1389 889.5 1347 Q877 1305 854 1274.5 Q831 1244 798 1227 Q765 1210 723 1210 Q655 1210 567 1274 Q497 1323 448 1323 Q353 1323 353 1195 L270 1195 Q270 1246 282.5 1288 Q295 1330 318 1360 Q341 1390 374 1406.5 Q407 1423 449 1423 Q517 1423 603 1361 Q674 1310 726 1310 Q767 1310 791.5 1342.5 Q816 1375 816 1440 L902 1440 Z " />
<glyph glyph-name="oacute" unicode="&#xf3;" horiz-adv-x="1174" d="M584 -24 Q470 -24 379.5 14 Q289 52 225 121.5 Q161 191 127 288 Q93 385 93 503 Q93 631 129 732 Q165 833 231.5 903.5 Q298 974 392 1011 Q486 1048 602 1048 Q713 1048 802 1011.5 Q891 975 953 906 Q1015 837 1048 738 Q1081 639 1081 513 Q1081 393 1046.5 294.5 Q1012 196 948 125 Q884 54 792 15 Q700 -24 584 -24 Z M594 937 Q510 937 442 908 Q374 879 325.5 823.5 Q277 768 251 687.5 Q225 607 225 505 Q225 409 251 332 Q277 255 324.5 200 Q372 145 440 115.5 Q508 86 592 86 Q678 86 744 114.5 Q810 143 856 197.5 Q902 252 925.5 331 Q949 410 949 511 Q949 718 857 827.5 Q765 937 594 937 Z M562 1203 L454 1203 L682 1531 L817 1531 L562 1203 Z " />
<glyph glyph-name="ograve" unicode="&#xf2;" horiz-adv-x="1174" d="M584 -24 Q470 -24 379.5 14 Q289 52 225 121.5 Q161 191 127 288 Q93 385 93 503 Q93 631 129 732 Q165 833 231.5 903.5 Q298 974 392 1011 Q486 1048 602 1048 Q713 1048 802 1011.5 Q891 975 953 906 Q1015 837 1048 738 Q1081 639 1081 513 Q1081 393 1046.5 294.5 Q1012 196 948 125 Q884 54 792 15 Q700 -24 584 -24 Z M594 937 Q510 937 442 908 Q374 879 325.5 823.5 Q277 768 251 687.5 Q225 607 225 505 Q225 409 251 332 Q277 255 324.5 200 Q372 145 440 115.5 Q508 86 592 86 Q678 86 744 114.5 Q810 143 856 197.5 Q902 252 925.5 331 Q949 410 949 511 Q949 718 857 827.5 Q765 937 594 937 Z M606 1203 L351 1531 L487 1531 L714 1203 L606 1203 Z " />
<glyph glyph-name="ocircumflex" unicode="&#xf4;" horiz-adv-x="1174" d="M584 -24 Q470 -24 379.5 14 Q289 52 225 121.5 Q161 191 127 288 Q93 385 93 503 Q93 631 129 732 Q165 833 231.5 903.5 Q298 974 392 1011 Q486 1048 602 1048 Q713 1048 802 1011.5 Q891 975 953 906 Q1015 837 1048 738 Q1081 639 1081 513 Q1081 393 1046.5 294.5 Q1012 196 948 125 Q884 54 792 15 Q700 -24 584 -24 Z M594 937 Q510 937 442 908 Q374 879 325.5 823.5 Q277 768 251 687.5 Q225 607 225 505 Q225 409 251 332 Q277 255 324.5 200 Q372 145 440 115.5 Q508 86 592 86 Q678 86 744 114.5 Q810 143 856 197.5 Q902 252 925.5 331 Q949 410 949 511 Q949 718 857 827.5 Q765 937 594 937 Z M755 1203 L594 1437 L432 1203 L334 1203 L552 1537 L641 1537 L859 1203 L755 1203 Z " />
<glyph glyph-name="odieresis" unicode="&#xf6;" horiz-adv-x="1174" d="M584 -24 Q470 -24 379.5 14 Q289 52 225 121.5 Q161 191 127 288 Q93 385 93 503 Q93 631 129 732 Q165 833 231.5 903.5 Q298 974 392 1011 Q486 1048 602 1048 Q713 1048 802 1011.5 Q891 975 953 906 Q1015 837 1048 738 Q1081 639 1081 513 Q1081 393 1046.5 294.5 Q1012 196 948 125 Q884 54 792 15 Q700 -24 584 -24 Z M594 937 Q510 937 442 908 Q374 879 325.5 823.5 Q277 768 251 687.5 Q225 607 225 505 Q225 409 251 332 Q277 255 324.5 200 Q372 145 440 115.5 Q508 86 592 86 Q678 86 744 114.5 Q810 143 856 197.5 Q902 252 925.5 331 Q949 410 949 511 Q949 718 857 827.5 Q765 937 594 937 Z M770 1203 Q737 1203 711.5 1226.5 Q686 1250 686 1288 Q686 1325 710.5 1348.5 Q735 1372 768 1372 Q804 1372 830 1348 Q856 1324 856 1288 Q856 1252 831.5 1227.5 Q807 1203 770 1203 Z M412 1203 Q394 1203 378.5 1209.5 Q363 1216 351 1227.5 Q339 1239 332 1254.5 Q325 1270 325 1288 Q325 1325 350 1348.5 Q375 1372 409 1372 Q427 1372 443 1365.5 Q459 1359 471 1348 Q483 1337 490 1321.5 Q497 1306 497 1288 Q497 1252 472 1227.5 Q447 1203 412 1203 Z " />
<glyph glyph-name="otilde" unicode="&#xf5;" horiz-adv-x="1174" d="M584 -24 Q470 -24 379.5 14 Q289 52 225 121.5 Q161 191 127 288 Q93 385 93 503 Q93 631 129 732 Q165 833 231.5 903.5 Q298 974 392 1011 Q486 1048 602 1048 Q713 1048 802 1011.5 Q891 975 953 906 Q1015 837 1048 738 Q1081 639 1081 513 Q1081 393 1046.5 294.5 Q1012 196 948 125 Q884 54 792 15 Q700 -24 584 -24 Z M594 937 Q510 937 442 908 Q374 879 325.5 823.5 Q277 768 251 687.5 Q225 607 225 505 Q225 409 251 332 Q277 255 324.5 200 Q372 145 440 115.5 Q508 86 592 86 Q678 86 744 114.5 Q810 143 856 197.5 Q902 252 925.5 331 Q949 410 949 511 Q949 718 857 827.5 Q765 937 594 937 Z M921 1440 Q921 1389 908.5 1347 Q896 1305 873 1274.5 Q850 1244 817 1227 Q784 1210 742 1210 Q674 1210 586 1274 Q516 1323 467 1323 Q372 1323 372 1195 L289 1195 Q289 1246 301.5 1288 Q314 1330 337 1360 Q360 1390 393 1406.5 Q426 1423 468 1423 Q536 1423 622 1361 Q693 1310 745 1310 Q786 1310 810.5 1342.5 Q835 1375 835 1440 L921 1440 Z " />
<glyph glyph-name="uacute" unicode="&#xfa;" horiz-adv-x="1128" d="M835 0 L835 174 L831 174 Q727 -24 508 -24 Q143 -24 143 422 L143 1024 L271 1024 L271 446 Q271 262 336.5 174 Q402 86 537 86 Q603 86 657.5 111.5 Q712 137 751.5 183.5 Q791 230 813 295 Q835 360 835 439 L835 1024 L963 1024 L963 0 L835 0 Z M560 1203 L452 1203 L680 1531 L815 1531 L560 1203 Z " />
<glyph glyph-name="ugrave" unicode="&#xf9;" horiz-adv-x="1128" d="M835 0 L835 174 L831 174 Q727 -24 508 -24 Q143 -24 143 422 L143 1024 L271 1024 L271 446 Q271 262 336.5 174 Q402 86 537 86 Q603 86 657.5 111.5 Q712 137 751.5 183.5 Q791 230 813 295 Q835 360 835 439 L835 1024 L963 1024 L963 0 L835 0 Z M568 1203 L313 1531 L449 1531 L676 1203 L568 1203 Z " />
<glyph glyph-name="ucircumflex" unicode="&#xfb;" horiz-adv-x="1128" d="M835 0 L835 174 L831 174 Q727 -24 508 -24 Q143 -24 143 422 L143 1024 L271 1024 L271 446 Q271 262 336.5 174 Q402 86 537 86 Q603 86 657.5 111.5 Q712 137 751.5 183.5 Q791 230 813 295 Q835 360 835 439 L835 1024 L963 1024 L963 0 L835 0 Z M729 1203 L568 1437 L406 1203 L308 1203 L526 1537 L615 1537 L833 1203 L729 1203 Z " />
<glyph glyph-name="udieresis" unicode="&#xfc;" horiz-adv-x="1128" d="M835 0 L835 174 L831 174 Q727 -24 508 -24 Q143 -24 143 422 L143 1024 L271 1024 L271 446 Q271 262 336.5 174 Q402 86 537 86 Q603 86 657.5 111.5 Q712 137 751.5 183.5 Q791 230 813 295 Q835 360 835 439 L835 1024 L963 1024 L963 0 L835 0 Z M752 1203 Q719 1203 693.5 1226.5 Q668 1250 668 1288 Q668 1325 692.5 1348.5 Q717 1372 750 1372 Q786 1372 812 1348 Q838 1324 838 1288 Q838 1252 813.5 1227.5 Q789 1203 752 1203 Z M394 1203 Q376 1203 360.5 1209.5 Q345 1216 333 1227.5 Q321 1239 314 1254.5 Q307 1270 307 1288 Q307 1325 332 1348.5 Q357 1372 391 1372 Q409 1372 425 1365.5 Q441 1359 453 1348 Q465 1337 472 1321.5 Q479 1306 479 1288 Q479 1252 454 1227.5 Q429 1203 394 1203 Z " />
<glyph glyph-name="dagger" unicode="&#x2020;" horiz-adv-x="762" d="M716 913 L449 943 L414 229 L358 229 L323 943 L46 913 L46 1043 L353 1023 L318 1433 L454 1433 L419 1023 L716 1043 L716 913 Z " />
<glyph glyph-name="degree" unicode="&#xb0;" horiz-adv-x="781" d="M126 1177 Q126 1232 146.5 1280 Q167 1328 203 1364 Q239 1400 287 1421 Q335 1442 390 1442 Q445 1442 493 1421 Q541 1400 577 1364 Q613 1328 634 1280 Q655 1232 655 1177 Q655 1122 634 1074 Q613 1026 577 990 Q541 954 493 933.5 Q445 913 390 913 Q335 913 287 933.5 Q239 954 203 990 Q167 1026 146.5 1074 Q126 1122 126 1177 Z M227 1178 Q227 1144 239.5 1113.5 Q252 1083 274.5 1060 Q297 1037 327 1023.5 Q357 1010 391 1010 Q425 1010 454.5 1024 Q484 1038 506 1061.5 Q528 1085 540.5 1115 Q553 1145 553 1178 Q553 1212 541.5 1242 Q530 1272 508.5 1295 Q487 1318 457 1331.5 Q427 1345 391 1345 Q356 1345 326 1331.5 Q296 1318 274 1295 Q252 1272 239.5 1242 Q227 1212 227 1178 Z " />
<glyph glyph-name="cent" unicode="&#xa2;" horiz-adv-x="1079" d="M927 209 Q834 152 706 140 L706 -53 L598 -53 L598 141 Q498 152 419.5 195 Q341 238 286.5 305.5 Q232 373 203.5 462 Q175 551 175 653 Q175 753 202 843 Q229 933 282.5 1006 Q336 1079 415 1130 Q494 1181 598 1203 L598 1409 L706 1409 L706 1211 Q828 1209 929 1162 L929 1024 Q827 1090 706 1096 L706 252 Q834 264 927 335 L927 209 Z M598 1087 Q525 1070 470.5 1030 Q416 990 379.5 934 Q343 878 325 809 Q307 740 307 665 Q307 595 323.5 528 Q340 461 375.5 406 Q411 351 466 312 Q521 273 598 258 L598 1087 Z " />
<glyph glyph-name="sterling" unicode="&#xa3;" horiz-adv-x="1079" d="M93 0 L93 110 Q326 197 326 449 L326 648 L113 648 L113 764 L326 764 L326 1036 Q326 1129 353.5 1206.5 Q381 1284 430.5 1340 Q480 1396 549 1427 Q618 1458 702 1458 Q807 1458 900 1420 L900 1295 Q804 1346 701 1346 Q580 1346 517 1264 Q454 1182 454 1021 L454 764 L755 764 L755 648 L454 648 L454 482 Q454 214 251 112 L977 112 L977 0 L93 0 Z " />
<glyph glyph-name="section" unicode="&#xa7;" horiz-adv-x="918" d="M638 409 Q685 372 706.5 324 Q728 276 728 215 Q728 154 703.5 102.5 Q679 51 635 13.5 Q591 -24 529 -45 Q467 -66 393 -66 Q274 -66 165 -13 L165 115 Q290 46 399 46 Q496 46 547 90.5 Q598 135 598 207 Q598 261 564 302 Q556 318 525.5 339.5 Q495 361 447 386 L364 430 Q303 462 262 497 Q221 532 195.5 570 Q170 608 159 649 Q148 690 148 735 Q148 902 303 985 Q188 1067 188 1206 Q188 1268 211 1320.5 Q234 1373 276.5 1411 Q319 1449 379 1470 Q439 1491 513 1491 Q634 1491 720 1451 L720 1324 Q628 1379 510 1379 Q320 1379 320 1213 Q320 1179 329 1152 Q338 1125 365.5 1098.5 Q393 1072 443.5 1042.5 Q494 1013 576 975 Q683 925 736 853 Q789 781 789 689 Q789 523 638 409 Z M402 925 Q279 868 279 744 Q279 702 291.5 668.5 Q304 635 335 604.5 Q366 574 418 544 Q470 514 548 479 Q603 521 630 566.5 Q657 612 657 680 Q657 718 646.5 748 Q636 778 608 806 Q580 834 530 862.5 Q480 891 402 925 Z " />
<glyph glyph-name="bullet" unicode="&#x2022;" horiz-adv-x="821" d="M164 688 Q164 739 183.5 784 Q203 829 236 862.5 Q269 896 314 915.5 Q359 935 410 935 Q461 935 506 915.5 Q551 896 584.5 862.5 Q618 829 637.5 784 Q657 739 657 688 Q657 637 637.5 592 Q618 547 584.5 514 Q551 481 506 461.5 Q461 442 410 442 Q359 442 314 461.5 Q269 481 236 514 Q203 547 183.5 592 Q164 637 164 688 Z " />
<glyph glyph-name="paragraph" unicode="&#xb6;" horiz-adv-x="954" d="M719 1339 L719 0 L623 0 L623 1339 L445 1339 L445 0 L348 0 L348 903 Q294 903 248.5 923.5 Q203 944 169.5 979.5 Q136 1015 117 1063.5 Q98 1112 98 1168 Q98 1228 118.5 1277 Q139 1326 174 1361 Q209 1396 255.5 1415 Q302 1434 354 1434 L849 1434 L849 1339 L719 1339 Z " />
<glyph glyph-name="germandbls" unicode="&#xdf;" horiz-adv-x="1087" d="M445 125 Q520 86 601 86 Q664 86 715 107.5 Q766 129 802 168 Q838 207 857.5 261.5 Q877 316 877 383 Q877 459 850.5 521.5 Q824 584 773 632 Q722 680 648.5 712 Q575 744 480 757 L480 862 Q547 875 600.5 903 Q654 931 691.5 972 Q729 1013 749 1065 Q769 1117 769 1178 Q769 1293 709 1358 Q649 1423 543 1423 Q421 1423 357 1339.5 Q293 1256 293 1096 L293 1 L165 1 L165 1115 Q165 1212 192.5 1289.5 Q220 1367 270.5 1421.5 Q321 1476 393 1505.5 Q465 1535 553 1535 Q631 1535 695 1510.5 Q759 1486 804.5 1441.5 Q850 1397 875.5 1334.5 Q901 1272 901 1195 Q901 1131 883 1073.5 Q865 1016 831 968.5 Q797 921 748 884 Q699 847 638 823 L638 819 Q818 777 913.5 666.5 Q1009 556 1009 390 Q1009 302 980 226 Q951 150 898.5 94.5 Q846 39 771.5 7.5 Q697 -24 607 -24 Q520 -24 445 -2 L445 125 Z " />
<glyph glyph-name="uni00AD" unicode="&#xad;" horiz-adv-x="817" d="M144 530 L144 640 L691 640 L691 530 L144 530 Z " />
<glyph glyph-name="registered" unicode="&#xae;" horiz-adv-x="1813" d="M857 255 Q607 255 431.5 430 Q256 605 256 853 Q256 1104 432.5 1279 Q609 1454 856 1454 Q1104 1454 1281 1278.5 Q1458 1103 1458 856 Q1458 606 1282.5 430.5 Q1107 255 857 255 Z M853 1372 Q642 1372 493.5 1219.5 Q345 1067 345 853 Q345 640 492.5 488.5 Q640 337 853 337 Q1067 337 1218 488.5 Q1369 640 1369 853 Q1369 1067 1217.5 1219.5 Q1066 1372 853 1372 Z M1040 482 L948 672 Q908 758 870.5 787.5 Q833 817 786 817 L716 817 L716 482 L619 482 L619 1254 L845 1254 Q973 1254 1047 1198.5 Q1121 1143 1121 1051 Q1121 874 919 837 L919 834 Q977 820 1047 694 L1149 482 L1040 482 Z M716 1174 L716 898 L848 898 Q926 898 973 933 Q1020 968 1020 1038 Q1020 1174 829 1174 L716 1174 Z " />
<glyph glyph-name="copyright" unicode="&#xa9;" horiz-adv-x="1813" d="M159 714 Q159 817 185.5 912.5 Q212 1008 261 1091.5 Q310 1175 378 1243 Q446 1311 529.5 1360 Q613 1409 708.5 1435.5 Q804 1462 907 1462 Q1010 1462 1105.5 1435.5 Q1201 1409 1284.5 1360 Q1368 1311 1436 1243 Q1504 1175 1553 1091.5 Q1602 1008 1628.5 912.5 Q1655 817 1655 714 Q1655 611 1628.5 515.5 Q1602 420 1553 336.5 Q1504 253 1436 185 Q1368 117 1284.5 68 Q1201 19 1105.5 -7.5 Q1010 -34 907 -34 Q804 -34 708.5 -7.5 Q613 19 529.5 68 Q446 117 378 185 Q310 253 261 336.5 Q212 420 185.5 515.5 Q159 611 159 714 Z M240 714 Q240 576 292.5 454.5 Q345 333 435.5 242.5 Q526 152 647.5 99.5 Q769 47 907 47 Q1045 47 1166.5 99.5 Q1288 152 1378.5 242.5 Q1469 333 1521.5 454.5 Q1574 576 1574 714 Q1574 852 1521.5 973.5 Q1469 1095 1378.5 1185.5 Q1288 1276 1166.5 1328.5 Q1045 1381 907 1381 Q769 1381 647.5 1328.5 Q526 1276 435.5 1185.5 Q345 1095 292.5 973.5 Q240 852 240 714 Z M1197 268 Q1079 198 938 198 Q837 198 747 235 Q657 272 589.5 337.5 Q522 403 483 493.5 Q444 584 444 691 Q444 804 479 902 Q514 1000 580.5 1072.5 Q647 1145 743 1187 Q839 1229 960 1229 Q1090 1229 1193 1175 L1193 1057 Q1094 1122 943 1122 Q857 1122 787 1090.5 Q717 1059 667 1003.5 Q617 948 589.5 872.5 Q562 797 562 710 Q562 628 589.5 554 Q617 480 667.5 424 Q718 368 790 335.5 Q862 303 952 303 Q1091 303 1197 376 L1197 268 Z " />
<glyph glyph-name="trademark" unicode="&#x2122;" horiz-adv-x="1584" d="M1291 772 L1291 1277 L1287 1277 L1064 772 L1000 772 L785 1277 L781 1277 L781 772 L689 772 L689 1434 L810 1434 L1034 913 L1038 913 L1269 1434 L1386 1434 L1386 772 L1291 772 Z M383 1346 L383 772 L286 772 L286 1346 L73 1346 L73 1434 L599 1434 L599 1346 L383 1346 Z " />
<glyph glyph-name="acute" unicode="&#xb4;" horiz-adv-x="543" d="M244 1203 L136 1203 L364 1531 L499 1531 L244 1203 Z " />
<glyph glyph-name="dieresis" unicode="&#xa8;" horiz-adv-x="832" d="M592 1203 Q559 1203 533.5 1226.5 Q508 1250 508 1288 Q508 1325 532.5 1348.5 Q557 1372 590 1372 Q626 1372 652 1348 Q678 1324 678 1288 Q678 1252 653.5 1227.5 Q629 1203 592 1203 Z M234 1203 Q216 1203 200.5 1209.5 Q185 1216 173 1227.5 Q161 1239 154 1254.5 Q147 1270 147 1288 Q147 1325 172 1348.5 Q197 1372 231 1372 Q249 1372 265 1365.5 Q281 1359 293 1348 Q305 1337 312 1321.5 Q319 1306 319 1288 Q319 1252 294 1227.5 Q269 1203 234 1203 Z " />
<glyph glyph-name="notequal" unicode="&#x2260;" horiz-adv-x="1367" d="M604 340 L429 0 L312 0 L489 340 L222 340 L222 448 L545 448 L697 747 L222 747 L222 855 L754 855 L925 1188 L1040 1188 L869 855 L1146 855 L1146 747 L814 747 L659 448 L1146 448 L1146 340 L604 340 Z " />
<glyph glyph-name="AE" unicode="&#xc6;" horiz-adv-x="1734" d="M877 0 L877 424 L371 424 L165 0 L13 0 L711 1434 L1575 1434 L1575 1309 L1009 1309 L1009 785 L1534 785 L1534 665 L1009 665 L1009 121 L1607 121 L1607 0 L877 0 Z M877 1309 L790 1309 L426 545 L877 545 L877 1309 Z " />
<glyph glyph-name="Oslash" unicode="&#xd8;" horiz-adv-x="1551" d="M770 -25 Q632 -25 520 19 Q408 63 323 142 L159 -53 L89 5 L260 209 Q182 306 141.5 431.5 Q101 557 101 701 Q101 869 147.5 1008.5 Q194 1148 283 1247.5 Q372 1347 501 1402.5 Q630 1458 795 1458 Q915 1458 1015 1424 Q1115 1390 1195 1327 L1333 1492 L1404 1434 L1262 1265 Q1353 1168 1401.5 1033 Q1450 898 1450 737 Q1450 574 1405.5 434.5 Q1361 295 1274.5 193 Q1188 91 1061.5 33 Q935 -25 770 -25 Z M1311 717 Q1311 848 1278.5 963 Q1246 1078 1177 1163 L405 241 Q471 173 561 134.5 Q651 96 769 96 Q903 96 1004.5 142.5 Q1106 189 1174 271.5 Q1242 354 1276.5 468 Q1311 582 1311 717 Z M781 1337 Q651 1337 550.5 1287.5 Q450 1238 381 1153.5 Q312 1069 276.5 955.5 Q241 842 240 714 Q239 602 265.5 499 Q292 396 347 313 L1113 1229 Q1050 1280 968.5 1308.5 Q887 1337 781 1337 Z " />
<glyph glyph-name="infinity" unicode="&#x221e;" horiz-adv-x="1673" d="M836 497 Q752 356 653.5 284.5 Q555 213 451 213 Q370 213 303 240.5 Q236 268 188 318 Q140 368 113.5 438 Q87 508 87 592 Q87 670 115.5 740.5 Q144 811 193.5 864 Q243 917 309 948 Q375 979 451 979 Q687 979 839 696 Q919 836 1019.5 907.5 Q1120 979 1223 979 Q1304 979 1371 951 Q1438 923 1486.5 873 Q1535 823 1561.5 753.5 Q1588 684 1588 600 Q1588 522 1560 452 Q1532 382 1483 328.5 Q1434 275 1367.5 244 Q1301 213 1223 213 Q992 213 836 497 Z M889 596 Q1024 318 1223 318 Q1282 318 1329 339.5 Q1376 361 1409 398.5 Q1442 436 1460 487.5 Q1478 539 1478 600 Q1478 659 1459 709.5 Q1440 760 1406 797 Q1372 834 1325 855 Q1278 876 1223 876 Q1040 876 889 596 Z M786 597 Q648 876 451 876 Q393 876 346 855 Q299 834 265 796.5 Q231 759 212.5 706.5 Q194 654 194 592 Q194 534 213 484 Q232 434 266.5 397 Q301 360 348 339 Q395 318 451 318 Q635 318 786 597 Z " />
<glyph glyph-name="plusminus" unicode="&#xb1;" horiz-adv-x="1366" d="M738 642 L738 234 L631 234 L631 642 L222 642 L222 750 L631 750 L631 1158 L738 1158 L738 750 L1146 750 L1146 642 L738 642 Z M222 0 L222 108 L1146 108 L1146 0 L222 0 Z " />
<glyph glyph-name="lessequal" unicode="&#x2264;" horiz-adv-x="1367" d="M261 680 L261 718 L1107 1192 L1107 1070 L448 703 L448 699 L1107 376 L1107 252 L261 680 Z M222 31 L222 140 L1146 140 L1146 31 L222 31 Z " />
<glyph glyph-name="greaterequal" unicode="&#x2265;" horiz-adv-x="1367" d="M261 253 L261 377 L922 698 L922 703 L261 1071 L261 1193 L1107 719 L1107 681 L261 253 Z M222 31 L222 140 L1146 140 L1146 31 L222 31 Z " />
<glyph glyph-name="yen" unicode="&#xa5;" horiz-adv-x="1079" d="M644 761 L958 761 L958 650 L605 650 L605 424 L958 424 L958 312 L605 312 L605 0 L477 0 L477 312 L119 312 L119 424 L477 424 L477 650 L119 650 L119 761 L435 761 L71 1434 L218 1434 L496 891 Q529 826 543 787 L548 787 Q556 814 567.5 841 Q579 868 594 896 L875 1434 L1013 1434 L644 761 Z " />
<glyph glyph-name="mu" unicode="&#xb5;" horiz-adv-x="1149" d="M869 0 Q857 83 857 177 L853 177 Q759 -24 548 -24 Q376 -24 298 99 L292 99 L292 -393 L165 -393 L165 1024 L292 1024 L292 426 Q292 263 359 176.5 Q426 90 559 90 Q626 90 680.5 115.5 Q735 141 774 187 Q813 233 834 297.5 Q855 362 855 441 L855 1024 L984 1024 L984 260 Q984 181 988 116 Q992 51 1000 0 L869 0 Z " />
<glyph glyph-name="partialdiff" unicode="&#x2202;" horiz-adv-x="1080" d="M879 846 Q881 869 882.5 894.5 Q884 920 884 949 Q884 1163 815.5 1268.5 Q747 1374 603 1374 Q481 1374 362 1292 L393 1421 Q510 1487 629 1487 Q819 1487 914.5 1355.5 Q1010 1224 1010 952 Q1010 737 946 496 Q914 376 863.5 280 Q813 184 746.5 116.5 Q680 49 599 12.5 Q518 -24 426 -24 Q345 -24 280.5 2.5 Q216 29 171.5 78.5 Q127 128 103.5 198.5 Q80 269 80 356 Q80 618 225 824 Q372 1032 606 1032 Q791 1032 875 846 L879 846 Z M862 698 Q800 919 612 919 Q435 919 323 749 Q212 578 212 361 Q212 298 227 247.5 Q242 197 271 161 Q300 125 341.5 105.5 Q383 86 436 86 Q516 86 586 130.5 Q656 175 711.5 256 Q767 337 805.5 449.5 Q844 562 862 698 Z " />
<glyph glyph-name="summation" unicode="&#x2211;" horiz-adv-x="1257" d="M44 -470 L44 -413 L742 490 L93 1365 L93 1434 L1161 1434 L1161 1311 L292 1311 L902 494 L252 -348 L1213 -348 L1213 -470 L44 -470 Z " />
<glyph glyph-name="product" unicode="&#x220f;" horiz-adv-x="1537" d="M1218 -470 L1218 1311 L322 1311 L322 -470 L189 -470 L189 1434 L1351 1434 L1351 -470 L1218 -470 Z " />
<glyph glyph-name="integral" unicode="&#x222b;" horiz-adv-x="1080" d="M895 1395 Q852 1423 783 1423 Q604 1423 604 1188 L604 -153 Q604 -221 584.5 -282 Q565 -343 526.5 -389.5 Q488 -436 431 -463.5 Q374 -491 299 -491 Q227 -491 185 -472 L185 -352 Q227 -379 296 -379 Q476 -379 476 -144 L476 1196 Q476 1267 495.5 1329 Q515 1391 553.5 1436.5 Q592 1482 649 1508.5 Q706 1535 781 1535 Q853 1535 895 1516 L895 1395 Z " />
<glyph glyph-name="ordfeminine" unicode="&#xaa;" horiz-adv-x="774" d="M558 717 L558 838 L554 838 Q516 771 452.5 735 Q389 699 311 699 Q258 699 215 714.5 Q172 730 142 758 Q112 786 95.5 823.5 Q79 861 79 906 Q79 1108 331 1142 L558 1173 Q558 1359 399 1359 Q266 1359 145 1270 L145 1382 Q264 1455 409 1455 Q535 1455 601 1385 Q667 1315 667 1181 L667 717 L558 717 Z M406 1064 Q351 1057 310 1046.5 Q269 1036 242 1018.5 Q215 1001 202 975 Q189 949 189 911 Q189 857 227.5 823.5 Q266 790 334 790 Q379 790 420.5 809.5 Q462 829 504 878 Q532 910 545 948.5 Q558 987 558 1029 L558 1085 L406 1064 Z " />
<glyph glyph-name="ordmasculine" unicode="&#xba;" horiz-adv-x="846" d="M428 696 Q347 696 281.5 723 Q216 750 170 799.5 Q124 849 99.5 918 Q75 987 75 1071 Q75 1161 101.5 1232.5 Q128 1304 176 1353 Q224 1402 291 1428 Q358 1454 439 1454 Q519 1454 583 1428 Q647 1402 692 1353.5 Q737 1305 761 1235.5 Q785 1166 785 1079 Q785 995 760 924.5 Q735 854 688.5 803 Q642 752 576 724 Q510 696 428 696 Z M434 1359 Q378 1359 333 1339 Q288 1319 256 1282 Q224 1245 206.5 1191.5 Q189 1138 189 1072 Q189 1008 205.5 956.5 Q222 905 253.5 868.5 Q285 832 330 812.5 Q375 793 432 793 Q488 793 532.5 812.5 Q577 832 607.5 868.5 Q638 905 654.5 957.5 Q671 1010 671 1076 Q671 1142 655 1194.5 Q639 1247 608 1283.5 Q577 1320 533.5 1339.5 Q490 1359 434 1359 Z " />
<glyph glyph-name="Omega" unicode="&#x2126;" horiz-adv-x="1546" d="M948 0 L948 118 Q1019 171 1084 236.5 Q1149 302 1199 383 Q1249 464 1278.5 562 Q1308 660 1308 777 Q1308 908 1269 1012 Q1230 1116 1160 1188.5 Q1090 1261 993.5 1300 Q897 1339 781 1339 Q660 1339 560 1299 Q460 1259 389 1185.5 Q318 1112 278.5 1009 Q239 906 239 779 Q239 665 267 568.5 Q295 472 344 390.5 Q393 309 459 241.5 Q525 174 601 118 L601 0 L102 0 L102 118 L452 118 Q382 167 318.5 232.5 Q255 298 206.5 380.5 Q158 463 129.5 563 Q101 663 101 782 Q101 938 150.5 1063 Q200 1188 288.5 1276 Q377 1364 500.5 1411 Q624 1458 772 1458 Q921 1458 1045 1413 Q1169 1368 1258 1281.5 Q1347 1195 1396.5 1070 Q1446 945 1446 785 Q1446 673 1419.5 575 Q1393 477 1346 393 Q1299 309 1235 240.5 Q1171 172 1096 119 L1446 119 L1446 0 L948 0 Z " />
<glyph glyph-name="ae" unicode="&#xe6;" horiz-adv-x="1711" d="M882 489 Q883 394 907 319 Q931 244 976 192.5 Q1021 141 1085.5 113.5 Q1150 86 1231 86 Q1407 86 1559 207 L1559 81 Q1414 -24 1203 -24 Q1067 -24 967.5 41.5 Q868 107 816 232 L812 232 Q673 -24 423 -24 Q347 -24 286.5 -3.5 Q226 17 184 55.5 Q142 94 120 148 Q98 202 98 268 Q98 414 194.5 496 Q291 578 482 588 L755 602 Q755 937 528 937 Q348 937 194 809 L194 946 Q349 1048 542 1048 Q774 1048 840 821 L844 821 Q964 1048 1213 1048 Q1312 1048 1388.5 1013.5 Q1465 979 1517.5 914.5 Q1570 850 1597 758.5 Q1624 667 1624 552 L1624 489 L882 489 Z M1492 601 Q1487 762 1415 849.5 Q1343 937 1213 937 Q1148 937 1092.5 914 Q1037 891 994.5 847.5 Q952 804 924 742 Q896 680 885 601 L1492 601 Z M755 490 L574 482 Q489 478 424 468 Q359 458 316 435.5 Q273 413 251 373.5 Q229 334 229 272 Q229 229 244 194.5 Q259 160 287.5 136 Q316 112 356 99 Q396 86 445 86 Q508 86 564.5 112 Q621 138 663.5 183 Q706 228 730.5 288.5 Q755 349 755 418 L755 490 Z " />
<glyph glyph-name="oslash" unicode="&#xf8;" horiz-adv-x="1174" d="M983 869 Q1081 729 1081 516 Q1081 393 1046 293.5 Q1011 194 946.5 123.5 Q882 53 790 14.5 Q698 -24 584 -24 Q391 -24 266 83 L110 -89 L39 -21 L198 155 Q93 296 93 503 Q93 631 129 732 Q165 833 232 903 Q299 973 393 1010.5 Q487 1048 603 1048 Q795 1048 917 942 L1084 1125 L1157 1058 L983 869 Z M833 851 Q744 937 594 937 Q509 937 440.5 907.5 Q372 878 324 822.5 Q276 767 250.5 686.5 Q225 606 225 505 Q225 355 288 250 L833 851 Z M349 173 Q444 86 591 86 Q677 86 744 115 Q811 144 856.5 198.5 Q902 253 926 332.5 Q950 412 950 512 Q950 664 894 770 L349 173 Z " />
<glyph glyph-name="questiondown" unicode="&#xbf;" horiz-adv-x="899" d="M591 628 Q600 602 607.5 561.5 Q615 521 615 480 Q615 429 599 387 Q583 345 556.5 308 Q530 271 496 237 Q462 203 425 168 Q395 140 367.5 110.5 Q340 81 319 48.5 Q298 16 285 -21 Q272 -58 272 -101 Q272 -153 290.5 -193 Q309 -233 341.5 -260.5 Q374 -288 418.5 -302.5 Q463 -317 514 -317 Q604 -317 680 -284.5 Q756 -252 822 -189 L822 -331 Q748 -382 669 -407 Q590 -432 501 -432 Q426 -432 361 -411.5 Q296 -391 247.5 -351 Q199 -311 171 -252.5 Q143 -194 143 -117 Q143 -61 158.5 -14.5 Q174 32 199.5 72 Q225 112 257 146.5 Q289 181 323 214 Q366 255 398.5 287.5 Q431 320 453 350.5 Q475 381 486.5 412 Q498 443 498 481 Q498 527 489 564.5 Q480 602 470 628 L591 628 Z M528 1044 Q548 1044 565 1036.5 Q582 1029 595 1016 Q608 1003 615.5 985.5 Q623 968 623 948 Q623 928 615.5 910.5 Q608 893 595 880.5 Q582 868 565 860.5 Q548 853 528 853 Q486 853 459 880.5 Q432 908 432 948 Q432 968 439.5 985.5 Q447 1003 460.5 1016 Q474 1029 491.5 1036.5 Q509 1044 528 1044 Z " />
<glyph glyph-name="uni00A0" unicode="&#xa0;" horiz-adv-x="561" d="" />
<glyph glyph-name="exclamdown" unicode="&#xa1;" horiz-adv-x="582" d="M292 853 Q252 853 223.5 880 Q195 907 195 948 Q195 968 202.5 985.5 Q210 1003 223.5 1016 Q237 1029 254.5 1036.5 Q272 1044 292 1044 Q312 1044 329 1036.5 Q346 1029 359 1016 Q372 1003 379.5 985.5 Q387 968 387 948 Q387 908 359.5 880.5 Q332 853 292 853 Z M224 -407 L239 623 L349 623 L363 -407 L224 -407 Z " />
<glyph glyph-name="logicalnot" unicode="&#xac;" horiz-adv-x="1366" d="M1037 200 L1037 619 L222 619 L222 728 L1146 728 L1146 200 L1037 200 Z " />
<glyph glyph-name="radical" unicode="&#x221a;" horiz-adv-x="1331" d="M712 -1 L617 -1 L298 763 L131 763 L131 864 L377 864 L657 177 L996 1516 L1096 1516 L712 -1 Z " />
<glyph glyph-name="florin" unicode="&#x192;" horiz-adv-x="1079" d="M931 1302 Q892 1323 843 1323 Q681 1323 654 1142 L622 923 L791 923 L791 813 L606 813 L512 136 Q482 -78 398 -178 Q314 -278 184 -278 Q167 -278 147 -275 Q127 -272 103 -264 L103 -151 Q140 -168 180 -168 Q341 -168 384 139 L478 813 L374 813 L374 923 L495 923 L535 1188 Q544 1248 571 1293.5 Q598 1339 637.5 1370.5 Q677 1402 727 1418 Q777 1434 832 1434 Q886 1434 931 1419 L931 1302 Z " />
<glyph glyph-name="approxequal" unicode="&#x2248;" horiz-adv-x="1367" d="M1140 933 Q1133 802 1066 730.5 Q999 659 884 659 Q780 659 651 755 Q548 831 483 831 Q343 831 334 664 L227 664 Q230 727 248.5 778 Q267 829 300 864.5 Q333 900 379.5 919.5 Q426 939 484 939 Q585 939 699 855 Q734 830 760.5 812.5 Q787 795 809 784.5 Q831 774 850.5 769.5 Q870 765 890 765 Q954 765 991.5 809 Q1029 853 1034 933 L1140 933 Z M1140 532 Q1133 401 1066 329.5 Q999 258 884 258 Q780 258 651 354 Q548 430 483 430 Q343 430 334 263 L227 263 Q230 326 248.5 377 Q267 428 300 463.5 Q333 499 379.5 518.5 Q426 538 484 538 Q585 538 699 454 Q734 429 760.5 411.5 Q787 394 809 383.5 Q831 373 850.5 368.5 Q870 364 890 364 Q954 364 991.5 408 Q1029 452 1034 532 L1140 532 Z " />
<glyph glyph-name="uni0394" unicode="&#x394;" horiz-adv-x="1304" d="M66 0 L66 67 L586 1434 L720 1434 L1239 67 L1239 0 L66 0 Z M687 1160 Q673 1199 664.5 1229 Q656 1259 651 1285 L647 1285 Q642 1262 633.5 1230 Q625 1198 611 1161 L231 121 L1071 121 L687 1160 Z " />
<glyph glyph-name="guillemotleft" unicode="&#xab;" horiz-adv-x="994" d="M398 200 L110 536 L398 880 L532 880 L245 536 L532 200 L398 200 Z M750 200 L462 536 L750 880 L884 880 L597 536 L884 200 L750 200 Z " />
<glyph glyph-name="guillemotright" unicode="&#xbb;" horiz-adv-x="994" d="M596 880 L884 544 L596 200 L462 200 L749 544 L462 880 L596 880 Z M244 880 L532 544 L244 200 L110 200 L397 544 L110 880 L244 880 Z " />
<glyph glyph-name="ellipsis" unicode="&#x2026;" horiz-adv-x="1432" d="M1195 -17 Q1155 -17 1128 10.5 Q1101 38 1101 79 Q1101 119 1128 147 Q1155 175 1195 175 Q1215 175 1232 167.5 Q1249 160 1262.5 146.5 Q1276 133 1283.5 116 Q1291 99 1291 79 Q1291 37 1263 10 Q1235 -17 1195 -17 Z M714 -17 Q674 -17 646 10.5 Q618 38 618 79 Q618 99 625.5 116 Q633 133 646.5 146.5 Q660 160 677.5 167.5 Q695 175 714 175 Q733 175 750.5 167 Q768 159 781 146 Q794 133 802 115.5 Q810 98 810 79 Q810 38 782 10.5 Q754 -17 714 -17 Z M234 -17 Q194 -17 167 10.5 Q140 38 140 79 Q140 119 167 147 Q194 175 234 175 Q254 175 271 167.5 Q288 160 301.5 146.5 Q315 133 322.5 116 Q330 99 330 79 Q330 38 302 10.5 Q274 -17 234 -17 Z " />
<glyph glyph-name="Agrave" unicode="&#xc0;" horiz-adv-x="1303" d="M1115 0 L957 424 L342 424 L188 0 L40 0 L586 1434 L720 1434 L1263 0 L1115 0 Z M678 1183 Q671 1202 663.5 1227 Q656 1252 651 1284 L647 1284 Q641 1252 633.5 1227 Q626 1202 619 1183 L387 545 L912 545 L678 1183 Z M675 1551 L420 1879 L556 1879 L783 1551 L675 1551 Z " />
<glyph glyph-name="Atilde" unicode="&#xc3;" horiz-adv-x="1303" d="M1115 0 L957 424 L342 424 L188 0 L40 0 L586 1434 L720 1434 L1263 0 L1115 0 Z M678 1183 Q671 1202 663.5 1227 Q656 1252 651 1284 L647 1284 Q641 1252 633.5 1227 Q626 1202 619 1183 L387 545 L912 545 L678 1183 Z M971 1788 Q971 1737 958.5 1695 Q946 1653 923 1622.5 Q900 1592 867 1575 Q834 1558 792 1558 Q724 1558 636 1622 Q566 1671 517 1671 Q422 1671 422 1543 L339 1543 Q339 1594 351.5 1636 Q364 1678 387 1708 Q410 1738 443 1754.5 Q476 1771 518 1771 Q586 1771 672 1709 Q743 1658 795 1658 Q836 1658 860.5 1690.5 Q885 1723 885 1788 L971 1788 Z " />
<glyph glyph-name="Otilde" unicode="&#xd5;" horiz-adv-x="1551" d="M770 -25 Q615 -25 491 31.5 Q367 88 280.5 186 Q194 284 147.5 416.5 Q101 549 101 701 Q101 869 147.5 1008.5 Q194 1148 283 1247.5 Q372 1347 501 1402.5 Q630 1458 795 1458 Q947 1458 1068 1403.5 Q1189 1349 1274 1252.5 Q1359 1156 1404.5 1024 Q1450 892 1450 737 Q1450 574 1405.5 434.5 Q1361 295 1274.5 193 Q1188 91 1061.5 33 Q935 -25 770 -25 Z M781 1337 Q651 1337 550.5 1287.5 Q450 1238 381 1153.5 Q312 1069 276.5 955.5 Q241 842 240 714 Q239 592 271.5 480.5 Q304 369 369.5 283.5 Q435 198 535 147 Q635 96 769 96 Q903 96 1004.5 142.5 Q1106 189 1174 271.5 Q1242 354 1276.5 468 Q1311 582 1311 717 Q1311 843 1280.5 956 Q1250 1069 1185.5 1153.5 Q1121 1238 1021 1287.5 Q921 1337 781 1337 Z M1097 1788 Q1097 1737 1084.5 1695 Q1072 1653 1049 1622.5 Q1026 1592 993 1575 Q960 1558 918 1558 Q850 1558 762 1622 Q692 1671 643 1671 Q548 1671 548 1543 L465 1543 Q465 1594 477.5 1636 Q490 1678 513 1708 Q536 1738 569 1754.5 Q602 1771 644 1771 Q712 1771 798 1709 Q869 1658 921 1658 Q962 1658 986.5 1690.5 Q1011 1723 1011 1788 L1097 1788 Z " />
<glyph glyph-name="OE" unicode="&#x152;" horiz-adv-x="1920" d="M1083 0 Q1035 -5 960.5 -14.5 Q886 -24 782 -24 Q622 -24 496 29.5 Q370 83 282 179 Q194 275 147.5 408 Q101 541 101 701 Q101 873 149.5 1012.5 Q198 1152 289 1251 Q380 1350 510.5 1404 Q641 1458 804 1458 Q845 1458 889 1455 Q933 1452 972 1448 Q1011 1444 1040.5 1440 Q1070 1436 1083 1434 L1762 1434 L1762 1312 L1197 1312 L1197 786 L1721 786 L1721 666 L1197 666 L1197 121 L1795 121 L1795 0 L1083 0 Z M1063 1309 Q920 1337 793 1337 Q668 1337 566 1290.5 Q464 1244 391.5 1161.5 Q319 1079 279.5 964.5 Q240 850 240 714 Q240 578 277.5 464.5 Q315 351 385.5 269 Q456 187 556.5 141.5 Q657 96 784 96 Q909 96 1063 128 L1063 1309 Z " />
<glyph glyph-name="oe" unicode="&#x153;" horiz-adv-x="1893" d="M1078 489 Q1079 394 1103.5 319 Q1128 244 1173 192.5 Q1218 141 1282 113.5 Q1346 86 1427 86 Q1603 86 1755 207 L1755 81 Q1608 -24 1401 -24 Q1119 -24 1013 242 L1009 242 Q886 -24 584 -24 Q470 -24 379 14 Q288 52 224.5 121.5 Q161 191 127 288 Q93 385 93 502 Q93 631 129.5 732.5 Q166 834 233 904 Q300 974 394 1011 Q488 1048 603 1048 Q755 1048 861 979.5 Q967 911 1016 782 L1020 782 Q1137 1048 1416 1048 Q1513 1048 1588 1013.5 Q1663 979 1714.5 915 Q1766 851 1793 759.5 Q1820 668 1820 554 L1820 489 L1078 489 Z M1687 601 Q1683 760 1610.5 848.5 Q1538 937 1410 937 Q1344 937 1287.5 913 Q1231 889 1188 845 Q1145 801 1117.5 739 Q1090 677 1081 601 L1687 601 Z M594 937 Q509 937 441 907.5 Q373 878 325 822 Q277 766 251 685.5 Q225 605 225 503 Q225 408 250.5 331 Q276 254 323.5 199.5 Q371 145 438.5 115.5 Q506 86 591 86 Q677 86 743.5 114.5 Q810 143 856 197.5 Q902 252 925.5 331 Q949 410 949 510 Q949 613 925.5 692.5 Q902 772 856.5 826.5 Q811 881 745 909 Q679 937 594 937 Z " />
<glyph glyph-name="endash" unicode="&#x2013;" horiz-adv-x="1024" d="M0 530 L0 640 L1024 640 L1024 530 L0 530 Z " />
<glyph glyph-name="emdash" unicode="&#x2014;" horiz-adv-x="2048" d="M0 530 L0 640 L2048 640 L2048 530 L0 530 Z " />
<glyph glyph-name="quotedblleft" unicode="&#x201c;" horiz-adv-x="729" d="M511 998 L385 998 L533 1446 L629 1446 L511 998 Z M237 998 L109 998 L256 1446 L353 1446 L237 998 Z " />
<glyph glyph-name="quotedblright" unicode="&#x201d;" horiz-adv-x="729" d="M484 998 L387 998 L502 1446 L631 1446 L484 998 Z M207 998 L111 998 L229 1446 L355 1446 L207 998 Z " />
<glyph glyph-name="quoteleft" unicode="&#x2018;" horiz-adv-x="453" d="M237 998 L109 998 L256 1446 L353 1446 L237 998 Z " />
<glyph glyph-name="quoteright" unicode="&#x2019;" horiz-adv-x="453" d="M207 998 L111 998 L229 1446 L355 1446 L207 998 Z " />
<glyph glyph-name="divide" unicode="&#xf7;" horiz-adv-x="1366" d="M688 867 Q650 867 623.5 893.5 Q597 920 597 958 Q597 997 623 1024 Q649 1051 688 1051 Q730 1051 753.5 1026.5 Q777 1002 777 959 Q777 919 751 893 Q725 867 688 867 Z M222 542 L222 651 L1146 651 L1146 542 L222 542 Z M686 143 Q667 143 650 150 Q633 157 620.5 169 Q608 181 601 197.5 Q594 214 594 233 Q594 272 620.5 299.5 Q647 327 686 327 Q728 327 751 302.5 Q774 278 774 234 Q774 215 767.5 198.5 Q761 182 749 169.5 Q737 157 721 150 Q705 143 686 143 Z " />
<glyph glyph-name="lozenge" unicode="&#x25ca;" horiz-adv-x="1165" d="M616 0 L549 0 L103 715 L549 1434 L616 1434 L1064 717 L616 0 Z M583 1313 L218 717 L583 118 L949 717 L583 1313 Z " />
<glyph glyph-name="ydieresis" unicode="&#xff;" horiz-adv-x="959" d="M462 -186 Q402 -336 324 -408.5 Q246 -481 135 -481 Q80 -481 42 -468 L42 -348 Q64 -356 86.5 -360 Q109 -364 132 -364 Q195 -364 241.5 -324.5 Q288 -285 322 -205 L411 5 L17 1024 L159 1024 L452 213 Q458 197 463.5 176.5 Q469 156 474 136 L479 136 Q484 153 488.5 170.5 Q493 188 501 209 L812 1024 L947 1024 L462 -186 Z M662 1203 Q629 1203 603.5 1226.5 Q578 1250 578 1288 Q578 1325 602.5 1348.5 Q627 1372 660 1372 Q696 1372 722 1348 Q748 1324 748 1288 Q748 1252 723.5 1227.5 Q699 1203 662 1203 Z M304 1203 Q286 1203 270.5 1209.5 Q255 1216 243 1227.5 Q231 1239 224 1254.5 Q217 1270 217 1288 Q217 1325 242 1348.5 Q267 1372 301 1372 Q319 1372 335 1365.5 Q351 1359 363 1348 Q375 1337 382 1321.5 Q389 1306 389 1288 Q389 1252 364 1227.5 Q339 1203 304 1203 Z " />
<glyph glyph-name="Ydieresis" unicode="&#x178;" horiz-adv-x="1119" d="M617 537 L617 0 L484 0 L484 534 L34 1434 L185 1434 L513 764 Q519 752 529 728 Q539 704 553 667 L556 667 Q562 685 573 709 Q584 733 600 763 L943 1434 L1085 1434 L617 537 Z M732 1551 Q699 1551 673.5 1574.5 Q648 1598 648 1636 Q648 1673 672.5 1696.5 Q697 1720 730 1720 Q766 1720 792 1696 Q818 1672 818 1636 Q818 1600 793.5 1575.5 Q769 1551 732 1551 Z M374 1551 Q356 1551 340.5 1557.5 Q325 1564 313 1575.5 Q301 1587 294 1602.5 Q287 1618 287 1636 Q287 1673 312 1696.5 Q337 1720 371 1720 Q389 1720 405 1713.5 Q421 1707 433 1696 Q445 1685 452 1669.5 Q459 1654 459 1636 Q459 1600 434 1575.5 Q409 1551 374 1551 Z " />
<glyph glyph-name="&amp;#x2044;" unicode="&#x2044;" horiz-adv-x="300" d="M-206 0 L-327 0 L533 1434 L653 1434 L-206 0 Z " />
<glyph glyph-name="&amp;#x2215;" unicode="&#x2215;" horiz-adv-x="300" d="M-206 0 L-327 0 L533 1434 L653 1434 L-206 0 Z " />
<glyph glyph-name="Euro" unicode="&#x20ac;" horiz-adv-x="1080" d="M988 51 Q856 -24 710 -24 Q612 -24 531 9 Q450 42 388 106.5 Q326 171 284.5 267.5 Q243 364 223 491 L90 491 L90 603 L212 603 Q210 623 209 645 Q208 667 208 692 Q208 751 214 814 L90 814 L90 926 L230 926 Q253 1051 300.5 1150 Q348 1249 415 1317.5 Q482 1386 567 1422 Q652 1458 749 1458 Q880 1458 988 1403 L988 1271 Q873 1346 739 1346 Q672 1346 611.5 1317.5 Q551 1289 501.5 1235 Q452 1181 416 1103 Q380 1025 360 926 L880 926 L880 814 L344 814 Q342 793 341 768.5 Q340 744 340 715 Q340 687 340.5 658.5 Q341 630 343 603 L880 603 L880 491 L357 491 Q390 290 485 188.5 Q580 87 721 87 Q850 87 988 177 L988 51 Z " />
<glyph glyph-name="guilsinglleft" unicode="&#x2039;" horiz-adv-x="641" d="M397 200 L109 536 L397 880 L531 880 L244 536 L531 200 L397 200 Z " />
<glyph glyph-name="guilsinglright" unicode="&#x203a;" horiz-adv-x="641" d="M110 200 L397 536 L110 880 L244 880 L532 536 L244 200 L110 200 Z " />
<glyph glyph-name="fi" unicode="&#xfb01;" horiz-adv-x="1060" d="M833 1283 Q795 1283 768.5 1309 Q742 1335 742 1375 Q742 1414 769 1439.5 Q796 1465 833 1465 Q852 1465 869 1458.5 Q886 1452 899 1440 Q912 1428 919.5 1411.5 Q927 1395 927 1375 Q927 1356 919.5 1339 Q912 1322 899 1309.5 Q886 1297 869 1290 Q852 1283 833 1283 Z M769 0 L769 1024 L897 1024 L897 0 L769 0 Z M642 1395 Q599 1423 531 1423 Q351 1423 351 1188 L351 1024 L606 1024 L606 912 L351 912 L351 0 L223 0 L223 912 L44 912 L44 1024 L223 1024 L223 1196 Q223 1278 247 1341.5 Q271 1405 312.5 1448 Q354 1491 409.5 1513 Q465 1535 528 1535 Q600 1535 642 1516 L642 1395 Z " />
<glyph glyph-name="fl" unicode="&#xfb02;" horiz-adv-x="1060" d="M642 1395 Q599 1423 531 1423 Q351 1423 351 1188 L351 1024 L606 1024 L606 912 L351 912 L351 0 L223 0 L223 912 L44 912 L44 1024 L223 1024 L223 1196 Q223 1278 247 1341.5 Q271 1405 312.5 1448 Q354 1491 409.5 1513 Q465 1535 528 1535 Q600 1535 642 1516 L642 1395 Z M771 0 L771 1516 L898 1516 L898 0 L771 0 Z " />
<glyph glyph-name="daggerdbl" unicode="&#x2021;" horiz-adv-x="762" d="M716 519 L419 544 L454 229 L318 229 L353 544 L46 519 L46 649 L323 624 L371 831 L323 1038 L46 1013 L46 1143 L353 1118 L318 1433 L454 1433 L419 1118 L716 1143 L716 1013 L449 1038 L401 831 L449 624 L716 649 L716 519 Z " />
<glyph glyph-name="periodcentered" unicode="&#xb7;" horiz-adv-x="449" d="M224 608 Q184 608 156 636 Q128 664 128 704 Q128 745 155.5 773 Q183 801 224 801 Q244 801 261.5 793.5 Q279 786 292 773.5 Q305 761 313 743 Q321 725 321 704 Q321 684 313 666.5 Q305 649 292 636 Q279 623 261.5 615.5 Q244 608 224 608 Z " />
<glyph glyph-name="quotesinglbase" unicode="&#x201a;" horiz-adv-x="453" d="M178 -226 L83 -226 L200 218 L326 218 L178 -226 Z " />
<glyph glyph-name="quotedblbase" unicode="&#x201e;" horiz-adv-x="729" d="M455 -228 L358 -228 L474 218 L602 218 L455 -228 Z M178 -228 L83 -228 L200 218 L326 218 L178 -228 Z " />
<glyph glyph-name="perthousand" unicode="&#x2030;" horiz-adv-x="2451" d="M410 722 Q334 722 273 748 Q212 774 169.5 821.5 Q127 869 104.5 935 Q82 1001 82 1082 Q82 1171 107 1241 Q132 1311 177 1359.5 Q222 1408 285 1433.5 Q348 1459 425 1459 Q500 1459 560 1434 Q620 1409 662 1362 Q704 1315 726.5 1247.5 Q749 1180 749 1094 Q749 1013 724.5 945 Q700 877 656 827.5 Q612 778 549.5 750 Q487 722 410 722 Z M421 1363 Q369 1363 326.5 1344 Q284 1325 255 1289.5 Q226 1254 210 1202.5 Q194 1151 194 1086 Q194 961 252.5 889 Q311 817 416 817 Q469 817 510 836.5 Q551 856 579 892 Q607 928 622 979 Q637 1030 637 1093 Q637 1224 579 1293.5 Q521 1363 421 1363 Z M431 -21 L310 -21 L1202 1433 L1322 1433 L431 -21 Z M2039 -23 Q1963 -23 1902.5 3 Q1842 29 1799.5 76.5 Q1757 124 1734.5 190.5 Q1712 257 1712 337 Q1712 425 1737 495 Q1762 565 1807 614 Q1852 663 1915.5 689 Q1979 715 2055 715 Q2130 715 2190 689.5 Q2250 664 2291.5 617 Q2333 570 2355.5 502 Q2378 434 2378 348 Q2378 267 2354 199 Q2330 131 2286 81.5 Q2242 32 2179 4.5 Q2116 -23 2039 -23 Z M2051 617 Q1945 617 1885 544.5 Q1825 472 1825 340 Q1825 213 1883.5 142.5 Q1942 72 2045 72 Q2151 72 2209.5 145.5 Q2268 219 2268 348 Q2268 480 2209.5 548.5 Q2151 617 2051 617 Z M1229 -23 Q1154 -23 1093 3 Q1032 29 989.5 76 Q947 123 924 189.5 Q901 256 901 337 Q901 425 926 495 Q951 565 996 614 Q1041 663 1104.5 689 Q1168 715 1244 715 Q1319 715 1379 690 Q1439 665 1481 618 Q1523 571 1545.5 502.5 Q1568 434 1568 348 Q1568 267 1543.5 199 Q1519 131 1475 81.5 Q1431 32 1368.5 4.5 Q1306 -23 1229 -23 Z M1240 617 Q1188 617 1146 598 Q1104 579 1074.5 543.5 Q1045 508 1029 456.5 Q1013 405 1013 340 Q1013 278 1028.5 228 Q1044 178 1072.5 143.5 Q1101 109 1142 90.5 Q1183 72 1235 72 Q1287 72 1328 91 Q1369 110 1397.5 146 Q1426 182 1441.5 233 Q1457 284 1457 348 Q1457 480 1399 548.5 Q1341 617 1240 617 Z " />
<glyph glyph-name="Acircumflex" unicode="&#xc2;" horiz-adv-x="1303" d="M1115 0 L957 424 L342 424 L188 0 L40 0 L586 1434 L720 1434 L1263 0 L1115 0 Z M678 1183 Q671 1202 663.5 1227 Q656 1252 651 1284 L647 1284 Q641 1252 633.5 1227 Q626 1202 619 1183 L387 545 L912 545 L678 1183 Z M802 1551 L641 1785 L479 1551 L381 1551 L599 1885 L688 1885 L906 1551 L802 1551 Z " />
<glyph glyph-name="Ecircumflex" unicode="&#xca;" horiz-adv-x="1030" d="M186 0 L186 1434 L885 1434 L885 1312 L319 1312 L319 786 L843 786 L843 666 L319 666 L319 121 L917 121 L917 0 L186 0 Z M702 1551 L541 1785 L379 1551 L281 1551 L499 1885 L588 1885 L806 1551 L702 1551 Z " />
<glyph glyph-name="Aacute" unicode="&#xc1;" horiz-adv-x="1303" d="M1115 0 L957 424 L342 424 L188 0 L40 0 L586 1434 L720 1434 L1263 0 L1115 0 Z M678 1183 Q671 1202 663.5 1227 Q656 1252 651 1284 L647 1284 Q641 1252 633.5 1227 Q626 1202 619 1183 L387 545 L912 545 L678 1183 Z M584 1551 L476 1551 L704 1879 L839 1879 L584 1551 Z " />
<glyph glyph-name="Edieresis" unicode="&#xcb;" horiz-adv-x="1030" d="M186 0 L186 1434 L885 1434 L885 1312 L319 1312 L319 786 L843 786 L843 666 L319 666 L319 121 L917 121 L917 0 L186 0 Z M731 1551 Q698 1551 672.5 1574.5 Q647 1598 647 1636 Q647 1673 671.5 1696.5 Q696 1720 729 1720 Q765 1720 791 1696 Q817 1672 817 1636 Q817 1600 792.5 1575.5 Q768 1551 731 1551 Z M373 1551 Q355 1551 339.5 1557.5 Q324 1564 312 1575.5 Q300 1587 293 1602.5 Q286 1618 286 1636 Q286 1673 311 1696.5 Q336 1720 370 1720 Q388 1720 404 1713.5 Q420 1707 432 1696 Q444 1685 451 1669.5 Q458 1654 458 1636 Q458 1600 433 1575.5 Q408 1551 373 1551 Z " />
<glyph glyph-name="Egrave" unicode="&#xc8;" horiz-adv-x="1030" d="M186 0 L186 1434 L885 1434 L885 1312 L319 1312 L319 786 L843 786 L843 666 L319 666 L319 121 L917 121 L917 0 L186 0 Z M566 1551 L311 1879 L447 1879 L674 1551 L566 1551 Z " />
<glyph glyph-name="Iacute" unicode="&#xcd;" horiz-adv-x="506" d="M319 0 L186 0 L186 1434 L319 1434 L319 0 Z M253 1551 L145 1551 L373 1879 L508 1879 L253 1551 Z " />
<glyph glyph-name="Icircumflex" unicode="&#xce;" horiz-adv-x="506" d="M319 0 L186 0 L186 1434 L319 1434 L319 0 Z M414 1551 L253 1785 L91 1551 L-7 1551 L211 1885 L300 1885 L518 1551 L414 1551 Z " />
<glyph glyph-name="Idieresis" unicode="&#xcf;" horiz-adv-x="506" d="M319 0 L186 0 L186 1434 L319 1434 L319 0 Z M434 1551 Q401 1551 375.5 1574.5 Q350 1598 350 1636 Q350 1673 374.5 1696.5 Q399 1720 432 1720 Q468 1720 494 1696 Q520 1672 520 1636 Q520 1600 495.5 1575.5 Q471 1551 434 1551 Z M76 1551 Q58 1551 42.5 1557.5 Q27 1564 15 1575.5 Q3 1587 -4 1602.5 Q-11 1618 -11 1636 Q-11 1673 14 1696.5 Q39 1720 73 1720 Q91 1720 107 1713.5 Q123 1707 135 1696 Q147 1685 154 1669.5 Q161 1654 161 1636 Q161 1600 136 1575.5 Q111 1551 76 1551 Z " />
<glyph glyph-name="Igrave" unicode="&#xcc;" horiz-adv-x="506" d="M319 0 L186 0 L186 1434 L319 1434 L319 0 Z M251 1551 L-4 1879 L132 1879 L359 1551 L251 1551 Z " />
<glyph glyph-name="Oacute" unicode="&#xd3;" horiz-adv-x="1551" d="M770 -25 Q615 -25 491 31.5 Q367 88 280.5 186 Q194 284 147.5 416.5 Q101 549 101 701 Q101 869 147.5 1008.5 Q194 1148 283 1247.5 Q372 1347 501 1402.5 Q630 1458 795 1458 Q947 1458 1068 1403.5 Q1189 1349 1274 1252.5 Q1359 1156 1404.5 1024 Q1450 892 1450 737 Q1450 574 1405.5 434.5 Q1361 295 1274.5 193 Q1188 91 1061.5 33 Q935 -25 770 -25 Z M781 1337 Q651 1337 550.5 1287.5 Q450 1238 381 1153.5 Q312 1069 276.5 955.5 Q241 842 240 714 Q239 592 271.5 480.5 Q304 369 369.5 283.5 Q435 198 535 147 Q635 96 769 96 Q903 96 1004.5 142.5 Q1106 189 1174 271.5 Q1242 354 1276.5 468 Q1311 582 1311 717 Q1311 843 1280.5 956 Q1250 1069 1185.5 1153.5 Q1121 1238 1021 1287.5 Q921 1337 781 1337 Z M748 1551 L640 1551 L868 1879 L1003 1879 L748 1551 Z " />
<glyph glyph-name="Ocircumflex" unicode="&#xd4;" horiz-adv-x="1551" d="M770 -25 Q615 -25 491 31.5 Q367 88 280.5 186 Q194 284 147.5 416.5 Q101 549 101 701 Q101 869 147.5 1008.5 Q194 1148 283 1247.5 Q372 1347 501 1402.5 Q630 1458 795 1458 Q947 1458 1068 1403.5 Q1189 1349 1274 1252.5 Q1359 1156 1404.5 1024 Q1450 892 1450 737 Q1450 574 1405.5 434.5 Q1361 295 1274.5 193 Q1188 91 1061.5 33 Q935 -25 770 -25 Z M781 1337 Q651 1337 550.5 1287.5 Q450 1238 381 1153.5 Q312 1069 276.5 955.5 Q241 842 240 714 Q239 592 271.5 480.5 Q304 369 369.5 283.5 Q435 198 535 147 Q635 96 769 96 Q903 96 1004.5 142.5 Q1106 189 1174 271.5 Q1242 354 1276.5 468 Q1311 582 1311 717 Q1311 843 1280.5 956 Q1250 1069 1185.5 1153.5 Q1121 1238 1021 1287.5 Q921 1337 781 1337 Z M938 1551 L777 1785 L615 1551 L517 1551 L735 1885 L824 1885 L1042 1551 L938 1551 Z " />
<glyph glyph-name="Ograve" unicode="&#xd2;" horiz-adv-x="1551" d="M770 -25 Q615 -25 491 31.5 Q367 88 280.5 186 Q194 284 147.5 416.5 Q101 549 101 701 Q101 869 147.5 1008.5 Q194 1148 283 1247.5 Q372 1347 501 1402.5 Q630 1458 795 1458 Q947 1458 1068 1403.5 Q1189 1349 1274 1252.5 Q1359 1156 1404.5 1024 Q1450 892 1450 737 Q1450 574 1405.5 434.5 Q1361 295 1274.5 193 Q1188 91 1061.5 33 Q935 -25 770 -25 Z M781 1337 Q651 1337 550.5 1287.5 Q450 1238 381 1153.5 Q312 1069 276.5 955.5 Q241 842 240 714 Q239 592 271.5 480.5 Q304 369 369.5 283.5 Q435 198 535 147 Q635 96 769 96 Q903 96 1004.5 142.5 Q1106 189 1174 271.5 Q1242 354 1276.5 468 Q1311 582 1311 717 Q1311 843 1280.5 956 Q1250 1069 1185.5 1153.5 Q1121 1238 1021 1287.5 Q921 1337 781 1337 Z M809 1551 L554 1879 L690 1879 L917 1551 L809 1551 Z " />
<glyph glyph-name="Uacute" unicode="&#xda;" horiz-adv-x="1367" d="M1199 576 Q1199 -25 671 -25 Q168 -25 168 554 L168 1434 L301 1434 L301 566 Q301 330 396 213 Q491 96 690 96 Q1066 96 1066 552 L1066 1434 L1199 1434 L1199 576 Z M680 1551 L572 1551 L800 1879 L935 1879 L680 1551 Z " />
<glyph glyph-name="Ucircumflex" unicode="&#xdb;" horiz-adv-x="1367" d="M1199 576 Q1199 -25 671 -25 Q168 -25 168 554 L168 1434 L301 1434 L301 566 Q301 330 396 213 Q491 96 690 96 Q1066 96 1066 552 L1066 1434 L1199 1434 L1199 576 Z M862 1551 L701 1785 L539 1551 L441 1551 L659 1885 L748 1885 L966 1551 L862 1551 Z " />
<glyph glyph-name="Ugrave" unicode="&#xd9;" horiz-adv-x="1367" d="M1199 576 Q1199 -25 671 -25 Q168 -25 168 554 L168 1434 L301 1434 L301 566 Q301 330 396 213 Q491 96 690 96 Q1066 96 1066 552 L1066 1434 L1199 1434 L1199 576 Z M693 1551 L438 1879 L574 1879 L801 1551 L693 1551 Z " />
<glyph glyph-name="dotlessi" unicode="&#x131;" horiz-adv-x="458" d="M165 0 L165 1024 L293 1024 L293 0 L165 0 Z " />
<glyph glyph-name="circumflex" unicode="&#x2c6;" horiz-adv-x="763" d="M531 1203 L370 1437 L208 1203 L110 1203 L328 1537 L417 1537 L635 1203 L531 1203 Z " />
<glyph glyph-name="tilde" unicode="&#x2dc;" horiz-adv-x="669" d="M670 1440 Q670 1389 657.5 1347 Q645 1305 622 1274.5 Q599 1244 566 1227 Q533 1210 491 1210 Q423 1210 335 1274 Q265 1323 216 1323 Q121 1323 121 1195 L38 1195 Q38 1246 50.5 1288 Q63 1330 86 1360 Q109 1390 142 1406.5 Q175 1423 217 1423 Q285 1423 371 1361 Q442 1310 494 1310 Q535 1310 559.5 1342.5 Q584 1375 584 1440 L670 1440 Z " />
<glyph glyph-name="uni02C9" unicode="&#x2c9;" horiz-adv-x="635" d="M62 1203 L62 1299 L570 1299 L570 1203 L62 1203 Z " />
<glyph glyph-name="breve" unicode="&#x2d8;" horiz-adv-x="616" d="M579 1446 Q572 1391 549 1346.5 Q526 1302 490 1270 Q454 1238 406.5 1220.5 Q359 1203 304 1203 Q247 1203 199.5 1220 Q152 1237 117 1268.5 Q82 1300 61 1345 Q40 1390 37 1446 L129 1446 Q135 1370 181 1329.5 Q227 1289 306 1289 Q340 1289 370 1300.5 Q400 1312 424 1332.5 Q448 1353 463.5 1382 Q479 1411 484 1446 L579 1446 Z " />
<glyph glyph-name="dotaccent" unicode="&#x2d9;" horiz-adv-x="388" d="M194 1203 Q176 1203 160 1209.5 Q144 1216 132 1228 Q120 1240 113 1256 Q106 1272 106 1291 Q106 1309 113 1325 Q120 1341 132 1352 Q144 1363 159.5 1369.5 Q175 1376 193 1376 Q229 1376 255.5 1352.5 Q282 1329 282 1291 Q282 1254 256.5 1228.5 Q231 1203 194 1203 Z " />
<glyph glyph-name="ring" unicode="&#x2da;" horiz-adv-x="584" d="M290 1182 Q250 1182 214 1195 Q178 1208 150 1232 Q122 1256 105.5 1291 Q89 1326 89 1369 Q89 1411 105 1446 Q121 1481 149 1506.5 Q177 1532 214 1546 Q251 1560 294 1560 Q333 1560 369.5 1547 Q406 1534 434 1509.5 Q462 1485 479 1450 Q496 1415 496 1372 Q496 1331 479.5 1296.5 Q463 1262 434.5 1236.5 Q406 1211 369 1196.5 Q332 1182 290 1182 Z M290 1486 Q237 1486 204 1454 Q171 1422 171 1371 Q171 1316 203 1286 Q235 1256 290 1256 Q317 1256 339.5 1264.5 Q362 1273 378.5 1288.5 Q395 1304 404 1325 Q413 1346 413 1371 Q413 1424 378 1455 Q343 1486 290 1486 Z " />
<glyph glyph-name="cedilla" unicode="&#xb8;" horiz-adv-x="416" d="M391 -260 Q391 -433 126 -433 Q89 -433 54 -430 L54 -348 Q101 -354 132 -354 Q282 -354 282 -263 Q282 -181 145 -181 Q134 -181 121.5 -182 Q109 -183 93 -185 L93 0 L183 0 L183 -111 Q283 -111 337 -149 Q391 -187 391 -260 Z " />
<glyph glyph-name="hungarumlaut" unicode="&#x2dd;" horiz-adv-x="648" d="M383 1203 L298 1203 L508 1520 L629 1520 L383 1203 Z M151 1203 L67 1203 L275 1520 L395 1520 L151 1203 Z " />
<glyph glyph-name="ogonek" unicode="&#x2db;" horiz-adv-x="370" d="M321 0 Q161 -139 161 -232 Q161 -311 237 -311 Q272 -311 305 -296 L305 -384 Q267 -400 217 -400 Q144 -400 99.5 -360 Q55 -320 55 -248 Q55 -190 96 -125.5 Q137 -61 218 0 L321 0 Z " />
<glyph glyph-name="caron" unicode="&#x2c7;" horiz-adv-x="763" d="M431 1203 L342 1203 L124 1536 L225 1536 L386 1301 L548 1536 L648 1536 L431 1203 Z " />
<glyph glyph-name="Lslash" unicode="&#x141;" horiz-adv-x="951" d="M186 0 L186 558 L51 475 L51 599 L186 682 L186 1434 L319 1434 L319 764 L666 977 L666 852 L319 640 L319 121 L895 121 L895 0 L186 0 Z " />
<glyph glyph-name="lslash" unicode="&#x142;" horiz-adv-x="531" d="M326 694 L326 0 L198 0 L198 604 L23 476 L23 603 L198 731 L198 1516 L326 1516 L326 821 L504 950 L504 823 L326 694 Z " />
<glyph glyph-name="Scaron" unicode="&#x160;" horiz-adv-x="1053" d="M130 210 Q166 183 209.5 161.5 Q253 140 298.5 125.5 Q344 111 390 103.5 Q436 96 478 96 Q641 96 722 159 Q803 222 803 340 Q803 397 784 439.5 Q765 482 725 519 Q685 556 624 592.5 Q563 629 480 675 Q388 725 322.5 769.5 Q257 814 215.5 860.5 Q174 907 154.5 961 Q135 1015 135 1084 Q135 1171 172 1240 Q209 1309 272 1357.5 Q335 1406 419.5 1432 Q504 1458 600 1458 Q769 1458 883 1411 L883 1264 Q756 1337 585 1337 Q521 1337 464.5 1321.5 Q408 1306 365.5 1276 Q323 1246 298.5 1201.5 Q274 1157 274 1098 Q274 1042 290.5 1001.5 Q307 961 343.5 925 Q380 889 439.5 853.5 Q499 818 585 772 Q675 724 742 678.5 Q809 633 853.5 583.5 Q898 534 920 478.5 Q942 423 942 355 Q942 261 907 189.5 Q872 118 809 71 Q746 24 659 0 Q572 -24 468 -24 Q434 -24 387 -18.5 Q340 -13 292 -2.5 Q244 8 200.5 22.5 Q157 37 130 54 L130 210 Z M589 1551 L500 1551 L282 1884 L383 1884 L544 1649 L706 1884 L806 1884 L589 1551 Z " />
<glyph glyph-name="scaron" unicode="&#x161;" horiz-adv-x="832" d="M107 184 Q136 161 170 143 Q204 125 240 112 Q276 99 312.5 92.5 Q349 86 382 86 Q610 86 610 257 Q610 296 594 324.5 Q578 353 548 376.5 Q518 400 476 420 Q434 440 381 462 Q310 491 259 521 Q208 551 175 586.5 Q142 622 126 664.5 Q110 707 110 761 Q110 829 139.5 882 Q169 935 219 972 Q269 1009 334.5 1028.5 Q400 1048 472 1048 Q605 1048 704 998 L704 863 Q589 937 456 937 Q408 937 368.5 925 Q329 913 301 891 Q273 869 257.5 838.5 Q242 808 242 771 Q242 733 254 704.5 Q266 676 291.5 653 Q317 630 357.5 609 Q398 588 456 564 Q530 534 584 504.5 Q638 475 673 440.5 Q708 406 725 363.5 Q742 321 742 265 Q742 196 713.5 142 Q685 88 634.5 51 Q584 14 516 -5 Q448 -24 368 -24 Q213 -24 107 41 L107 184 Z M456 1203 L367 1203 L149 1536 L250 1536 L411 1301 L573 1536 L673 1536 L456 1203 Z " />
<glyph glyph-name="Zcaron" unicode="&#x17d;" horiz-adv-x="1167" d="M249 121 L1088 121 L1088 0 L49 0 L49 39 L900 1312 L117 1312 L117 1434 L1105 1434 L1105 1400 L249 121 Z M667 1551 L578 1551 L360 1884 L461 1884 L622 1649 L784 1884 L884 1884 L667 1551 Z " />
<glyph glyph-name="zcaron" unicode="&#x17e;" horiz-adv-x="938" d="M240 112 L871 112 L871 0 L45 0 L45 43 L688 912 L98 912 L98 1024 L886 1024 L886 988 L240 112 Z M549 1203 L460 1203 L242 1536 L343 1536 L504 1301 L666 1536 L766 1536 L549 1203 Z " />
<glyph glyph-name="brokenbar" unicode="&#xa6;" horiz-adv-x="476" d="M178 715 L178 1566 L299 1566 L299 715 L178 715 Z M178 -481 L178 370 L299 370 L299 -481 L178 -481 Z " />
<glyph glyph-name="Eth" unicode="&#xd0;" horiz-adv-x="1408" d="M31 776 L186 776 L186 1434 L563 1434 Q931 1434 1119 1257.5 Q1307 1081 1307 736 Q1307 570 1254.5 434 Q1202 298 1103 201.5 Q1004 105 863 52.5 Q722 0 545 0 L186 0 L186 654 L31 654 L31 776 Z M319 1312 L319 776 L689 776 L689 654 L319 654 L319 121 L539 121 Q687 121 803.5 161 Q920 201 1001 278.5 Q1082 356 1124.5 470 Q1167 584 1167 732 Q1167 1312 554 1312 L319 1312 Z " />
<glyph glyph-name="eth" unicode="&#xf0;" horiz-adv-x="1117" d="M797 966 Q700 1139 589 1247 L290 1097 L247 1181 L520 1313 Q397 1423 262 1514 L447 1514 Q486 1486 530.5 1450 Q575 1414 626 1369 L921 1515 L966 1433 L694 1300 Q775 1219 837 1128 Q899 1037 940 937.5 Q981 838 1002 732.5 Q1023 627 1023 518 Q1023 401 991 302 Q959 203 899 130.5 Q839 58 752.5 17.5 Q666 -23 557 -23 Q446 -23 359.5 14 Q273 51 213.5 119.5 Q154 188 123.5 285.5 Q93 383 93 503 Q93 623 126.5 723 Q160 823 222 895 Q284 967 371 1007 Q458 1047 566 1047 Q702 1047 793 962 L797 966 Z M569 937 Q491 937 427.5 906.5 Q364 876 319 819.5 Q274 763 249.5 683 Q225 603 225 505 Q225 408 248 330.5 Q271 253 314.5 198.5 Q358 144 420.5 115 Q483 86 563 86 Q640 86 700.5 116.5 Q761 147 803.5 203 Q846 259 868.5 337 Q891 415 891 511 Q891 937 569 937 Z " />
<glyph glyph-name="Yacute" unicode="&#xdd;" horiz-adv-x="1119" d="M617 537 L617 0 L484 0 L484 534 L34 1434 L185 1434 L513 764 Q519 752 529 728 Q539 704 553 667 L556 667 Q562 685 573 709 Q584 733 600 763 L943 1434 L1085 1434 L617 537 Z M545 1551 L437 1551 L665 1879 L800 1879 L545 1551 Z " />
<glyph glyph-name="yacute" unicode="&#xfd;" horiz-adv-x="959" d="M462 -186 Q402 -336 324 -408.5 Q246 -481 135 -481 Q80 -481 42 -468 L42 -348 Q64 -356 86.5 -360 Q109 -364 132 -364 Q195 -364 241.5 -324.5 Q288 -285 322 -205 L411 5 L17 1024 L159 1024 L452 213 Q458 197 463.5 176.5 Q469 156 474 136 L479 136 Q484 153 488.5 170.5 Q493 188 501 209 L812 1024 L947 1024 L462 -186 Z M473 1203 L365 1203 L593 1531 L728 1531 L473 1203 Z " />
<glyph glyph-name="Thorn" unicode="&#xde;" horiz-adv-x="1130" d="M319 326 L319 0 L186 0 L186 1434 L319 1434 L319 1202 L556 1202 Q787 1202 906 1096 Q1025 990 1025 786 Q1025 675 985.5 589.5 Q946 504 877 445.5 Q808 387 714.5 356.5 Q621 326 513 326 L319 326 Z M319 1080 L319 448 L509 448 Q692 448 789 532.5 Q886 617 886 775 Q886 1080 532 1080 L319 1080 Z " />
<glyph glyph-name="thorn" unicode="&#xfe;" horiz-adv-x="1175" d="M293 165 L293 -471 L165 -471 L165 1516 L293 1516 L293 828 L297 828 Q354 935 449.5 991.5 Q545 1048 665 1048 Q763 1048 840.5 1012.5 Q918 977 971.5 912 Q1025 847 1053.5 754 Q1082 661 1082 545 Q1082 418 1050 313.5 Q1018 209 958 134 Q898 59 812.5 17.5 Q727 -24 620 -24 Q404 -24 297 165 L293 165 Z M293 426 Q293 356 316.5 294.5 Q340 233 382 186.5 Q424 140 483.5 113 Q543 86 615 86 Q692 86 754 118.5 Q816 151 859.5 211 Q903 271 926.5 356 Q950 441 950 546 Q950 636 928 708.5 Q906 781 865.5 832 Q825 883 767.5 910 Q710 937 639 937 Q559 937 495 907.5 Q431 878 386 827 Q341 776 317 707.5 Q293 639 293 562 L293 426 Z " />
<glyph glyph-name="minus" unicode="&#x2212;" horiz-adv-x="1366" d="M222 542 L222 651 L1146 651 L1146 542 L222 542 Z " />
<glyph glyph-name="multiply" unicode="&#xd7;" horiz-adv-x="1366" d="M1019 183 L683 521 L347 183 L270 260 L607 596 L270 934 L347 1010 L683 672 L1019 1010 L1096 934 L759 596 L1096 260 L1019 183 Z " />
<glyph glyph-name="onehalf" unicode="&#xbd;" horiz-adv-x="1647" d="M615 584 L127 584 L127 681 L317 681 L317 1319 L116 1256 L116 1363 L425 1458 L425 681 L615 681 L615 584 Z M444 0 L323 0 L1183 1434 L1303 1434 L444 0 Z M1547 1 L1011 1 L1011 108 L1250 343 Q1307 399 1341 438.5 Q1375 478 1393 510 Q1411 542 1417 569 Q1423 596 1423 626 Q1423 694 1385 731 Q1347 768 1275 768 Q1160 768 1056 668 L1056 794 Q1154 871 1287 871 Q1346 871 1392 854 Q1438 837 1470.5 806.5 Q1503 776 1520 733 Q1537 690 1537 639 Q1537 601 1526 561.5 Q1515 522 1490 479 Q1465 436 1424.5 387.5 Q1384 339 1325 282 L1147 111 L1147 107 L1547 107 L1547 1 Z " />
<glyph glyph-name="onequarter" unicode="&#xbc;" horiz-adv-x="1513" d="M615 584 L127 584 L127 681 L317 681 L317 1319 L116 1256 L116 1363 L425 1458 L425 681 L615 681 L615 584 Z M444 0 L323 0 L1183 1434 L1303 1434 L444 0 Z M1365 212 L1365 1 L1258 1 L1258 212 L865 212 L865 290 L1242 851 L1365 851 L1365 306 L1475 306 L1475 212 L1365 212 Z M1257 733 Q1235 687 1215 658 L983 306 L1258 306 L1258 651 Q1258 687 1261 733 L1257 733 Z " />
<glyph glyph-name="threequarters" unicode="&#xbe;" horiz-adv-x="1513" d="M588 819 Q588 762 567 715 Q546 668 507.5 633.5 Q469 599 414.5 580 Q360 561 292 561 Q171 561 89 611 L89 730 Q192 660 295 660 Q381 660 429 702 Q477 744 477 816 Q477 970 250 970 L173 970 L173 1069 L244 1069 Q450 1069 450 1222 Q450 1350 301 1350 Q217 1350 122 1289 L122 1404 Q215 1452 324 1452 Q377 1452 420.5 1437 Q464 1422 495 1394 Q526 1366 542.5 1327 Q559 1288 559 1241 Q559 1084 413 1031 L413 1027 Q500 1007 544 953 Q588 899 588 819 Z M444 0 L323 0 L1183 1434 L1303 1434 L444 0 Z M1365 212 L1365 1 L1258 1 L1258 212 L865 212 L865 290 L1242 851 L1365 851 L1365 306 L1475 306 L1475 212 L1365 212 Z M1257 733 Q1235 687 1215 658 L983 306 L1258 306 L1258 651 Q1258 687 1261 733 L1257 733 Z " />
<glyph glyph-name="franc" unicode="&#x20a3;" horiz-adv-x="976" d="M577 300 L319 300 L319 0 L186 0 L186 300 L26 300 L26 423 L186 423 L186 1434 L885 1434 L885 1312 L319 1312 L319 772 L843 772 L843 651 L319 651 L319 423 L577 423 L577 300 Z " />
<glyph glyph-name="Gbreve" unicode="&#x11e;" horiz-adv-x="1386" d="M1240 99 Q1019 -25 772 -25 Q616 -25 492 28.5 Q368 82 281 177.5 Q194 273 147.5 405.5 Q101 538 101 697 Q101 802 123.5 899 Q146 996 189.5 1081 Q233 1166 296 1235 Q359 1304 440.5 1354 Q522 1404 620 1431 Q718 1458 831 1458 Q1044 1458 1211 1382 L1211 1235 Q1027 1337 815 1337 Q684 1337 578 1289 Q472 1241 397.5 1157 Q323 1073 282 958.5 Q241 844 240 710 Q239 577 274.5 464.5 Q310 352 380 270 Q450 188 553 142 Q656 96 791 96 Q973 96 1107 172 L1107 609 L781 609 L781 730 L1240 730 L1240 99 Z M1060 1794 Q1053 1739 1030 1694.5 Q1007 1650 971 1618 Q935 1586 887.5 1568.5 Q840 1551 785 1551 Q728 1551 680.5 1568 Q633 1585 598 1616.5 Q563 1648 542 1693 Q521 1738 518 1794 L610 1794 Q616 1718 662 1677.5 Q708 1637 787 1637 Q821 1637 851 1648.5 Q881 1660 905 1680.5 Q929 1701 944.5 1730 Q960 1759 965 1794 L1060 1794 Z " />
<glyph glyph-name="gbreve" unicode="&#x11f;" horiz-adv-x="1176" d="M1011 79 Q1011 -206 881.5 -343.5 Q752 -481 482 -481 Q314 -481 164 -406 L164 -276 Q331 -369 482 -369 Q883 -369 883 55 L883 178 L879 178 Q761 -24 519 -24 Q424 -24 345.5 11 Q267 46 211 112 Q155 178 124 272.5 Q93 367 93 486 Q93 612 126 715.5 Q159 819 220 893 Q281 967 367.5 1007.5 Q454 1048 562 1048 Q779 1048 879 872 L883 872 L883 1024 L1011 1024 L1011 79 Z M883 622 Q883 686 860 743 Q837 800 796 843 Q755 886 698.5 911.5 Q642 937 574 937 Q494 937 429.5 906 Q365 875 319.5 818 Q274 761 249.5 679.5 Q225 598 225 496 Q225 402 248 326 Q271 250 313 197 Q355 144 414.5 115 Q474 86 547 86 Q623 86 685 113.5 Q747 141 791 189.5 Q835 238 859 303.5 Q883 369 883 445 L883 622 Z M856 1446 Q849 1391 826 1346.5 Q803 1302 767 1270 Q731 1238 683.5 1220.5 Q636 1203 581 1203 Q524 1203 476.5 1220 Q429 1237 394 1268.5 Q359 1300 338 1345 Q317 1390 314 1446 L406 1446 Q412 1370 458 1329.5 Q504 1289 583 1289 Q617 1289 647 1300.5 Q677 1312 701 1332.5 Q725 1353 740.5 1382 Q756 1411 761 1446 L856 1446 Z " />
<glyph glyph-name="Idotaccent" unicode="&#x130;" horiz-adv-x="506" d="M319 0 L186 0 L186 1434 L319 1434 L319 0 Z M253 1551 Q235 1551 219 1557.5 Q203 1564 191 1576 Q179 1588 172 1604 Q165 1620 165 1639 Q165 1657 172 1673 Q179 1689 191 1700 Q203 1711 218.5 1717.5 Q234 1724 252 1724 Q288 1724 314.5 1700.5 Q341 1677 341 1639 Q341 1602 315.5 1576.5 Q290 1551 253 1551 Z " />
<glyph glyph-name="Scedilla" unicode="&#x15e;" horiz-adv-x="1053" d="M130 210 Q166 183 209.5 161.5 Q253 140 298.5 125.5 Q344 111 390 103.5 Q436 96 478 96 Q641 96 722 159 Q803 222 803 340 Q803 397 784 439.5 Q765 482 725 519 Q685 556 624 592.5 Q563 629 480 675 Q388 725 322.5 769.5 Q257 814 215.5 860.5 Q174 907 154.5 961 Q135 1015 135 1084 Q135 1171 172 1240 Q209 1309 272 1357.5 Q335 1406 419.5 1432 Q504 1458 600 1458 Q769 1458 883 1411 L883 1264 Q756 1337 585 1337 Q521 1337 464.5 1321.5 Q408 1306 365.5 1276 Q323 1246 298.5 1201.5 Q274 1157 274 1098 Q274 1042 290.5 1001.5 Q307 961 343.5 925 Q380 889 439.5 853.5 Q499 818 585 772 Q675 724 742 678.5 Q809 633 853.5 583.5 Q898 534 920 478.5 Q942 423 942 355 Q942 261 907 189.5 Q872 118 809 71 Q746 24 659 0 Q572 -24 468 -24 Q434 -24 387 -18.5 Q340 -13 292 -2.5 Q244 8 200.5 22.5 Q157 37 130 54 L130 210 Z M753 -260 Q753 -433 488 -433 Q451 -433 416 -430 L416 -348 Q463 -354 494 -354 Q644 -354 644 -263 Q644 -181 507 -181 Q496 -181 483.5 -182 Q471 -183 455 -185 L455 0 L545 0 L545 -111 Q645 -111 699 -149 Q753 -187 753 -260 Z " />
<glyph glyph-name="scedilla" unicode="&#x15f;" horiz-adv-x="832" d="M107 184 Q136 161 170 143 Q204 125 240 112 Q276 99 312.5 92.5 Q349 86 382 86 Q610 86 610 257 Q610 296 594 324.5 Q578 353 548 376.5 Q518 400 476 420 Q434 440 381 462 Q310 491 259 521 Q208 551 175 586.5 Q142 622 126 664.5 Q110 707 110 761 Q110 829 139.5 882 Q169 935 219 972 Q269 1009 334.5 1028.5 Q400 1048 472 1048 Q605 1048 704 998 L704 863 Q589 937 456 937 Q408 937 368.5 925 Q329 913 301 891 Q273 869 257.5 838.5 Q242 808 242 771 Q242 733 254 704.5 Q266 676 291.5 653 Q317 630 357.5 609 Q398 588 456 564 Q530 534 584 504.5 Q638 475 673 440.5 Q708 406 725 363.5 Q742 321 742 265 Q742 196 713.5 142 Q685 88 634.5 51 Q584 14 516 -5 Q448 -24 368 -24 Q213 -24 107 41 L107 184 Z M634 -260 Q634 -433 369 -433 Q332 -433 297 -430 L297 -348 Q344 -354 375 -354 Q525 -354 525 -263 Q525 -181 388 -181 Q377 -181 364.5 -182 Q352 -183 336 -185 L336 0 L426 0 L426 -111 Q526 -111 580 -149 Q634 -187 634 -260 Z " />
<glyph glyph-name="Cacute" unicode="&#x106;" horiz-adv-x="1270" d="M1150 53 Q984 -25 771 -25 Q619 -25 495 28.5 Q371 82 283.5 177 Q196 272 148.5 403 Q101 534 101 689 Q101 852 151.5 992.5 Q202 1133 296 1236.5 Q390 1340 523.5 1399 Q657 1458 823 1458 Q1006 1458 1150 1402 L1150 1260 Q996 1337 821 1337 Q682 1337 574 1289 Q466 1241 392 1155.5 Q318 1070 279 953.5 Q240 837 240 699 Q240 575 275 465.5 Q310 356 378.5 274 Q447 192 549 144 Q651 96 786 96 Q993 96 1150 183 L1150 53 Z M713 1551 L605 1551 L833 1879 L968 1879 L713 1551 Z " />
<glyph glyph-name="cacute" unicode="&#x107;" horiz-adv-x="927" d="M846 46 Q732 -23 570 -25 Q460 -26 372 13 Q284 52 222 121.5 Q160 191 127 285.5 Q94 380 94 491 Q94 606 129 707.5 Q164 809 231 884.5 Q298 960 395 1004 Q492 1048 617 1048 Q744 1048 849 999 L849 863 Q737 937 607 937 Q516 937 445 902.5 Q374 868 325.5 808.5 Q277 749 251.5 669.5 Q226 590 226 501 Q226 419 247.5 344 Q269 269 313.5 211.5 Q358 154 426 120 Q494 86 586 86 Q730 86 846 172 L846 46 Z M531 1203 L423 1203 L651 1531 L786 1531 L531 1203 Z " />
<glyph glyph-name="Ccaron" unicode="&#x10c;" horiz-adv-x="1270" d="M1150 53 Q984 -25 771 -25 Q619 -25 495 28.5 Q371 82 283.5 177 Q196 272 148.5 403 Q101 534 101 689 Q101 852 151.5 992.5 Q202 1133 296 1236.5 Q390 1340 523.5 1399 Q657 1458 823 1458 Q1006 1458 1150 1402 L1150 1260 Q996 1337 821 1337 Q682 1337 574 1289 Q466 1241 392 1155.5 Q318 1070 279 953.5 Q240 837 240 699 Q240 575 275 465.5 Q310 356 378.5 274 Q447 192 549 144 Q651 96 786 96 Q993 96 1150 183 L1150 53 Z M821 1551 L732 1551 L514 1884 L615 1884 L776 1649 L938 1884 L1038 1884 L821 1551 Z " />
<glyph glyph-name="ccaron" unicode="&#x10d;" horiz-adv-x="927" d="M846 46 Q732 -23 570 -25 Q460 -26 372 13 Q284 52 222 121.5 Q160 191 127 285.5 Q94 380 94 491 Q94 606 129 707.5 Q164 809 231 884.5 Q298 960 395 1004 Q492 1048 617 1048 Q744 1048 849 999 L849 863 Q737 937 607 937 Q516 937 445 902.5 Q374 868 325.5 808.5 Q277 749 251.5 669.5 Q226 590 226 501 Q226 419 247.5 344 Q269 269 313.5 211.5 Q358 154 426 120 Q494 86 586 86 Q730 86 846 172 L846 46 Z M621 1203 L532 1203 L314 1536 L415 1536 L576 1301 L738 1536 L838 1536 L621 1203 Z " />
<glyph glyph-name="dcroat" unicode="&#x111;" horiz-adv-x="1176" d="M551 1325 L883 1325 L883 1516 L1011 1516 L1011 1325 L1147 1325 L1147 1216 L1011 1216 L1011 0 L883 0 L883 180 L879 180 Q828 83 733.5 29.5 Q639 -24 519 -24 Q423 -24 344.5 11.5 Q266 47 210 114 Q154 181 123.5 276 Q93 371 93 491 Q93 615 126.5 717.5 Q160 820 221.5 893.5 Q283 967 369.5 1007.5 Q456 1048 562 1048 Q783 1048 879 871 L883 871 L883 1216 L551 1216 L551 1325 Z M883 618 Q883 685 860 743 Q837 801 796 844 Q755 887 697.5 912 Q640 937 571 937 Q495 937 431 907 Q367 877 321.5 820.5 Q276 764 250.5 683 Q225 602 225 499 Q225 402 248 325 Q271 248 313.5 195 Q356 142 415 114 Q474 86 546 86 Q624 86 686.5 114 Q749 142 792.5 191 Q836 240 859.5 306 Q883 372 883 447 L883 618 Z " />
<glyph glyph-name="macron" unicode="&#xaf;" horiz-adv-x="850" d="M0 1411 L0 1516 L850 1516 L850 1411 L0 1411 Z " />
<glyph glyph-name="uni2219" unicode="&#x2219;" horiz-adv-x="445" d="M222 567 Q202 567 184.5 574.5 Q167 582 154 595.5 Q141 609 133.5 626.5 Q126 644 126 664 Q126 704 154 732 Q182 760 222 760 Q241 760 258.5 752.5 Q276 745 289.5 732.5 Q303 720 311 702.5 Q319 685 319 664 Q319 643 311 625.5 Q303 608 289.5 595 Q276 582 258.5 574.5 Q241 567 222 567 Z " />
<glyph glyph-name="Abreve" unicode="&#x102;" horiz-adv-x="1303" d="M1115 0 L957 424 L342 424 L188 0 L40 0 L586 1434 L720 1434 L1263 0 L1115 0 Z M678 1183 Q671 1202 663.5 1227 Q656 1252 651 1284 L647 1284 Q641 1252 633.5 1227 Q626 1202 619 1183 L387 545 L912 545 L678 1183 Z M925 1794 Q918 1739 895 1694.5 Q872 1650 836 1618 Q800 1586 752.5 1568.5 Q705 1551 650 1551 Q593 1551 545.5 1568 Q498 1585 463 1616.5 Q428 1648 407 1693 Q386 1738 383 1794 L475 1794 Q481 1718 527 1677.5 Q573 1637 652 1637 Q686 1637 716 1648.5 Q746 1660 770 1680.5 Q794 1701 809.5 1730 Q825 1759 830 1794 L925 1794 Z " />
<glyph glyph-name="abreve" unicode="&#x103;" horiz-adv-x="1026" d="M755 0 L755 182 L751 182 Q701 84 614.5 30 Q528 -24 419 -24 Q345 -24 285.5 -3 Q226 18 184.5 56.5 Q143 95 120.5 149 Q98 203 98 268 Q98 407 184 489.5 Q270 572 444 597 L755 642 Q755 937 526 937 Q347 937 194 806 L194 946 Q226 969 266.5 987.5 Q307 1006 352 1019.5 Q397 1033 444.5 1040.5 Q492 1048 537 1048 Q708 1048 795.5 952 Q883 856 883 666 L883 0 L755 0 Z M491 497 Q422 487 373 472 Q324 457 292 431.5 Q260 406 245 368.5 Q230 331 230 276 Q230 235 244.5 200 Q259 165 286.5 139.5 Q314 114 353.5 100 Q393 86 443 86 Q511 86 568 112 Q625 138 666.5 184 Q708 230 731.5 294 Q755 358 755 433 L755 534 L491 497 Z M794 1446 Q787 1391 764 1346.5 Q741 1302 705 1270 Q669 1238 621.5 1220.5 Q574 1203 519 1203 Q462 1203 414.5 1220 Q367 1237 332 1268.5 Q297 1300 276 1345 Q255 1390 252 1446 L344 1446 Q350 1370 396 1329.5 Q442 1289 521 1289 Q555 1289 585 1300.5 Q615 1312 639 1332.5 Q663 1353 678.5 1382 Q694 1411 699 1446 L794 1446 Z " />
<glyph glyph-name="Aogonek" unicode="&#x104;" horiz-adv-x="1303" d="M1115 0 L957 424 L342 424 L188 0 L40 0 L586 1434 L720 1434 L1263 0 L1115 0 Z M678 1183 Q671 1202 663.5 1227 Q656 1252 651 1284 L647 1284 Q641 1252 633.5 1227 Q626 1202 619 1183 L387 545 L912 545 L678 1183 Z M1218 0 Q1058 -139 1058 -232 Q1058 -311 1134 -311 Q1169 -311 1202 -296 L1202 -384 Q1164 -400 1114 -400 Q1041 -400 996.5 -360 Q952 -320 952 -248 Q952 -190 993 -125.5 Q1034 -61 1115 0 L1218 0 Z " />
<glyph glyph-name="aogonek" unicode="&#x105;" horiz-adv-x="1026" d="M755 0 L755 182 L751 182 Q701 84 614.5 30 Q528 -24 419 -24 Q345 -24 285.5 -3 Q226 18 184.5 56.5 Q143 95 120.5 149 Q98 203 98 268 Q98 407 184 489.5 Q270 572 444 597 L755 642 Q755 937 526 937 Q347 937 194 806 L194 946 Q226 969 266.5 987.5 Q307 1006 352 1019.5 Q397 1033 444.5 1040.5 Q492 1048 537 1048 Q708 1048 795.5 952 Q883 856 883 666 L883 0 L755 0 Z M491 497 Q422 487 373 472 Q324 457 292 431.5 Q260 406 245 368.5 Q230 331 230 276 Q230 235 244.5 200 Q259 165 286.5 139.5 Q314 114 353.5 100 Q393 86 443 86 Q511 86 568 112 Q625 138 666.5 184 Q708 230 731.5 294 Q755 358 755 433 L755 534 L491 497 Z M858 0 Q698 -139 698 -232 Q698 -311 774 -311 Q809 -311 842 -296 L842 -384 Q804 -400 754 -400 Q681 -400 636.5 -360 Q592 -320 592 -248 Q592 -190 633 -125.5 Q674 -61 755 0 L858 0 Z " />
<glyph glyph-name="Dcaron" unicode="&#x10e;" horiz-adv-x="1408" d="M186 0 L186 1434 L563 1434 Q931 1434 1119 1257.5 Q1307 1081 1307 736 Q1307 570 1254.5 434 Q1202 298 1103 201.5 Q1004 105 863 52.5 Q722 0 545 0 L186 0 Z M319 1312 L319 121 L539 121 Q687 121 803.5 161 Q920 201 1001 278.5 Q1082 356 1124.5 470 Q1167 584 1167 732 Q1167 1312 554 1312 L319 1312 Z M719 1551 L630 1551 L412 1884 L513 1884 L674 1649 L836 1884 L936 1884 L719 1551 Z " />
<glyph glyph-name="dcaron" unicode="&#x10f;" horiz-adv-x="1317" d="M883 0 L883 180 L879 180 Q828 83 733.5 29.5 Q639 -24 519 -24 Q423 -24 344.5 11.5 Q266 47 210 114 Q154 181 123.5 276 Q93 371 93 491 Q93 615 126.5 717.5 Q160 820 221.5 893.5 Q283 967 369.5 1007.5 Q456 1048 562 1048 Q783 1048 879 871 L883 871 L883 1516 L1011 1516 L1011 0 L883 0 Z M883 618 Q883 685 860 743 Q837 801 796 844 Q755 887 697.5 912 Q640 937 571 937 Q495 937 431 907 Q367 877 321.5 820.5 Q276 764 250.5 683 Q225 602 225 499 Q225 402 248 325 Q271 248 313.5 195 Q356 142 415 114 Q474 86 546 86 Q624 86 686.5 114 Q749 142 792.5 191 Q836 240 859.5 306 Q883 372 883 447 L883 618 Z M1379 1515 L1233 1255 L1132 1255 L1237 1515 L1379 1515 Z " />
<glyph glyph-name="Dcroat" unicode="&#x110;" horiz-adv-x="1408" d="M31 776 L186 776 L186 1434 L563 1434 Q931 1434 1119 1257.5 Q1307 1081 1307 736 Q1307 570 1254.5 434 Q1202 298 1103 201.5 Q1004 105 863 52.5 Q722 0 545 0 L186 0 L186 654 L31 654 L31 776 Z M319 1312 L319 776 L689 776 L689 654 L319 654 L319 121 L539 121 Q687 121 803.5 161 Q920 201 1001 278.5 Q1082 356 1124.5 470 Q1167 584 1167 732 Q1167 1312 554 1312 L319 1312 Z " />
<glyph glyph-name="Eogonek" unicode="&#x118;" horiz-adv-x="1030" d="M186 0 L186 1434 L885 1434 L885 1312 L319 1312 L319 786 L843 786 L843 666 L319 666 L319 121 L917 121 L917 0 L186 0 Z M852 0 Q692 -139 692 -232 Q692 -311 768 -311 Q803 -311 836 -296 L836 -384 Q798 -400 748 -400 Q675 -400 630.5 -360 Q586 -320 586 -248 Q586 -190 627 -125.5 Q668 -61 749 0 L852 0 Z " />
<glyph glyph-name="eogonek" unicode="&#x119;" horiz-adv-x="1052" d="M226 489 Q227 395 251 320 Q275 245 320 193 Q365 141 429.5 113.5 Q494 86 575 86 Q748 86 902 207 L902 81 Q755 -24 546 -24 Q443 -24 359 12 Q275 48 216 116.5 Q157 185 125 285 Q93 385 93 513 Q93 628 128 726 Q163 824 225 895.5 Q287 967 372 1007.5 Q457 1048 558 1048 Q657 1048 733 1013.5 Q809 979 860.5 915 Q912 851 939 759 Q966 667 966 553 L966 489 L226 489 Z M834 601 Q831 761 758 849 Q685 937 555 937 Q490 937 434.5 914 Q379 891 337 847.5 Q295 804 267.5 741.5 Q240 679 229 601 L834 601 Z M676 0 Q516 -139 516 -232 Q516 -311 592 -311 Q627 -311 660 -296 L660 -384 Q622 -400 572 -400 Q499 -400 454.5 -360 Q410 -320 410 -248 Q410 -190 451 -125.5 Q492 -61 573 0 L676 0 Z " />
<glyph glyph-name="Ecaron" unicode="&#x11a;" horiz-adv-x="1030" d="M186 0 L186 1434 L885 1434 L885 1312 L319 1312 L319 786 L843 786 L843 666 L319 666 L319 121 L917 121 L917 0 L186 0 Z M584 1551 L495 1551 L277 1884 L378 1884 L539 1649 L701 1884 L801 1884 L584 1551 Z " />
<glyph glyph-name="ecaron" unicode="&#x11b;" horiz-adv-x="1052" d="M226 489 Q227 395 251 320 Q275 245 320 193 Q365 141 429.5 113.5 Q494 86 575 86 Q748 86 902 207 L902 81 Q755 -24 546 -24 Q443 -24 359 12 Q275 48 216 116.5 Q157 185 125 285 Q93 385 93 513 Q93 628 128 726 Q163 824 225 895.5 Q287 967 372 1007.5 Q457 1048 558 1048 Q657 1048 733 1013.5 Q809 979 860.5 915 Q912 851 939 759 Q966 667 966 553 L966 489 L226 489 Z M834 601 Q831 761 758 849 Q685 937 555 937 Q490 937 434.5 914 Q379 891 337 847.5 Q295 804 267.5 741.5 Q240 679 229 601 L834 601 Z M593 1203 L504 1203 L286 1536 L387 1536 L548 1301 L710 1536 L810 1536 L593 1203 Z " />
<glyph glyph-name="Lacute" unicode="&#x139;" horiz-adv-x="951" d="M186 0 L186 1434 L319 1434 L319 121 L895 121 L895 0 L186 0 Z M576 1551 L468 1551 L696 1879 L831 1879 L576 1551 Z " />
<glyph glyph-name="lacute" unicode="&#x13a;" horiz-adv-x="458" d="M165 0 L165 1516 L293 1516 L293 0 L165 0 Z M253 1636 L145 1636 L373 1964 L508 1964 L253 1636 Z " />
<glyph glyph-name="Lcaron" unicode="&#x13d;" horiz-adv-x="951" d="M186 0 L186 1434 L319 1434 L319 121 L895 121 L895 0 L186 0 Z M864 1433 L718 1173 L617 1173 L722 1433 L864 1433 Z " />
<glyph glyph-name="lcaron" unicode="&#x13e;" horiz-adv-x="578" d="M165 0 L165 1516 L293 1516 L293 0 L165 0 Z M640 1512 L494 1252 L393 1252 L498 1512 L640 1512 Z " />
<glyph glyph-name="Ldot" unicode="&#x13f;" horiz-adv-x="951" d="M186 0 L186 1434 L319 1434 L319 121 L895 121 L895 0 L186 0 Z M695 645 Q677 645 660.5 652 Q644 659 632 671.5 Q620 684 613 700.5 Q606 717 606 736 Q606 773 631.5 798 Q657 823 695 823 Q733 823 759 798.5 Q785 774 785 736 Q785 698 759 671.5 Q733 645 695 645 Z " />
<glyph glyph-name="ldot" unicode="&#x140;" horiz-adv-x="591" d="M165 0 L165 1516 L293 1516 L293 0 L165 0 Z M502 645 Q484 645 467.5 652 Q451 659 438.5 671.5 Q426 684 419 700.5 Q412 717 412 736 Q412 773 438 798 Q464 823 502 823 Q540 823 566 798.5 Q592 774 592 736 Q592 698 566 671.5 Q540 645 502 645 Z " />
<glyph glyph-name="Nacute" unicode="&#x143;" horiz-adv-x="1492" d="M1168 0 L372 1151 Q357 1173 342.5 1196 Q328 1219 319 1241 L314 1241 Q316 1223 317.5 1191 Q319 1159 319 1111 L319 0 L186 0 L186 1434 L333 1434 L1116 297 Q1134 270 1148.5 246.5 Q1163 223 1175 203 L1180 203 Q1176 236 1174 277 Q1172 318 1172 368 L1172 1434 L1306 1434 L1306 0 L1168 0 Z M726 1551 L618 1551 L846 1879 L981 1879 L726 1551 Z " />
<glyph glyph-name="nacute" unicode="&#x144;" horiz-adv-x="1127" d="M856 0 L856 590 Q856 937 604 937 Q537 937 480 910.5 Q423 884 381.5 837 Q340 790 316.5 725.5 Q293 661 293 586 L293 0 L165 0 L165 1024 L293 1024 L293 846 L297 846 Q411 1048 640 1048 Q808 1048 896 939 Q984 830 984 624 L984 0 L856 0 Z M556 1203 L448 1203 L676 1531 L811 1531 L556 1203 Z " />
<glyph glyph-name="Ncaron" unicode="&#x147;" horiz-adv-x="1492" d="M1168 0 L372 1151 Q357 1173 342.5 1196 Q328 1219 319 1241 L314 1241 Q316 1223 317.5 1191 Q319 1159 319 1111 L319 0 L186 0 L186 1434 L333 1434 L1116 297 Q1134 270 1148.5 246.5 Q1163 223 1175 203 L1180 203 Q1176 236 1174 277 Q1172 318 1172 368 L1172 1434 L1306 1434 L1306 0 L1168 0 Z M797 1551 L708 1551 L490 1884 L591 1884 L752 1649 L914 1884 L1014 1884 L797 1551 Z " />
<glyph glyph-name="ncaron" unicode="&#x148;" horiz-adv-x="1127" d="M856 0 L856 590 Q856 937 604 937 Q537 937 480 910.5 Q423 884 381.5 837 Q340 790 316.5 725.5 Q293 661 293 586 L293 0 L165 0 L165 1024 L293 1024 L293 846 L297 846 Q411 1048 640 1048 Q808 1048 896 939 Q984 830 984 624 L984 0 L856 0 Z M631 1203 L542 1203 L324 1536 L425 1536 L586 1301 L748 1536 L848 1536 L631 1203 Z " />
<glyph glyph-name="Ohungarumlaut" unicode="&#x150;" horiz-adv-x="1551" d="M770 -25 Q615 -25 491 31.5 Q367 88 280.5 186 Q194 284 147.5 416.5 Q101 549 101 701 Q101 869 147.5 1008.5 Q194 1148 283 1247.5 Q372 1347 501 1402.5 Q630 1458 795 1458 Q947 1458 1068 1403.5 Q1189 1349 1274 1252.5 Q1359 1156 1404.5 1024 Q1450 892 1450 737 Q1450 574 1405.5 434.5 Q1361 295 1274.5 193 Q1188 91 1061.5 33 Q935 -25 770 -25 Z M781 1337 Q651 1337 550.5 1287.5 Q450 1238 381 1153.5 Q312 1069 276.5 955.5 Q241 842 240 714 Q239 592 271.5 480.5 Q304 369 369.5 283.5 Q435 198 535 147 Q635 96 769 96 Q903 96 1004.5 142.5 Q1106 189 1174 271.5 Q1242 354 1276.5 468 Q1311 582 1311 717 Q1311 843 1280.5 956 Q1250 1069 1185.5 1153.5 Q1121 1238 1021 1287.5 Q921 1337 781 1337 Z M873 1551 L788 1551 L998 1868 L1119 1868 L873 1551 Z M641 1551 L557 1551 L765 1868 L885 1868 L641 1551 Z " />
<glyph glyph-name="ohungarumlaut" unicode="&#x151;" horiz-adv-x="1174" d="M584 -24 Q470 -24 379.5 14 Q289 52 225 121.5 Q161 191 127 288 Q93 385 93 503 Q93 631 129 732 Q165 833 231.5 903.5 Q298 974 392 1011 Q486 1048 602 1048 Q713 1048 802 1011.5 Q891 975 953 906 Q1015 837 1048 738 Q1081 639 1081 513 Q1081 393 1046.5 294.5 Q1012 196 948 125 Q884 54 792 15 Q700 -24 584 -24 Z M594 937 Q510 937 442 908 Q374 879 325.5 823.5 Q277 768 251 687.5 Q225 607 225 505 Q225 409 251 332 Q277 255 324.5 200 Q372 145 440 115.5 Q508 86 592 86 Q678 86 744 114.5 Q810 143 856 197.5 Q902 252 925.5 331 Q949 410 949 511 Q949 718 857 827.5 Q765 937 594 937 Z M698 1203 L613 1203 L823 1520 L944 1520 L698 1203 Z M466 1203 L382 1203 L590 1520 L710 1520 L466 1203 Z " />
<glyph glyph-name="Racute" unicode="&#x154;" horiz-adv-x="1181" d="M967 0 L751 411 Q719 472 689 513 Q659 554 627 578.5 Q595 603 558.5 613.5 Q522 624 477 624 L319 624 L319 0 L186 0 L186 1434 L599 1434 Q680 1434 755.5 1410 Q831 1386 890 1339 Q949 1292 984.5 1221 Q1020 1150 1020 1056 Q1020 980 997 916 Q974 852 931.5 802.5 Q889 753 828.5 718.5 Q768 684 692 667 L692 663 Q721 651 745 632 Q769 613 791.5 586 Q814 559 836 524 Q858 489 882 444 L1123 0 L967 0 Z M319 1312 L319 745 L557 745 Q629 745 689 766 Q749 787 791.5 826 Q834 865 857.5 920 Q881 975 881 1044 Q881 1169 800.5 1240.5 Q720 1312 568 1312 L319 1312 Z M583 1551 L475 1551 L703 1879 L838 1879 L583 1551 Z " />
<glyph glyph-name="racute" unicode="&#x155;" horiz-adv-x="694" d="M673 893 Q628 926 557 926 Q506 926 467 906.5 Q428 887 398.5 854 Q369 821 348.5 777.5 Q328 734 315.5 687 Q303 640 297.5 592 Q292 544 292 501 L292 0 L165 0 L165 1024 L292 1024 L292 805 L296 805 Q314 861 341.5 905.5 Q369 950 405 980.5 Q441 1011 483.5 1027 Q526 1043 573 1043 Q604 1043 628.5 1039 Q653 1035 673 1027 L673 893 Z M408 1203 L300 1203 L528 1531 L663 1531 L408 1203 Z " />
<glyph glyph-name="Rcaron" unicode="&#x158;" horiz-adv-x="1181" d="M967 0 L751 411 Q719 472 689 513 Q659 554 627 578.5 Q595 603 558.5 613.5 Q522 624 477 624 L319 624 L319 0 L186 0 L186 1434 L599 1434 Q680 1434 755.5 1410 Q831 1386 890 1339 Q949 1292 984.5 1221 Q1020 1150 1020 1056 Q1020 980 997 916 Q974 852 931.5 802.5 Q889 753 828.5 718.5 Q768 684 692 667 L692 663 Q721 651 745 632 Q769 613 791.5 586 Q814 559 836 524 Q858 489 882 444 L1123 0 L967 0 Z M319 1312 L319 745 L557 745 Q629 745 689 766 Q749 787 791.5 826 Q834 865 857.5 920 Q881 975 881 1044 Q881 1169 800.5 1240.5 Q720 1312 568 1312 L319 1312 Z M626 1551 L537 1551 L319 1884 L420 1884 L581 1649 L743 1884 L843 1884 L626 1551 Z " />
<glyph glyph-name="rcaron" unicode="&#x159;" horiz-adv-x="694" d="M673 893 Q628 926 557 926 Q506 926 467 906.5 Q428 887 398.5 854 Q369 821 348.5 777.5 Q328 734 315.5 687 Q303 640 297.5 592 Q292 544 292 501 L292 0 L165 0 L165 1024 L292 1024 L292 805 L296 805 Q314 861 341.5 905.5 Q369 950 405 980.5 Q441 1011 483.5 1027 Q526 1043 573 1043 Q604 1043 628.5 1039 Q653 1035 673 1027 L673 893 Z M455 1203 L366 1203 L148 1536 L249 1536 L410 1301 L572 1536 L672 1536 L455 1203 Z " />
<glyph glyph-name="Sacute" unicode="&#x15a;" horiz-adv-x="1053" d="M130 210 Q166 183 209.5 161.5 Q253 140 298.5 125.5 Q344 111 390 103.5 Q436 96 478 96 Q641 96 722 159 Q803 222 803 340 Q803 397 784 439.5 Q765 482 725 519 Q685 556 624 592.5 Q563 629 480 675 Q388 725 322.5 769.5 Q257 814 215.5 860.5 Q174 907 154.5 961 Q135 1015 135 1084 Q135 1171 172 1240 Q209 1309 272 1357.5 Q335 1406 419.5 1432 Q504 1458 600 1458 Q769 1458 883 1411 L883 1264 Q756 1337 585 1337 Q521 1337 464.5 1321.5 Q408 1306 365.5 1276 Q323 1246 298.5 1201.5 Q274 1157 274 1098 Q274 1042 290.5 1001.5 Q307 961 343.5 925 Q380 889 439.5 853.5 Q499 818 585 772 Q675 724 742 678.5 Q809 633 853.5 583.5 Q898 534 920 478.5 Q942 423 942 355 Q942 261 907 189.5 Q872 118 809 71 Q746 24 659 0 Q572 -24 468 -24 Q434 -24 387 -18.5 Q340 -13 292 -2.5 Q244 8 200.5 22.5 Q157 37 130 54 L130 210 Z M528 1551 L420 1551 L648 1879 L783 1879 L528 1551 Z " />
<glyph glyph-name="sacute" unicode="&#x15b;" horiz-adv-x="832" d="M107 184 Q136 161 170 143 Q204 125 240 112 Q276 99 312.5 92.5 Q349 86 382 86 Q610 86 610 257 Q610 296 594 324.5 Q578 353 548 376.5 Q518 400 476 420 Q434 440 381 462 Q310 491 259 521 Q208 551 175 586.5 Q142 622 126 664.5 Q110 707 110 761 Q110 829 139.5 882 Q169 935 219 972 Q269 1009 334.5 1028.5 Q400 1048 472 1048 Q605 1048 704 998 L704 863 Q589 937 456 937 Q408 937 368.5 925 Q329 913 301 891 Q273 869 257.5 838.5 Q242 808 242 771 Q242 733 254 704.5 Q266 676 291.5 653 Q317 630 357.5 609 Q398 588 456 564 Q530 534 584 504.5 Q638 475 673 440.5 Q708 406 725 363.5 Q742 321 742 265 Q742 196 713.5 142 Q685 88 634.5 51 Q584 14 516 -5 Q448 -24 368 -24 Q213 -24 107 41 L107 184 Z M416 1203 L308 1203 L536 1531 L671 1531 L416 1203 Z " />
<glyph glyph-name="uni0162" unicode="&#x162;" horiz-adv-x="1060" d="M596 1312 L596 0 L463 0 L463 1312 L50 1312 L50 1434 L1010 1434 L1010 1312 L596 1312 Z M771 -260 Q771 -433 506 -433 Q469 -433 434 -430 L434 -348 Q481 -354 512 -354 Q662 -354 662 -263 Q662 -181 525 -181 Q514 -181 501.5 -182 Q489 -183 473 -185 L473 0 L563 0 L563 -111 Q663 -111 717 -149 Q771 -187 771 -260 Z " />
<glyph glyph-name="uni0163" unicode="&#x163;" horiz-adv-x="651" d="M605 12 Q539 -21 461 -21 Q213 -21 213 265 L213 912 L33 912 L33 1024 L213 1024 L213 1282 L341 1324 L341 1024 L605 1024 L605 912 L341 912 L341 285 Q341 181 375 135 Q409 89 490 89 Q550 89 605 125 L605 12 Z M664 -260 Q664 -433 399 -433 Q362 -433 327 -430 L327 -348 Q374 -354 405 -354 Q555 -354 555 -263 Q555 -181 418 -181 Q407 -181 394.5 -182 Q382 -183 366 -185 L366 0 L456 0 L456 -111 Q556 -111 610 -149 Q664 -187 664 -260 Z " />
<glyph glyph-name="Tcaron" unicode="&#x164;" horiz-adv-x="1060" d="M596 1312 L596 0 L463 0 L463 1312 L50 1312 L50 1434 L1010 1434 L1010 1312 L596 1312 Z M576 1551 L487 1551 L269 1884 L370 1884 L531 1649 L693 1884 L793 1884 L576 1551 Z " />
<glyph glyph-name="tcaron" unicode="&#x165;" horiz-adv-x="813" d="M605 12 Q539 -21 461 -21 Q213 -21 213 265 L213 912 L33 912 L33 1024 L213 1024 L213 1282 L341 1324 L341 1024 L605 1024 L605 912 L341 912 L341 285 Q341 181 375 135 Q409 89 490 89 Q550 89 605 125 L605 12 Z M875 1394 L729 1134 L628 1134 L733 1394 L875 1394 Z " />
<glyph glyph-name="Uring" unicode="&#x16e;" horiz-adv-x="1367" d="M1199 576 Q1199 -25 671 -25 Q168 -25 168 554 L168 1434 L301 1434 L301 566 Q301 330 396 213 Q491 96 690 96 Q1066 96 1066 552 L1066 1434 L1199 1434 L1199 576 Z M677 1530 Q637 1530 601 1543 Q565 1556 537 1580 Q509 1604 492.5 1639 Q476 1674 476 1717 Q476 1759 492 1794 Q508 1829 536 1854.5 Q564 1880 601 1894 Q638 1908 681 1908 Q720 1908 756.5 1895 Q793 1882 821 1857.5 Q849 1833 866 1798 Q883 1763 883 1720 Q883 1679 866.5 1644.5 Q850 1610 821.5 1584.5 Q793 1559 756 1544.5 Q719 1530 677 1530 Z M677 1834 Q624 1834 591 1802 Q558 1770 558 1719 Q558 1664 590 1634 Q622 1604 677 1604 Q704 1604 726.5 1612.5 Q749 1621 765.5 1636.5 Q782 1652 791 1673 Q800 1694 800 1719 Q800 1772 765 1803 Q730 1834 677 1834 Z " />
<glyph glyph-name="uring" unicode="&#x16f;" horiz-adv-x="1128" d="M835 0 L835 174 L831 174 Q727 -24 508 -24 Q143 -24 143 422 L143 1024 L271 1024 L271 446 Q271 262 336.5 174 Q402 86 537 86 Q603 86 657.5 111.5 Q712 137 751.5 183.5 Q791 230 813 295 Q835 360 835 439 L835 1024 L963 1024 L963 0 L835 0 Z M550 1182 Q510 1182 474 1195 Q438 1208 410 1232 Q382 1256 365.5 1291 Q349 1326 349 1369 Q349 1411 365 1446 Q381 1481 409 1506.5 Q437 1532 474 1546 Q511 1560 554 1560 Q593 1560 629.5 1547 Q666 1534 694 1509.5 Q722 1485 739 1450 Q756 1415 756 1372 Q756 1331 739.5 1296.5 Q723 1262 694.5 1236.5 Q666 1211 629 1196.5 Q592 1182 550 1182 Z M550 1486 Q497 1486 464 1454 Q431 1422 431 1371 Q431 1316 463 1286 Q495 1256 550 1256 Q577 1256 599.5 1264.5 Q622 1273 638.5 1288.5 Q655 1304 664 1325 Q673 1346 673 1371 Q673 1424 638 1455 Q603 1486 550 1486 Z " />
<glyph glyph-name="Uhungarumlaut" unicode="&#x170;" horiz-adv-x="1367" d="M1199 576 Q1199 -25 671 -25 Q168 -25 168 554 L168 1434 L301 1434 L301 566 Q301 330 396 213 Q491 96 690 96 Q1066 96 1066 552 L1066 1434 L1199 1434 L1199 576 Z M781 1551 L696 1551 L906 1868 L1027 1868 L781 1551 Z M549 1551 L465 1551 L673 1868 L793 1868 L549 1551 Z " />
<glyph glyph-name="uhungarumlaut" unicode="&#x171;" horiz-adv-x="1128" d="M835 0 L835 174 L831 174 Q727 -24 508 -24 Q143 -24 143 422 L143 1024 L271 1024 L271 446 Q271 262 336.5 174 Q402 86 537 86 Q603 86 657.5 111.5 Q712 137 751.5 183.5 Q791 230 813 295 Q835 360 835 439 L835 1024 L963 1024 L963 0 L835 0 Z M652 1203 L567 1203 L777 1520 L898 1520 L652 1203 Z M420 1203 L336 1203 L544 1520 L664 1520 L420 1203 Z " />
<glyph glyph-name="Zacute" unicode="&#x179;" horiz-adv-x="1167" d="M249 121 L1088 121 L1088 0 L49 0 L49 39 L900 1312 L117 1312 L117 1434 L1105 1434 L1105 1400 L249 121 Z M600 1551 L492 1551 L720 1879 L855 1879 L600 1551 Z " />
<glyph glyph-name="zacute" unicode="&#x17a;" horiz-adv-x="938" d="M240 112 L871 112 L871 0 L45 0 L45 43 L688 912 L98 912 L98 1024 L886 1024 L886 988 L240 112 Z M470 1203 L362 1203 L590 1531 L725 1531 L470 1203 Z " />
<glyph glyph-name="Zdotaccent" unicode="&#x17b;" horiz-adv-x="1167" d="M249 121 L1088 121 L1088 0 L49 0 L49 39 L900 1312 L117 1312 L117 1434 L1105 1434 L1105 1400 L249 121 Z M603 1551 Q585 1551 569 1557.5 Q553 1564 541 1576 Q529 1588 522 1604 Q515 1620 515 1639 Q515 1657 522 1673 Q529 1689 541 1700 Q553 1711 568.5 1717.5 Q584 1724 602 1724 Q638 1724 664.5 1700.5 Q691 1677 691 1639 Q691 1602 665.5 1576.5 Q640 1551 603 1551 Z " />
<glyph glyph-name="zdotaccent" unicode="&#x17c;" horiz-adv-x="938" d="M240 112 L871 112 L871 0 L45 0 L45 43 L688 912 L98 912 L98 1024 L886 1024 L886 988 L240 112 Z M492 1203 Q474 1203 458 1209.5 Q442 1216 430 1228 Q418 1240 411 1256 Q404 1272 404 1291 Q404 1309 411 1325 Q418 1341 430 1352 Q442 1363 457.5 1369.5 Q473 1376 491 1376 Q527 1376 553.5 1352.5 Q580 1329 580 1291 Q580 1254 554.5 1228.5 Q529 1203 492 1203 Z " />
<glyph glyph-name="Gamma" unicode="&#x393;" horiz-adv-x="951" d="M320 1310 L320 0 L186 0 L186 1434 L895 1434 L895 1310 L320 1310 Z " />
<glyph glyph-name="Theta" unicode="&#x398;" horiz-adv-x="1551" d="M516 655 L516 778 L1035 778 L1035 655 L516 655 Z M770 -25 Q615 -25 491 31.5 Q367 88 280.5 186 Q194 284 147.5 416.5 Q101 549 101 701 Q101 869 147.5 1008.5 Q194 1148 283 1247.5 Q372 1347 501 1402.5 Q630 1458 795 1458 Q947 1458 1068 1403.5 Q1189 1349 1274 1252.5 Q1359 1156 1404.5 1024 Q1450 892 1450 737 Q1450 574 1405.5 434.5 Q1361 295 1274.5 193 Q1188 91 1061.5 33 Q935 -25 770 -25 Z M781 1337 Q651 1337 550.5 1287.5 Q450 1238 381 1153.5 Q312 1069 276 955.5 Q240 842 240 714 Q240 592 272 480.5 Q304 369 369.5 283.5 Q435 198 534.5 147 Q634 96 769 96 Q903 96 1004.5 142.5 Q1106 189 1174 271.5 Q1242 354 1276.5 468 Q1311 582 1311 717 Q1311 843 1280.5 956 Q1250 1069 1185.5 1153.5 Q1121 1238 1021 1287.5 Q921 1337 781 1337 Z " />
<glyph glyph-name="Phi" unicode="&#x3a6;" horiz-adv-x="1558" d="M1455 752 Q1455 613 1411 508 Q1367 403 1291.5 332.5 Q1216 262 1116 226.5 Q1016 191 904 191 L843 191 L843 -15 L715 -15 L715 191 L655 191 Q530 191 428 231 Q326 271 253.5 344.5 Q181 418 141.5 521 Q102 624 102 751 Q102 880 144 981 Q186 1082 260.5 1151.5 Q335 1221 436.5 1257.5 Q538 1294 657 1294 L715 1294 L715 1448 L843 1448 L843 1294 L901 1294 Q1027 1294 1129.5 1254.5 Q1232 1215 1304.5 1143.5 Q1377 1072 1416 972 Q1455 872 1455 752 Z M1322 750 Q1322 848 1293 927.5 Q1264 1007 1209.5 1062.5 Q1155 1118 1077 1148 Q999 1178 901 1178 L843 1178 L843 311 L904 311 Q1002 311 1079.5 340.5 Q1157 370 1211 426.5 Q1265 483 1293.5 564.5 Q1322 646 1322 750 Z M715 1178 L657 1178 Q567 1178 490 1151 Q413 1124 356 1070 Q299 1016 267 935.5 Q235 855 235 748 Q235 637 266 555 Q297 473 353 418.5 Q409 364 486 337.5 Q563 311 655 311 L715 311 L715 1178 Z " />
<glyph glyph-name="alpha" unicode="&#x3b1;" horiz-adv-x="1240" d="M878 511 Q855 605 827 683.5 Q799 762 761 818.5 Q723 875 673 906.5 Q623 938 555 938 Q478 938 416 904 Q354 870 311 809.5 Q268 749 245 666 Q222 583 222 485 Q222 397 242.5 324 Q263 251 300.5 199 Q338 147 391.5 118 Q445 89 511 89 Q615 89 694 169.5 Q773 250 833 394 L878 511 Z M1115 -10 Q1078 -10 1049.5 10 Q1021 30 997.5 71 Q974 112 954.5 175 Q935 238 917 323 L913 323 Q873 233 828 167.5 Q783 102 731 59.5 Q679 17 619 -3.5 Q559 -24 490 -24 Q400 -24 326 13 Q252 50 199.5 116 Q147 182 118.5 274 Q90 366 90 477 Q90 602 121.5 707 Q153 812 212 887.5 Q271 963 357.5 1005.5 Q444 1048 553 1048 Q631 1048 692 1020 Q753 992 799.5 944 Q846 896 879 832.5 Q912 769 936 698 L939 698 L1049 1024 L1187 1024 L990 513 Q1017 383 1037.5 303.5 Q1058 224 1077 180.5 Q1096 137 1115 123 Q1134 109 1158 109 Q1171 109 1182.5 111 Q1194 113 1205 116 L1205 3 Q1182 -3 1163.5 -6.5 Q1145 -10 1115 -10 Z " />
<glyph glyph-name="delta" unicode="&#x3b4;" horiz-adv-x="1190" d="M1100 470 Q1100 358 1063.5 266.5 Q1027 175 960 110 Q893 45 798 10 Q703 -25 586 -25 Q477 -25 386 10.5 Q295 46 229.5 109 Q164 172 127.5 258.5 Q91 345 91 447 Q91 541 124.5 619.5 Q158 698 216.5 762 Q275 826 355 875.5 Q435 925 528 961 Q479 992 433.5 1026.5 Q388 1061 353.5 1100.5 Q319 1140 298.5 1185 Q278 1230 278 1283 Q278 1345 306 1392.5 Q334 1440 384 1472 Q434 1504 505 1520.5 Q576 1537 661 1537 Q750 1537 832 1518.5 Q914 1500 991 1469 L991 1324 Q914 1370 830 1396 Q746 1422 662 1422 Q621 1422 576.5 1415.5 Q532 1409 495.5 1392 Q459 1375 435 1347 Q411 1319 411 1275 Q411 1246 423 1219 Q435 1192 460.5 1164.5 Q486 1137 525.5 1107.5 Q565 1078 620 1045 Q732 977 821 914 Q910 851 972 784 Q1034 717 1067 641 Q1100 565 1100 470 Z M969 456 Q969 529 945 590 Q921 651 877 704 Q833 757 771.5 804 Q710 851 635 897 Q558 869 484.5 830 Q411 791 354 738 Q297 685 262 614.5 Q227 544 227 452 Q227 366 255.5 298 Q284 230 333.5 183 Q383 136 450.5 111.5 Q518 87 597 87 Q677 87 745 112.5 Q813 138 863 185.5 Q913 233 941 301.5 Q969 370 969 456 Z " />
<glyph glyph-name="epsilon" unicode="&#x3b5;" horiz-adv-x="897" d="M827 25 Q797 14 759.5 5 Q722 -4 679.5 -11 Q637 -18 592 -21.5 Q547 -25 503 -25 Q399 -25 320 -2.5 Q241 20 188 59.5 Q135 99 108.5 154 Q82 209 82 275 Q82 327 102 370.5 Q122 414 157 447 Q192 480 239.5 502 Q287 524 341 533 L341 537 Q299 545 259.5 565 Q220 585 189.5 615 Q159 645 140 683.5 Q121 722 121 767 Q121 841 152 894 Q183 947 236 981.5 Q289 1016 359.5 1032.5 Q430 1049 509 1049 Q544 1049 580.5 1045 Q617 1041 652.5 1034.5 Q688 1028 721 1019.5 Q754 1011 782 1001 L782 871 Q719 901 645.5 919 Q572 937 503 937 Q375 937 313.5 894 Q252 851 252 767 Q252 716 281 681 Q310 646 356.5 624.5 Q403 603 460.5 593.5 Q518 584 574 584 Q603 584 637 584.5 Q671 585 692 587 L692 470 Q673 472 635.5 472.5 Q598 473 552 473 Q384 473 298.5 425 Q213 377 213 276 Q213 235 231.5 200.5 Q250 166 288 140.5 Q326 115 383.5 100.5 Q441 86 518 86 Q598 86 679.5 106 Q761 126 827 156 L827 25 L827 25 Z " />
<glyph glyph-name="sigma" unicode="&#x3c3;" horiz-adv-x="1163" d="M886 918 Q917 876 943.5 829.5 Q970 783 989 730.5 Q1008 678 1019 618 Q1030 558 1030 488 Q1030 380 999 286.5 Q968 193 908.5 124 Q849 55 763.5 15.5 Q678 -24 568 -24 Q459 -24 371 14 Q283 52 221 121.5 Q159 191 126 288 Q93 385 93 502 Q93 628 124 725 Q155 822 218.5 888.5 Q282 955 379 989.5 Q476 1024 607 1024 L1143 1024 L1143 918 L886 918 Z M898 500 Q898 568 887 626.5 Q876 685 858 736.5 Q840 788 816 833 Q792 878 765 918 L622 918 Q418 918 322 811 Q226 704 226 496 Q226 403 251.5 327.5 Q277 252 322 198.5 Q367 145 430 116 Q493 87 568 87 Q643 87 704 117 Q765 147 808 202 Q851 257 874.5 333 Q898 409 898 500 Z " />
<glyph glyph-name="tau" unicode="&#x3c4;" horiz-adv-x="997" d="M552 918 L552 263 Q552 177 587.5 139.5 Q623 102 683 102 Q703 102 730 106 Q757 110 782 118 L782 6 Q750 -3 721.5 -7.5 Q693 -12 664 -12 Q540 -12 482 62 Q424 136 424 278 L424 918 L269 918 Q208 918 148.5 897 Q89 876 38 842 L38 960 Q77 989 135 1006.5 Q193 1024 271 1024 L960 1024 L960 918 L552 918 Z " />
<glyph glyph-name="phi" unicode="&#x3c6;" horiz-adv-x="1423" d="M1331 504 Q1331 391 1295.5 294.5 Q1260 198 1191.5 127 Q1123 56 1024 16 Q925 -24 798 -24 L770 -24 L770 -481 L649 -481 L649 -24 L624 -24 Q505 -24 407 11 Q309 46 239 114 Q169 182 130.5 281.5 Q92 381 92 510 Q92 590 107 663.5 Q122 737 149.5 801.5 Q177 866 215 922 Q253 978 299 1024 L449 1024 Q399 972 357.5 914.5 Q316 857 286.5 793 Q257 729 240.5 657.5 Q224 586 224 506 Q224 403 255 324.5 Q286 246 338 193 Q390 140 458.5 113.5 Q527 87 602 87 L649 87 L649 785 Q649 913 715.5 980.5 Q782 1048 914 1048 Q1008 1048 1085 1008.5 Q1162 969 1216.5 897 Q1271 825 1301 725 Q1331 625 1331 504 Z M1199 511 Q1199 607 1175.5 685.5 Q1152 764 1113 819.5 Q1074 875 1023.5 905.5 Q973 936 919 936 Q842 936 806 896 Q770 856 770 787 L770 87 L820 87 Q904 87 973.5 118 Q1043 149 1093 204.5 Q1143 260 1171 338.5 Q1199 417 1199 511 Z " />
<glyph glyph-name="underscoredbl" unicode="&#x2017;" horiz-adv-x="850" d="M0 -273 L0 -168 L850 -168 L850 -273 L0 -273 Z M0 -514 L0 -410 L850 -410 L850 -514 L0 -514 Z " />
<glyph glyph-name="exclamdbl" unicode="&#x203c;" horiz-adv-x="922" d="M344 403 L233 403 L219 1434 L358 1434 L344 403 Z M291 -18 Q251 -18 223 9.5 Q195 37 195 77 Q195 118 223 145.5 Q251 173 291 173 Q310 173 327 166 Q344 159 357.5 146 Q371 133 379 115.5 Q387 98 387 77 Q387 57 379 39.5 Q371 22 357.5 9 Q344 -4 327 -11 Q310 -18 291 -18 Z M684 403 L573 403 L559 1434 L698 1434 L684 403 Z M631 -18 Q591 -18 563 9.5 Q535 37 535 77 Q535 118 563 145.5 Q591 173 631 173 Q650 173 667 166 Q684 159 697.5 146 Q711 133 719 115.5 Q727 98 727 77 Q727 57 719 39.5 Q711 22 697.5 9 Q684 -4 667 -11 Q650 -18 631 -18 Z " />
<glyph glyph-name="uni207F" unicode="&#x207f;" horiz-adv-x="803" d="M587 717 L587 1100 Q587 1165 579.5 1213.5 Q572 1262 554 1294 Q536 1326 505.5 1342.5 Q475 1359 429 1359 Q388 1359 351 1341 Q314 1323 286.5 1291.5 Q259 1260 243 1217.5 Q227 1175 227 1127 L227 717 L117 717 L117 1435 L224 1435 L224 1312 L227 1312 Q297 1454 448 1454 Q569 1454 633.5 1378.5 Q698 1303 698 1165 L698 717 L587 717 Z " />
<glyph glyph-name="peseta" unicode="&#x20a7;" horiz-adv-x="2246" d="M319 558 L319 0 L186 0 L186 1434 L490 1434 Q717 1434 832.5 1330 Q948 1226 948 1019 Q948 917 914 832 Q880 747 816.5 686 Q753 625 660.5 591.5 Q568 558 451 558 L319 558 Z M319 1312 L319 680 L443 680 Q626 680 717.5 764 Q809 848 809 1009 Q809 1312 466 1312 L319 1312 Z M1520 12 Q1454 -21 1376 -21 Q1253 -21 1195.5 48 Q1138 117 1138 265 L1138 741 L984 741 L984 852 L1138 852 L1138 1110 L1266 1153 L1266 852 L1520 852 L1520 741 L1266 741 L1266 285 Q1266 188 1299 138.5 Q1332 89 1405 89 Q1463 89 1520 125 L1520 12 Z M1599 184 Q1624 162 1654.5 143.5 Q1685 125 1717 112.5 Q1749 100 1782 93 Q1815 86 1845 86 Q1937 86 1987 120.5 Q2037 155 2037 223 Q2037 250 2029 271.5 Q2021 293 1998.5 313.5 Q1976 334 1935 354.5 Q1894 375 1828 401 Q1776 422 1734 442.5 Q1692 463 1662.5 489.5 Q1633 516 1617.5 551 Q1602 586 1602 635 Q1602 693 1626 739 Q1650 785 1692 817.5 Q1734 850 1790 867 Q1846 884 1909 884 Q1971 884 2026.5 872.5 Q2082 861 2124 838 L2124 708 Q2076 740 2019.5 757 Q1963 774 1909 774 Q1871 774 1838 765.5 Q1805 757 1781 740.5 Q1757 724 1743.5 699 Q1730 674 1730 642 Q1730 594 1767.5 563.5 Q1805 533 1879 506 Q1943 482 1996 458 Q2049 434 2086.5 403 Q2124 372 2145 331 Q2166 290 2166 232 Q2166 169 2142.5 121 Q2119 73 2077 41 Q2035 9 1976.5 -7.5 Q1918 -24 1849 -24 Q1774 -24 1710 -8 Q1646 8 1599 41 L1599 184 Z " />
<glyph glyph-name="IJ" unicode="&#x132;" horiz-adv-x="1214" d="M319 0 L186 0 L186 1434 L319 1434 L319 0 Z M1038 504 Q1038 236 939 106 Q840 -24 659 -24 Q624 -24 593 -19.5 Q562 -15 536 -5 L536 126 Q592 96 661 96 Q788 96 846.5 196 Q905 296 905 504 L905 1434 L1038 1434 L1038 504 Z " />
<glyph glyph-name="ij" unicode="&#x133;" horiz-adv-x="927" d="M228 1283 Q191 1283 164 1309 Q137 1335 137 1375 Q137 1414 164 1439.5 Q191 1465 228 1465 Q247 1465 264 1458.5 Q281 1452 293.5 1440 Q306 1428 313.5 1411.5 Q321 1395 321 1375 Q321 1356 314 1339 Q307 1322 294 1309.5 Q281 1297 264.5 1290 Q248 1283 228 1283 Z M165 0 L165 1024 L293 1024 L293 0 L165 0 Z M762 36 Q762 -218 672 -350 Q582 -482 385 -482 Q315 -482 244 -448 L244 -324 Q322 -370 392 -370 Q634 -370 634 14 L634 1024 L762 1024 L762 36 Z M697 1283 Q660 1283 633 1309 Q606 1335 606 1375 Q606 1414 633 1439.5 Q660 1465 697 1465 Q716 1465 733 1458.5 Q750 1452 762.5 1440 Q775 1428 782.5 1411.5 Q790 1395 790 1375 Q790 1356 783 1339 Q776 1322 763 1309.5 Q750 1297 733.5 1290 Q717 1283 697 1283 Z " />
<glyph glyph-name="napostrophe" unicode="&#x149;" horiz-adv-x="1208" d="M937 0 L937 590 Q937 937 685 937 Q618 937 561 910.5 Q504 884 462.5 837 Q421 790 397.5 725.5 Q374 661 374 586 L374 0 L246 0 L246 1024 L374 1024 L374 846 L378 846 Q492 1048 721 1048 Q889 1048 977 939 Q1065 830 1065 624 L1065 0 L937 0 Z M63 998 L-33 998 L85 1446 L211 1446 L63 998 Z " />
<glyph glyph-name="minute" unicode="&#x2032;" horiz-adv-x="484" d="M345 1434 L245 982 L145 982 L220 1434 L345 1434 Z " />
<glyph glyph-name="second" unicode="&#x2033;" horiz-adv-x="791" d="M647 1434 L546 982 L446 982 L521 1434 L647 1434 Z M350 1434 L250 982 L150 982 L225 1434 L350 1434 Z " />
<glyph glyph-name="uni2105" unicode="&#x2105;" horiz-adv-x="1644" d="M742 1293 Q660 1354 568 1354 Q505 1354 453 1326 Q401 1298 363.5 1251.5 Q326 1205 305.5 1143.5 Q285 1082 285 1016 Q285 812 461 812 Q545 812 659 881 L630 759 Q532 713 440 713 Q376 713 325.5 734 Q275 755 240.5 793 Q206 831 188 885.5 Q170 940 170 1007 Q170 1102 200 1183.5 Q230 1265 284.5 1325 Q339 1385 415 1419.5 Q491 1454 582 1454 Q699 1454 772 1406 L742 1293 Z M1488 1434 L270 0 L143 0 L1361 1434 L1488 1434 Z M1142 -20 Q1072 -20 1018 1.5 Q964 23 927 62 Q890 101 870.5 155.5 Q851 210 851 276 Q851 364 881.5 444.5 Q912 525 965 586 Q1018 647 1090 683.5 Q1162 720 1245 720 Q1310 720 1362 700 Q1414 680 1451 642.5 Q1488 605 1508 550.5 Q1528 496 1528 428 Q1528 338 1498 257 Q1468 176 1416 114.5 Q1364 53 1293.5 16.5 Q1223 -20 1142 -20 Z M1242 625 Q1184 625 1133 594.5 Q1082 564 1044.5 514.5 Q1007 465 985.5 402.5 Q964 340 964 275 Q964 75 1145 75 Q1202 75 1251 103.5 Q1300 132 1336.5 180 Q1373 228 1393.5 291 Q1414 354 1414 423 Q1414 625 1242 625 Z " />
<glyph glyph-name="uni2113" unicode="&#x2113;" horiz-adv-x="662" d="M8 437 L192 667 L192 1112 Q192 1205 204 1276 Q216 1347 243.5 1394.5 Q271 1442 316.5 1466.5 Q362 1491 428 1491 Q477 1491 517 1474.5 Q557 1458 585.5 1428 Q614 1398 629.5 1356.5 Q645 1315 645 1265 Q645 1212 625 1150 Q605 1088 564.5 1014.5 Q524 941 463.5 854 Q403 767 322 664 L322 256 Q322 167 343 128 Q364 89 418 89 Q453 89 502 117 Q551 145 616 195 L616 65 Q562 20 508 -2 Q454 -24 391 -24 Q291 -24 241.5 39.5 Q192 103 192 240 L192 498 L87 371 L8 437 Z M322 842 Q382 926 422 987.5 Q462 1049 486 1097.5 Q510 1146 520 1185.5 Q530 1225 530 1264 Q530 1330 502 1360 Q474 1390 430 1390 Q399 1390 378 1376.5 Q357 1363 344.5 1331 Q332 1299 327 1247 Q322 1195 322 1117 L322 842 Z " />
<glyph glyph-name="H22073" unicode="&#x25a1;" horiz-adv-x="1237" d="M146 944 L1091 944 L1091 0 L146 0 L146 944 Z M222 868 L222 76 L1015 76 L1015 868 L222 868 Z " />
<glyph glyph-name="H18543" unicode="&#x25aa;" horiz-adv-x="725" d="M594 907 L594 444 L131 444 L131 907 L594 907 Z " />
<glyph glyph-name="H18551" unicode="&#x25ab;" horiz-adv-x="725" d="M594 907 L594 444 L131 444 L131 907 L594 907 Z M518 831 L207 831 L207 520 L518 520 L518 831 Z " />
<glyph glyph-name="H18533" unicode="&#x25cf;" horiz-adv-x="1237" d="M618 1018 Q719 1018 800.5 979 Q882 940 939.5 877.5 Q997 815 1028 736.5 Q1059 658 1059 578 Q1059 487 1024.5 407 Q990 327 930.5 267 Q871 207 791 172 Q711 137 620 137 Q528 137 447.5 171.5 Q367 206 307 266 Q247 326 212.5 406.5 Q178 487 178 578 Q178 678 216 759 Q254 840 316 897.5 Q378 955 457 986.5 Q536 1018 618 1018 Z " />
<glyph glyph-name="openbullet" unicode="&#x25e6;" horiz-adv-x="725" d="M614 678 Q614 625 594.5 579 Q575 533 541 499 Q507 465 461 445.5 Q415 426 363 426 Q311 426 265.5 446 Q220 466 186 500.5 Q152 535 132 580.5 Q112 626 112 678 Q112 729 131.5 774 Q151 819 185 853.5 Q219 888 265 908 Q311 928 363 928 Q414 928 459.5 908 Q505 888 539.5 853.5 Q574 819 594 774 Q614 729 614 678 Z M188 678 Q188 641 201.5 609 Q215 577 239 553 Q263 529 295 515.5 Q327 502 364 502 Q401 502 432.5 516 Q464 530 487.5 554 Q511 578 524.5 610 Q538 642 538 678 Q538 714 524 745.5 Q510 777 486 801 Q462 825 430 838.5 Q398 852 362 852 Q327 852 295.5 838 Q264 824 240 800 Q216 776 202 744.5 Q188 713 188 678 Z " />
<glyph glyph-name="Amacron" unicode="&#x100;" horiz-adv-x="1303" d="M1115 0 L957 424 L342 424 L188 0 L40 0 L586 1434 L720 1434 L1263 0 L1115 0 Z M678 1183 Q671 1202 663.5 1227 Q656 1252 651 1284 L647 1284 Q641 1252 633.5 1227 Q626 1202 619 1183 L387 545 L912 545 L678 1183 Z M396 1551 L396 1647 L904 1647 L904 1551 L396 1551 Z " />
<glyph glyph-name="amacron" unicode="&#x101;" horiz-adv-x="1026" d="M755 0 L755 182 L751 182 Q701 84 614.5 30 Q528 -24 419 -24 Q345 -24 285.5 -3 Q226 18 184.5 56.5 Q143 95 120.5 149 Q98 203 98 268 Q98 407 184 489.5 Q270 572 444 597 L755 642 Q755 937 526 937 Q347 937 194 806 L194 946 Q226 969 266.5 987.5 Q307 1006 352 1019.5 Q397 1033 444.5 1040.5 Q492 1048 537 1048 Q708 1048 795.5 952 Q883 856 883 666 L883 0 L755 0 Z M491 497 Q422 487 373 472 Q324 457 292 431.5 Q260 406 245 368.5 Q230 331 230 276 Q230 235 244.5 200 Q259 165 286.5 139.5 Q314 114 353.5 100 Q393 86 443 86 Q511 86 568 112 Q625 138 666.5 184 Q708 230 731.5 294 Q755 358 755 433 L755 534 L491 497 Z M279 1203 L279 1299 L787 1299 L787 1203 L279 1203 Z " />
<glyph glyph-name="Ccircumflex" unicode="&#x108;" horiz-adv-x="1270" d="M1150 53 Q984 -25 771 -25 Q619 -25 495 28.5 Q371 82 283.5 177 Q196 272 148.5 403 Q101 534 101 689 Q101 852 151.5 992.5 Q202 1133 296 1236.5 Q390 1340 523.5 1399 Q657 1458 823 1458 Q1006 1458 1150 1402 L1150 1260 Q996 1337 821 1337 Q682 1337 574 1289 Q466 1241 392 1155.5 Q318 1070 279 953.5 Q240 837 240 699 Q240 575 275 465.5 Q310 356 378.5 274 Q447 192 549 144 Q651 96 786 96 Q993 96 1150 183 L1150 53 Z M922 1551 L761 1785 L599 1551 L501 1551 L719 1885 L808 1885 L1026 1551 L922 1551 Z " />
<glyph glyph-name="ccircumflex" unicode="&#x109;" horiz-adv-x="927" d="M846 46 Q732 -23 570 -25 Q460 -26 372 13 Q284 52 222 121.5 Q160 191 127 285.5 Q94 380 94 491 Q94 606 129 707.5 Q164 809 231 884.5 Q298 960 395 1004 Q492 1048 617 1048 Q744 1048 849 999 L849 863 Q737 937 607 937 Q516 937 445 902.5 Q374 868 325.5 808.5 Q277 749 251.5 669.5 Q226 590 226 501 Q226 419 247.5 344 Q269 269 313.5 211.5 Q358 154 426 120 Q494 86 586 86 Q730 86 846 172 L846 46 Z M712 1203 L551 1437 L389 1203 L291 1203 L509 1537 L598 1537 L816 1203 L712 1203 Z " />
<glyph glyph-name="Cdotaccent" unicode="&#x10a;" horiz-adv-x="1270" d="M1150 53 Q984 -25 771 -25 Q619 -25 495 28.5 Q371 82 283.5 177 Q196 272 148.5 403 Q101 534 101 689 Q101 852 151.5 992.5 Q202 1133 296 1236.5 Q390 1340 523.5 1399 Q657 1458 823 1458 Q1006 1458 1150 1402 L1150 1260 Q996 1337 821 1337 Q682 1337 574 1289 Q466 1241 392 1155.5 Q318 1070 279 953.5 Q240 837 240 699 Q240 575 275 465.5 Q310 356 378.5 274 Q447 192 549 144 Q651 96 786 96 Q993 96 1150 183 L1150 53 Z M767 1551 Q749 1551 733 1557.5 Q717 1564 705 1576 Q693 1588 686 1604 Q679 1620 679 1639 Q679 1657 686 1673 Q693 1689 705 1700 Q717 1711 732.5 1717.5 Q748 1724 766 1724 Q802 1724 828.5 1700.5 Q855 1677 855 1639 Q855 1602 829.5 1576.5 Q804 1551 767 1551 Z " />
<glyph glyph-name="cdotaccent" unicode="&#x10b;" horiz-adv-x="927" d="M846 46 Q732 -23 570 -25 Q460 -26 372 13 Q284 52 222 121.5 Q160 191 127 285.5 Q94 380 94 491 Q94 606 129 707.5 Q164 809 231 884.5 Q298 960 395 1004 Q492 1048 617 1048 Q744 1048 849 999 L849 863 Q737 937 607 937 Q516 937 445 902.5 Q374 868 325.5 808.5 Q277 749 251.5 669.5 Q226 590 226 501 Q226 419 247.5 344 Q269 269 313.5 211.5 Q358 154 426 120 Q494 86 586 86 Q730 86 846 172 L846 46 Z M578 1203 Q560 1203 544 1209.5 Q528 1216 516 1228 Q504 1240 497 1256 Q490 1272 490 1291 Q490 1309 497 1325 Q504 1341 516 1352 Q528 1363 543.5 1369.5 Q559 1376 577 1376 Q613 1376 639.5 1352.5 Q666 1329 666 1291 Q666 1254 640.5 1228.5 Q615 1203 578 1203 Z " />
<glyph glyph-name="Emacron" unicode="&#x112;" horiz-adv-x="1030" d="M186 0 L186 1434 L885 1434 L885 1312 L319 1312 L319 786 L843 786 L843 666 L319 666 L319 121 L917 121 L917 0 L186 0 Z M294 1551 L294 1647 L802 1647 L802 1551 L294 1551 Z " />
<glyph glyph-name="emacron" unicode="&#x113;" horiz-adv-x="1052" d="M226 489 Q227 395 251 320 Q275 245 320 193 Q365 141 429.5 113.5 Q494 86 575 86 Q748 86 902 207 L902 81 Q755 -24 546 -24 Q443 -24 359 12 Q275 48 216 116.5 Q157 185 125 285 Q93 385 93 513 Q93 628 128 726 Q163 824 225 895.5 Q287 967 372 1007.5 Q457 1048 558 1048 Q657 1048 733 1013.5 Q809 979 860.5 915 Q912 851 939 759 Q966 667 966 553 L966 489 L226 489 Z M834 601 Q831 761 758 849 Q685 937 555 937 Q490 937 434.5 914 Q379 891 337 847.5 Q295 804 267.5 741.5 Q240 679 229 601 L834 601 Z M298 1203 L298 1299 L806 1299 L806 1203 L298 1203 Z " />
<glyph glyph-name="Ebreve" unicode="&#x114;" horiz-adv-x="1030" d="M186 0 L186 1434 L885 1434 L885 1312 L319 1312 L319 786 L843 786 L843 666 L319 666 L319 121 L917 121 L917 0 L186 0 Z M816 1794 Q809 1739 786 1694.5 Q763 1650 727 1618 Q691 1586 643.5 1568.5 Q596 1551 541 1551 Q484 1551 436.5 1568 Q389 1585 354 1616.5 Q319 1648 298 1693 Q277 1738 274 1794 L366 1794 Q372 1718 418 1677.5 Q464 1637 543 1637 Q577 1637 607 1648.5 Q637 1660 661 1680.5 Q685 1701 700.5 1730 Q716 1759 721 1794 L816 1794 Z " />
<glyph glyph-name="ebreve" unicode="&#x115;" horiz-adv-x="1052" d="M226 489 Q227 395 251 320 Q275 245 320 193 Q365 141 429.5 113.5 Q494 86 575 86 Q748 86 902 207 L902 81 Q755 -24 546 -24 Q443 -24 359 12 Q275 48 216 116.5 Q157 185 125 285 Q93 385 93 513 Q93 628 128 726 Q163 824 225 895.5 Q287 967 372 1007.5 Q457 1048 558 1048 Q657 1048 733 1013.5 Q809 979 860.5 915 Q912 851 939 759 Q966 667 966 553 L966 489 L226 489 Z M834 601 Q831 761 758 849 Q685 937 555 937 Q490 937 434.5 914 Q379 891 337 847.5 Q295 804 267.5 741.5 Q240 679 229 601 L834 601 Z M820 1446 Q813 1391 790 1346.5 Q767 1302 731 1270 Q695 1238 647.5 1220.5 Q600 1203 545 1203 Q488 1203 440.5 1220 Q393 1237 358 1268.5 Q323 1300 302 1345 Q281 1390 278 1446 L370 1446 Q376 1370 422 1329.5 Q468 1289 547 1289 Q581 1289 611 1300.5 Q641 1312 665 1332.5 Q689 1353 704.5 1382 Q720 1411 725 1446 L820 1446 Z " />
<glyph glyph-name="Edotaccent" unicode="&#x116;" horiz-adv-x="1030" d="M186 0 L186 1434 L885 1434 L885 1312 L319 1312 L319 786 L843 786 L843 666 L319 666 L319 121 L917 121 L917 0 L186 0 Z M536 1551 Q518 1551 502 1557.5 Q486 1564 474 1576 Q462 1588 455 1604 Q448 1620 448 1639 Q448 1657 455 1673 Q462 1689 474 1700 Q486 1711 501.5 1717.5 Q517 1724 535 1724 Q571 1724 597.5 1700.5 Q624 1677 624 1639 Q624 1602 598.5 1576.5 Q573 1551 536 1551 Z " />
<glyph glyph-name="edotaccent" unicode="&#x117;" horiz-adv-x="1052" d="M226 489 Q227 395 251 320 Q275 245 320 193 Q365 141 429.5 113.5 Q494 86 575 86 Q748 86 902 207 L902 81 Q755 -24 546 -24 Q443 -24 359 12 Q275 48 216 116.5 Q157 185 125 285 Q93 385 93 513 Q93 628 128 726 Q163 824 225 895.5 Q287 967 372 1007.5 Q457 1048 558 1048 Q657 1048 733 1013.5 Q809 979 860.5 915 Q912 851 939 759 Q966 667 966 553 L966 489 L226 489 Z M834 601 Q831 761 758 849 Q685 937 555 937 Q490 937 434.5 914 Q379 891 337 847.5 Q295 804 267.5 741.5 Q240 679 229 601 L834 601 Z M558 1203 Q540 1203 524 1209.5 Q508 1216 496 1228 Q484 1240 477 1256 Q470 1272 470 1291 Q470 1309 477 1325 Q484 1341 496 1352 Q508 1363 523.5 1369.5 Q539 1376 557 1376 Q593 1376 619.5 1352.5 Q646 1329 646 1291 Q646 1254 620.5 1228.5 Q595 1203 558 1203 Z " />
<glyph glyph-name="Gcircumflex" unicode="&#x11c;" horiz-adv-x="1386" d="M1240 99 Q1019 -25 772 -25 Q616 -25 492 28.5 Q368 82 281 177.5 Q194 273 147.5 405.5 Q101 538 101 697 Q101 802 123.5 899 Q146 996 189.5 1081 Q233 1166 296 1235 Q359 1304 440.5 1354 Q522 1404 620 1431 Q718 1458 831 1458 Q1044 1458 1211 1382 L1211 1235 Q1027 1337 815 1337 Q684 1337 578 1289 Q472 1241 397.5 1157 Q323 1073 282 958.5 Q241 844 240 710 Q239 577 274.5 464.5 Q310 352 380 270 Q450 188 553 142 Q656 96 791 96 Q973 96 1107 172 L1107 609 L781 609 L781 730 L1240 730 L1240 99 Z M936 1551 L775 1785 L613 1551 L515 1551 L733 1885 L822 1885 L1040 1551 L936 1551 Z " />
<glyph glyph-name="gcircumflex" unicode="&#x11d;" horiz-adv-x="1176" d="M1011 79 Q1011 -206 881.5 -343.5 Q752 -481 482 -481 Q314 -481 164 -406 L164 -276 Q331 -369 482 -369 Q883 -369 883 55 L883 178 L879 178 Q761 -24 519 -24 Q424 -24 345.5 11 Q267 46 211 112 Q155 178 124 272.5 Q93 367 93 486 Q93 612 126 715.5 Q159 819 220 893 Q281 967 367.5 1007.5 Q454 1048 562 1048 Q779 1048 879 872 L883 872 L883 1024 L1011 1024 L1011 79 Z M883 622 Q883 686 860 743 Q837 800 796 843 Q755 886 698.5 911.5 Q642 937 574 937 Q494 937 429.5 906 Q365 875 319.5 818 Q274 761 249.5 679.5 Q225 598 225 496 Q225 402 248 326 Q271 250 313 197 Q355 144 414.5 115 Q474 86 547 86 Q623 86 685 113.5 Q747 141 791 189.5 Q835 238 859 303.5 Q883 369 883 445 L883 622 Z M736 1203 L575 1437 L413 1203 L315 1203 L533 1537 L622 1537 L840 1203 L736 1203 Z " />
<glyph glyph-name="Gdotaccent" unicode="&#x120;" horiz-adv-x="1386" d="M1240 99 Q1019 -25 772 -25 Q616 -25 492 28.5 Q368 82 281 177.5 Q194 273 147.5 405.5 Q101 538 101 697 Q101 802 123.5 899 Q146 996 189.5 1081 Q233 1166 296 1235 Q359 1304 440.5 1354 Q522 1404 620 1431 Q718 1458 831 1458 Q1044 1458 1211 1382 L1211 1235 Q1027 1337 815 1337 Q684 1337 578 1289 Q472 1241 397.5 1157 Q323 1073 282 958.5 Q241 844 240 710 Q239 577 274.5 464.5 Q310 352 380 270 Q450 188 553 142 Q656 96 791 96 Q973 96 1107 172 L1107 609 L781 609 L781 730 L1240 730 L1240 99 Z M784 1551 Q766 1551 750 1557.5 Q734 1564 722 1576 Q710 1588 703 1604 Q696 1620 696 1639 Q696 1657 703 1673 Q710 1689 722 1700 Q734 1711 749.5 1717.5 Q765 1724 783 1724 Q819 1724 845.5 1700.5 Q872 1677 872 1639 Q872 1602 846.5 1576.5 Q821 1551 784 1551 Z " />
<glyph glyph-name="gdotaccent" unicode="&#x121;" horiz-adv-x="1176" d="M1011 79 Q1011 -206 881.5 -343.5 Q752 -481 482 -481 Q314 -481 164 -406 L164 -276 Q331 -369 482 -369 Q883 -369 883 55 L883 178 L879 178 Q761 -24 519 -24 Q424 -24 345.5 11 Q267 46 211 112 Q155 178 124 272.5 Q93 367 93 486 Q93 612 126 715.5 Q159 819 220 893 Q281 967 367.5 1007.5 Q454 1048 562 1048 Q779 1048 879 872 L883 872 L883 1024 L1011 1024 L1011 79 Z M883 622 Q883 686 860 743 Q837 800 796 843 Q755 886 698.5 911.5 Q642 937 574 937 Q494 937 429.5 906 Q365 875 319.5 818 Q274 761 249.5 679.5 Q225 598 225 496 Q225 402 248 326 Q271 250 313 197 Q355 144 414.5 115 Q474 86 547 86 Q623 86 685 113.5 Q747 141 791 189.5 Q835 238 859 303.5 Q883 369 883 445 L883 622 Z M566 1203 Q548 1203 532 1209.5 Q516 1216 504 1228 Q492 1240 485 1256 Q478 1272 478 1291 Q478 1309 485 1325 Q492 1341 504 1352 Q516 1363 531.5 1369.5 Q547 1376 565 1376 Q601 1376 627.5 1352.5 Q654 1329 654 1291 Q654 1254 628.5 1228.5 Q603 1203 566 1203 Z " />
<glyph glyph-name="uni0122" unicode="&#x122;" horiz-adv-x="1386" d="M1240 99 Q1019 -25 772 -25 Q616 -25 492 28.5 Q368 82 281 177.5 Q194 273 147.5 405.5 Q101 538 101 697 Q101 802 123.5 899 Q146 996 189.5 1081 Q233 1166 296 1235 Q359 1304 440.5 1354 Q522 1404 620 1431 Q718 1458 831 1458 Q1044 1458 1211 1382 L1211 1235 Q1027 1337 815 1337 Q684 1337 578 1289 Q472 1241 397.5 1157 Q323 1073 282 958.5 Q241 844 240 710 Q239 577 274.5 464.5 Q310 352 380 270 Q450 188 553 142 Q656 96 791 96 Q973 96 1107 172 L1107 609 L781 609 L781 730 L1240 730 L1240 99 Z M858 -119 L712 -379 L611 -379 L716 -119 L858 -119 Z " />
<glyph glyph-name="uni0123" unicode="&#x123;" horiz-adv-x="1176" d="M1011 79 Q1011 -206 881.5 -343.5 Q752 -481 482 -481 Q314 -481 164 -406 L164 -276 Q331 -369 482 -369 Q883 -369 883 55 L883 178 L879 178 Q761 -24 519 -24 Q424 -24 345.5 11 Q267 46 211 112 Q155 178 124 272.5 Q93 367 93 486 Q93 612 126 715.5 Q159 819 220 893 Q281 967 367.5 1007.5 Q454 1048 562 1048 Q779 1048 879 872 L883 872 L883 1024 L1011 1024 L1011 79 Z M883 622 Q883 686 860 743 Q837 800 796 843 Q755 886 698.5 911.5 Q642 937 574 937 Q494 937 429.5 906 Q365 875 319.5 818 Q274 761 249.5 679.5 Q225 598 225 496 Q225 402 248 326 Q271 250 313 197 Q355 144 414.5 115 Q474 86 547 86 Q623 86 685 113.5 Q747 141 791 189.5 Q835 238 859 303.5 Q883 369 883 445 L883 622 Z M479 1218 L625 1478 L726 1478 L621 1218 L479 1218 Z " />
<glyph glyph-name="Hcircumflex" unicode="&#x124;" horiz-adv-x="1420" d="M1101 0 L1101 671 L319 671 L319 0 L186 0 L186 1434 L319 1434 L319 791 L1101 791 L1101 1434 L1234 1434 L1234 0 L1101 0 Z M866 1551 L705 1785 L543 1551 L445 1551 L663 1885 L752 1885 L970 1551 L866 1551 Z " />
<glyph glyph-name="hcircumflex" unicode="&#x125;" horiz-adv-x="1127" d="M856 0 L856 602 Q856 774 794 855.5 Q732 937 601 937 Q539 937 483 912 Q427 887 385 840 Q343 793 318 725.5 Q293 658 293 573 L293 0 L165 0 L165 1516 L293 1516 L293 847 L297 847 Q417 1048 641 1048 Q812 1048 898 943 Q984 838 984 633 L984 0 L856 0 Z M760 1632 L599 1866 L437 1632 L339 1632 L557 1966 L646 1966 L864 1632 L760 1632 Z " />
<glyph glyph-name="Hbar" unicode="&#x126;" horiz-adv-x="1420" d="M44 1036 L44 1158 L186 1158 L186 1434 L319 1434 L319 1158 L1101 1158 L1101 1434 L1234 1434 L1234 1158 L1375 1158 L1375 1036 L1234 1036 L1234 0 L1101 0 L1101 671 L319 671 L319 0 L186 0 L186 1036 L44 1036 Z M1101 791 L1101 1036 L319 1036 L319 791 L1101 791 Z " />
<glyph glyph-name="hbar" unicode="&#x127;" horiz-adv-x="1127" d="M867 0 L867 590 Q867 761 805 843 Q743 925 612 925 Q563 925 508.5 904 Q454 883 408.5 838.5 Q363 794 333.5 725.5 Q304 657 304 561 L304 0 L176 0 L176 1216 L40 1216 L40 1325 L176 1325 L176 1516 L304 1516 L304 1325 L665 1325 L665 1216 L304 1216 L304 834 L308 834 Q363 927 448.5 981.5 Q534 1036 652 1036 Q822 1036 908.5 927.5 Q995 819 995 620 L995 0 L867 0 Z " />
<glyph glyph-name="Itilde" unicode="&#x128;" horiz-adv-x="506" d="M319 0 L186 0 L186 1434 L319 1434 L319 0 Z M570 1788 Q570 1737 557.5 1695 Q545 1653 522 1622.5 Q499 1592 466 1575 Q433 1558 391 1558 Q323 1558 235 1622 Q165 1671 116 1671 Q21 1671 21 1543 L-62 1543 Q-62 1594 -49.5 1636 Q-37 1678 -14 1708 Q9 1738 42 1754.5 Q75 1771 117 1771 Q185 1771 271 1709 Q342 1658 394 1658 Q435 1658 459.5 1690.5 Q484 1723 484 1788 L570 1788 Z " />
<glyph glyph-name="itilde" unicode="&#x129;" horiz-adv-x="458" d="M165 0 L165 1024 L293 1024 L293 0 L165 0 Z M542 1440 Q542 1389 529.5 1347 Q517 1305 494 1274.5 Q471 1244 438 1227 Q405 1210 363 1210 Q295 1210 207 1274 Q137 1323 88 1323 Q-7 1323 -7 1195 L-90 1195 Q-90 1246 -77.5 1288 Q-65 1330 -42 1360 Q-19 1390 14 1406.5 Q47 1423 89 1423 Q157 1423 243 1361 Q314 1310 366 1310 Q407 1310 431.5 1342.5 Q456 1375 456 1440 L542 1440 Z " />
<glyph glyph-name="Imacron" unicode="&#x12a;" horiz-adv-x="506" d="M319 0 L186 0 L186 1434 L319 1434 L319 0 Z M-1 1551 L-1 1647 L507 1647 L507 1551 L-1 1551 Z " />
<glyph glyph-name="imacron" unicode="&#x12b;" horiz-adv-x="458" d="M165 0 L165 1024 L293 1024 L293 0 L165 0 Z M-24 1203 L-24 1299 L484 1299 L484 1203 L-24 1203 Z " />
<glyph glyph-name="Ibreve" unicode="&#x12c;" horiz-adv-x="506" d="M319 0 L186 0 L186 1434 L319 1434 L319 0 Z M523 1794 Q516 1739 493 1694.5 Q470 1650 434 1618 Q398 1586 350.5 1568.5 Q303 1551 248 1551 Q191 1551 143.5 1568 Q96 1585 61 1616.5 Q26 1648 5 1693 Q-16 1738 -19 1794 L73 1794 Q79 1718 125 1677.5 Q171 1637 250 1637 Q284 1637 314 1648.5 Q344 1660 368 1680.5 Q392 1701 407.5 1730 Q423 1759 428 1794 L523 1794 Z " />
<glyph glyph-name="ibreve" unicode="&#x12d;" horiz-adv-x="458" d="M165 0 L165 1024 L293 1024 L293 0 L165 0 Z M495 1446 Q488 1391 465 1346.5 Q442 1302 406 1270 Q370 1238 322.5 1220.5 Q275 1203 220 1203 Q163 1203 115.5 1220 Q68 1237 33 1268.5 Q-2 1300 -23 1345 Q-44 1390 -47 1446 L45 1446 Q51 1370 97 1329.5 Q143 1289 222 1289 Q256 1289 286 1300.5 Q316 1312 340 1332.5 Q364 1353 379.5 1382 Q395 1411 400 1446 L495 1446 Z " />
<glyph glyph-name="Iogonek" unicode="&#x12e;" horiz-adv-x="506" d="M319 0 L186 0 L186 1434 L319 1434 L319 0 Z M381 0 Q221 -139 221 -232 Q221 -311 297 -311 Q332 -311 365 -296 L365 -384 Q327 -400 277 -400 Q204 -400 159.5 -360 Q115 -320 115 -248 Q115 -190 156 -125.5 Q197 -61 278 0 L381 0 Z " />
<glyph glyph-name="iogonek" unicode="&#x12f;" horiz-adv-x="458" d="M228 1283 Q191 1283 164 1309 Q137 1335 137 1375 Q137 1414 164 1439.5 Q191 1465 228 1465 Q247 1465 264 1458.5 Q281 1452 293.5 1440 Q306 1428 313.5 1411.5 Q321 1395 321 1375 Q321 1356 314 1339 Q307 1322 294 1309.5 Q281 1297 264.5 1290 Q248 1283 228 1283 Z M165 0 L165 1024 L293 1024 L293 0 L165 0 Z M286 0 Q126 -139 126 -232 Q126 -311 202 -311 Q237 -311 270 -296 L270 -384 Q232 -400 182 -400 Q109 -400 64.5 -360 Q20 -320 20 -248 Q20 -190 61 -125.5 Q102 -61 183 0 L286 0 Z " />
<glyph glyph-name="Jcircumflex" unicode="&#x134;" horiz-adv-x="697" d="M521 504 Q521 236 422 106 Q323 -24 142 -24 Q107 -24 76 -19.5 Q45 -15 19 -5 L19 126 Q75 96 144 96 Q271 96 329.5 196 Q388 296 388 504 L388 1434 L521 1434 L521 504 Z M611 1551 L450 1785 L288 1551 L190 1551 L408 1885 L497 1885 L715 1551 L611 1551 Z " />
<glyph glyph-name="jcircumflex" unicode="&#x135;" horiz-adv-x="458" d="M293 36 Q293 -218 203 -350 Q113 -482 -84 -482 Q-154 -482 -225 -448 L-225 -324 Q-147 -370 -77 -370 Q165 -370 165 14 L165 1024 L293 1024 L293 36 Z M387 1203 L226 1437 L64 1203 L-34 1203 L184 1537 L273 1537 L491 1203 L387 1203 Z " />
<glyph glyph-name="uni0136" unicode="&#x136;" horiz-adv-x="1133" d="M937 0 L354 671 Q330 700 323 712 L319 712 L319 0 L186 0 L186 1434 L319 1434 L319 759 L323 759 Q330 770 338 780 Q346 790 355 801 L913 1434 L1082 1434 L460 742 L1123 0 L937 0 Z M705 -119 L559 -379 L458 -379 L563 -119 L705 -119 Z " />
<glyph glyph-name="uni0137" unicode="&#x137;" horiz-adv-x="963" d="M768 0 L297 499 L293 499 L293 0 L165 0 L165 1516 L293 1516 L293 547 L297 547 L744 1024 L911 1024 L431 529 L949 0 L768 0 Z M601 -119 L455 -379 L354 -379 L459 -119 L601 -119 Z " />
<glyph glyph-name="kgreenlandic" unicode="&#x138;" horiz-adv-x="963" d="M768 0 L297 499 L293 499 L293 0 L165 0 L165 1024 L293 1024 L293 547 L297 547 L744 1024 L911 1024 L431 529 L949 0 L768 0 Z " />
<glyph glyph-name="uni013B" unicode="&#x13b;" horiz-adv-x="951" d="M186 0 L186 1434 L319 1434 L319 121 L895 121 L895 0 L186 0 Z M763 -260 Q763 -433 498 -433 Q461 -433 426 -430 L426 -348 Q473 -354 504 -354 Q654 -354 654 -263 Q654 -181 517 -181 Q506 -181 493.5 -182 Q481 -183 465 -185 L465 0 L555 0 L555 -111 Q655 -111 709 -149 Q763 -187 763 -260 Z " />
<glyph glyph-name="uni013C" unicode="&#x13c;" horiz-adv-x="458" d="M165 0 L165 1516 L293 1516 L293 0 L165 0 Z M476 -260 Q476 -433 211 -433 Q174 -433 139 -430 L139 -348 Q186 -354 217 -354 Q367 -354 367 -263 Q367 -181 230 -181 Q219 -181 206.5 -182 Q194 -183 178 -185 L178 0 L268 0 L268 -111 Q368 -111 422 -149 Q476 -187 476 -260 Z " />
<glyph glyph-name="uni0145" unicode="&#x145;" horiz-adv-x="1492" d="M1168 0 L372 1151 Q357 1173 342.5 1196 Q328 1219 319 1241 L314 1241 Q316 1223 317.5 1191 Q319 1159 319 1111 L319 0 L186 0 L186 1434 L333 1434 L1116 297 Q1134 270 1148.5 246.5 Q1163 223 1175 203 L1180 203 Q1176 236 1174 277 Q1172 318 1172 368 L1172 1434 L1306 1434 L1306 0 L1168 0 Z M834 -119 L688 -379 L587 -379 L692 -119 L834 -119 Z " />
<glyph glyph-name="uni0146" unicode="&#x146;" horiz-adv-x="1127" d="M856 0 L856 590 Q856 937 604 937 Q537 937 480 910.5 Q423 884 381.5 837 Q340 790 316.5 725.5 Q293 661 293 586 L293 0 L165 0 L165 1024 L293 1024 L293 846 L297 846 Q411 1048 640 1048 Q808 1048 896 939 Q984 830 984 624 L984 0 L856 0 Z M660 -119 L514 -379 L413 -379 L518 -119 L660 -119 Z " />
<glyph glyph-name="Eng" unicode="&#x14a;" horiz-adv-x="1492" d="M1306 32 Q1306 -422 959 -422 Q891 -422 836 -399 L836 -269 Q905 -301 962 -301 Q1021 -301 1061 -278 Q1101 -255 1125.5 -214.5 Q1150 -174 1161.5 -119 Q1173 -64 1176 0 L372 1151 Q358 1171 344 1193 Q330 1215 319 1241 L314 1241 Q316 1221 317.5 1188.5 Q319 1156 319 1111 L319 0 L186 0 L186 1434 L333 1434 L1116 315 Q1127 299 1140 277.5 Q1153 256 1175 217 L1180 217 Q1176 252 1174 294.5 Q1172 337 1172 387 L1172 1434 L1306 1434 L1306 32 Z " />
<glyph glyph-name="eng" unicode="&#x14b;" horiz-adv-x="1127" d="M984 14 Q984 -207 903 -314.5 Q822 -422 657 -422 Q623 -422 587 -414 Q551 -406 522 -389 L522 -259 Q557 -282 592 -293 Q627 -304 659 -304 Q760 -304 808 -229 Q856 -154 856 1 L856 590 Q856 937 604 937 Q533 937 475.5 908.5 Q418 880 377.5 831.5 Q337 783 315 719.5 Q293 656 293 586 L293 0 L165 0 L165 1024 L293 1024 L293 846 L297 846 Q411 1048 640 1048 Q811 1048 897.5 940.5 Q984 833 984 624 L984 14 Z " />
<glyph glyph-name="Omacron" unicode="&#x14c;" horiz-adv-x="1551" d="M770 -25 Q615 -25 491 31.5 Q367 88 280.5 186 Q194 284 147.5 416.5 Q101 549 101 701 Q101 869 147.5 1008.5 Q194 1148 283 1247.5 Q372 1347 501 1402.5 Q630 1458 795 1458 Q947 1458 1068 1403.5 Q1189 1349 1274 1252.5 Q1359 1156 1404.5 1024 Q1450 892 1450 737 Q1450 574 1405.5 434.5 Q1361 295 1274.5 193 Q1188 91 1061.5 33 Q935 -25 770 -25 Z M781 1337 Q651 1337 550.5 1287.5 Q450 1238 381 1153.5 Q312 1069 276.5 955.5 Q241 842 240 714 Q239 592 271.5 480.5 Q304 369 369.5 283.5 Q435 198 535 147 Q635 96 769 96 Q903 96 1004.5 142.5 Q1106 189 1174 271.5 Q1242 354 1276.5 468 Q1311 582 1311 717 Q1311 843 1280.5 956 Q1250 1069 1185.5 1153.5 Q1121 1238 1021 1287.5 Q921 1337 781 1337 Z M521 1551 L521 1647 L1029 1647 L1029 1551 L521 1551 Z " />
<glyph glyph-name="omacron" unicode="&#x14d;" horiz-adv-x="1174" d="M584 -24 Q470 -24 379.5 14 Q289 52 225 121.5 Q161 191 127 288 Q93 385 93 503 Q93 631 129 732 Q165 833 231.5 903.5 Q298 974 392 1011 Q486 1048 602 1048 Q713 1048 802 1011.5 Q891 975 953 906 Q1015 837 1048 738 Q1081 639 1081 513 Q1081 393 1046.5 294.5 Q1012 196 948 125 Q884 54 792 15 Q700 -24 584 -24 Z M594 937 Q510 937 442 908 Q374 879 325.5 823.5 Q277 768 251 687.5 Q225 607 225 505 Q225 409 251 332 Q277 255 324.5 200 Q372 145 440 115.5 Q508 86 592 86 Q678 86 744 114.5 Q810 143 856 197.5 Q902 252 925.5 331 Q949 410 949 511 Q949 718 857 827.5 Q765 937 594 937 Z M333 1203 L333 1299 L841 1299 L841 1203 L333 1203 Z " />
<glyph glyph-name="Obreve" unicode="&#x14e;" horiz-adv-x="1551" d="M770 -25 Q615 -25 491 31.5 Q367 88 280.5 186 Q194 284 147.5 416.5 Q101 549 101 701 Q101 869 147.5 1008.5 Q194 1148 283 1247.5 Q372 1347 501 1402.5 Q630 1458 795 1458 Q947 1458 1068 1403.5 Q1189 1349 1274 1252.5 Q1359 1156 1404.5 1024 Q1450 892 1450 737 Q1450 574 1405.5 434.5 Q1361 295 1274.5 193 Q1188 91 1061.5 33 Q935 -25 770 -25 Z M781 1337 Q651 1337 550.5 1287.5 Q450 1238 381 1153.5 Q312 1069 276.5 955.5 Q241 842 240 714 Q239 592 271.5 480.5 Q304 369 369.5 283.5 Q435 198 535 147 Q635 96 769 96 Q903 96 1004.5 142.5 Q1106 189 1174 271.5 Q1242 354 1276.5 468 Q1311 582 1311 717 Q1311 843 1280.5 956 Q1250 1069 1185.5 1153.5 Q1121 1238 1021 1287.5 Q921 1337 781 1337 Z M1057 1794 Q1050 1739 1027 1694.5 Q1004 1650 968 1618 Q932 1586 884.5 1568.5 Q837 1551 782 1551 Q725 1551 677.5 1568 Q630 1585 595 1616.5 Q560 1648 539 1693 Q518 1738 515 1794 L607 1794 Q613 1718 659 1677.5 Q705 1637 784 1637 Q818 1637 848 1648.5 Q878 1660 902 1680.5 Q926 1701 941.5 1730 Q957 1759 962 1794 L1057 1794 Z " />
<glyph glyph-name="obreve" unicode="&#x14f;" horiz-adv-x="1174" d="M584 -24 Q470 -24 379.5 14 Q289 52 225 121.5 Q161 191 127 288 Q93 385 93 503 Q93 631 129 732 Q165 833 231.5 903.5 Q298 974 392 1011 Q486 1048 602 1048 Q713 1048 802 1011.5 Q891 975 953 906 Q1015 837 1048 738 Q1081 639 1081 513 Q1081 393 1046.5 294.5 Q1012 196 948 125 Q884 54 792 15 Q700 -24 584 -24 Z M594 937 Q510 937 442 908 Q374 879 325.5 823.5 Q277 768 251 687.5 Q225 607 225 505 Q225 409 251 332 Q277 255 324.5 200 Q372 145 440 115.5 Q508 86 592 86 Q678 86 744 114.5 Q810 143 856 197.5 Q902 252 925.5 331 Q949 410 949 511 Q949 718 857 827.5 Q765 937 594 937 Z M873 1446 Q866 1391 843 1346.5 Q820 1302 784 1270 Q748 1238 700.5 1220.5 Q653 1203 598 1203 Q541 1203 493.5 1220 Q446 1237 411 1268.5 Q376 1300 355 1345 Q334 1390 331 1446 L423 1446 Q429 1370 475 1329.5 Q521 1289 600 1289 Q634 1289 664 1300.5 Q694 1312 718 1332.5 Q742 1353 757.5 1382 Q773 1411 778 1446 L873 1446 Z " />
<glyph glyph-name="uni0156" unicode="&#x156;" horiz-adv-x="1181" d="M967 0 L751 411 Q719 472 689 513 Q659 554 627 578.5 Q595 603 558.5 613.5 Q522 624 477 624 L319 624 L319 0 L186 0 L186 1434 L599 1434 Q680 1434 755.5 1410 Q831 1386 890 1339 Q949 1292 984.5 1221 Q1020 1150 1020 1056 Q1020 980 997 916 Q974 852 931.5 802.5 Q889 753 828.5 718.5 Q768 684 692 667 L692 663 Q721 651 745 632 Q769 613 791.5 586 Q814 559 836 524 Q858 489 882 444 L1123 0 L967 0 Z M319 1312 L319 745 L557 745 Q629 745 689 766 Q749 787 791.5 826 Q834 865 857.5 920 Q881 975 881 1044 Q881 1169 800.5 1240.5 Q720 1312 568 1312 L319 1312 Z M689 -119 L543 -379 L442 -379 L547 -119 L689 -119 Z " />
<glyph glyph-name="uni0157" unicode="&#x157;" horiz-adv-x="694" d="M673 893 Q628 926 557 926 Q506 926 467 906.5 Q428 887 398.5 854 Q369 821 348.5 777.5 Q328 734 315.5 687 Q303 640 297.5 592 Q292 544 292 501 L292 0 L165 0 L165 1024 L292 1024 L292 805 L296 805 Q314 861 341.5 905.5 Q369 950 405 980.5 Q441 1011 483.5 1027 Q526 1043 573 1043 Q604 1043 628.5 1039 Q653 1035 673 1027 L673 893 Z M506 -119 L360 -379 L259 -379 L364 -119 L506 -119 Z " />
<glyph glyph-name="Scircumflex" unicode="&#x15c;" horiz-adv-x="1053" d="M130 210 Q166 183 209.5 161.5 Q253 140 298.5 125.5 Q344 111 390 103.5 Q436 96 478 96 Q641 96 722 159 Q803 222 803 340 Q803 397 784 439.5 Q765 482 725 519 Q685 556 624 592.5 Q563 629 480 675 Q388 725 322.5 769.5 Q257 814 215.5 860.5 Q174 907 154.5 961 Q135 1015 135 1084 Q135 1171 172 1240 Q209 1309 272 1357.5 Q335 1406 419.5 1432 Q504 1458 600 1458 Q769 1458 883 1411 L883 1264 Q756 1337 585 1337 Q521 1337 464.5 1321.5 Q408 1306 365.5 1276 Q323 1246 298.5 1201.5 Q274 1157 274 1098 Q274 1042 290.5 1001.5 Q307 961 343.5 925 Q380 889 439.5 853.5 Q499 818 585 772 Q675 724 742 678.5 Q809 633 853.5 583.5 Q898 534 920 478.5 Q942 423 942 355 Q942 261 907 189.5 Q872 118 809 71 Q746 24 659 0 Q572 -24 468 -24 Q434 -24 387 -18.5 Q340 -13 292 -2.5 Q244 8 200.5 22.5 Q157 37 130 54 L130 210 Z M696 1551 L535 1785 L373 1551 L275 1551 L493 1885 L582 1885 L800 1551 L696 1551 Z " />
<glyph glyph-name="scircumflex" unicode="&#x15d;" horiz-adv-x="832" d="M107 184 Q136 161 170 143 Q204 125 240 112 Q276 99 312.5 92.5 Q349 86 382 86 Q610 86 610 257 Q610 296 594 324.5 Q578 353 548 376.5 Q518 400 476 420 Q434 440 381 462 Q310 491 259 521 Q208 551 175 586.5 Q142 622 126 664.5 Q110 707 110 761 Q110 829 139.5 882 Q169 935 219 972 Q269 1009 334.5 1028.5 Q400 1048 472 1048 Q605 1048 704 998 L704 863 Q589 937 456 937 Q408 937 368.5 925 Q329 913 301 891 Q273 869 257.5 838.5 Q242 808 242 771 Q242 733 254 704.5 Q266 676 291.5 653 Q317 630 357.5 609 Q398 588 456 564 Q530 534 584 504.5 Q638 475 673 440.5 Q708 406 725 363.5 Q742 321 742 265 Q742 196 713.5 142 Q685 88 634.5 51 Q584 14 516 -5 Q448 -24 368 -24 Q213 -24 107 41 L107 184 Z M582 1203 L421 1437 L259 1203 L161 1203 L379 1537 L468 1537 L686 1203 L582 1203 Z " />
<glyph glyph-name="Tbar" unicode="&#x166;" horiz-adv-x="1060" d="M596 1312 L596 781 L881 781 L881 658 L596 658 L596 0 L463 0 L463 658 L177 658 L177 781 L463 781 L463 1312 L50 1312 L50 1434 L1010 1434 L1010 1312 L596 1312 Z " />
<glyph glyph-name="tbar" unicode="&#x167;" horiz-adv-x="651" d="M605 12 Q539 -21 461 -21 Q213 -21 213 265 L213 559 L49 559 L49 668 L213 668 L213 912 L33 912 L33 1024 L213 1024 L213 1282 L341 1324 L341 1024 L605 1024 L605 912 L341 912 L341 668 L585 668 L585 559 L341 559 L341 285 Q341 181 375 135 Q409 89 490 89 Q548 89 605 125 L605 12 Z " />
<glyph glyph-name="Utilde" unicode="&#x168;" horiz-adv-x="1367" d="M1199 576 Q1199 -25 671 -25 Q168 -25 168 554 L168 1434 L301 1434 L301 566 Q301 330 396 213 Q491 96 690 96 Q1066 96 1066 552 L1066 1434 L1199 1434 L1199 576 Z M1002 1788 Q1002 1737 989.5 1695 Q977 1653 954 1622.5 Q931 1592 898 1575 Q865 1558 823 1558 Q755 1558 667 1622 Q597 1671 548 1671 Q453 1671 453 1543 L370 1543 Q370 1594 382.5 1636 Q395 1678 418 1708 Q441 1738 474 1754.5 Q507 1771 549 1771 Q617 1771 703 1709 Q774 1658 826 1658 Q867 1658 891.5 1690.5 Q916 1723 916 1788 L1002 1788 Z " />
<glyph glyph-name="utilde" unicode="&#x169;" horiz-adv-x="1128" d="M835 0 L835 174 L831 174 Q727 -24 508 -24 Q143 -24 143 422 L143 1024 L271 1024 L271 446 Q271 262 336.5 174 Q402 86 537 86 Q603 86 657.5 111.5 Q712 137 751.5 183.5 Q791 230 813 295 Q835 360 835 439 L835 1024 L963 1024 L963 0 L835 0 Z M870 1440 Q870 1389 857.5 1347 Q845 1305 822 1274.5 Q799 1244 766 1227 Q733 1210 691 1210 Q623 1210 535 1274 Q465 1323 416 1323 Q321 1323 321 1195 L238 1195 Q238 1246 250.5 1288 Q263 1330 286 1360 Q309 1390 342 1406.5 Q375 1423 417 1423 Q485 1423 571 1361 Q642 1310 694 1310 Q735 1310 759.5 1342.5 Q784 1375 784 1440 L870 1440 Z " />
<glyph glyph-name="Umacron" unicode="&#x16a;" horiz-adv-x="1367" d="M1199 576 Q1199 -25 671 -25 Q168 -25 168 554 L168 1434 L301 1434 L301 566 Q301 330 396 213 Q491 96 690 96 Q1066 96 1066 552 L1066 1434 L1199 1434 L1199 576 Z M429 1551 L429 1647 L937 1647 L937 1551 L429 1551 Z " />
<glyph glyph-name="umacron" unicode="&#x16b;" horiz-adv-x="1128" d="M835 0 L835 174 L831 174 Q727 -24 508 -24 Q143 -24 143 422 L143 1024 L271 1024 L271 446 Q271 262 336.5 174 Q402 86 537 86 Q603 86 657.5 111.5 Q712 137 751.5 183.5 Q791 230 813 295 Q835 360 835 439 L835 1024 L963 1024 L963 0 L835 0 Z M295 1203 L295 1299 L803 1299 L803 1203 L295 1203 Z " />
<glyph glyph-name="Ubreve" unicode="&#x16c;" horiz-adv-x="1367" d="M1199 576 Q1199 -25 671 -25 Q168 -25 168 554 L168 1434 L301 1434 L301 566 Q301 330 396 213 Q491 96 690 96 Q1066 96 1066 552 L1066 1434 L1199 1434 L1199 576 Z M950 1794 Q943 1739 920 1694.5 Q897 1650 861 1618 Q825 1586 777.5 1568.5 Q730 1551 675 1551 Q618 1551 570.5 1568 Q523 1585 488 1616.5 Q453 1648 432 1693 Q411 1738 408 1794 L500 1794 Q506 1718 552 1677.5 Q598 1637 677 1637 Q711 1637 741 1648.5 Q771 1660 795 1680.5 Q819 1701 834.5 1730 Q850 1759 855 1794 L950 1794 Z " />
<glyph glyph-name="ubreve" unicode="&#x16d;" horiz-adv-x="1128" d="M835 0 L835 174 L831 174 Q727 -24 508 -24 Q143 -24 143 422 L143 1024 L271 1024 L271 446 Q271 262 336.5 174 Q402 86 537 86 Q603 86 657.5 111.5 Q712 137 751.5 183.5 Q791 230 813 295 Q835 360 835 439 L835 1024 L963 1024 L963 0 L835 0 Z M824 1446 Q817 1391 794 1346.5 Q771 1302 735 1270 Q699 1238 651.5 1220.5 Q604 1203 549 1203 Q492 1203 444.5 1220 Q397 1237 362 1268.5 Q327 1300 306 1345 Q285 1390 282 1446 L374 1446 Q380 1370 426 1329.5 Q472 1289 551 1289 Q585 1289 615 1300.5 Q645 1312 669 1332.5 Q693 1353 708.5 1382 Q724 1411 729 1446 L824 1446 Z " />
<glyph glyph-name="Uogonek" unicode="&#x172;" horiz-adv-x="1367" d="M1199 576 Q1199 -25 671 -25 Q168 -25 168 554 L168 1434 L301 1434 L301 566 Q301 330 396 213 Q491 96 690 96 Q1066 96 1066 552 L1066 1434 L1199 1434 L1199 576 Z M835 0 Q675 -139 675 -232 Q675 -311 751 -311 Q786 -311 819 -296 L819 -384 Q781 -400 731 -400 Q658 -400 613.5 -360 Q569 -320 569 -248 Q569 -190 610 -125.5 Q651 -61 732 0 L835 0 Z " />
<glyph glyph-name="uogonek" unicode="&#x173;" horiz-adv-x="1128" d="M835 0 L835 174 L831 174 Q727 -24 508 -24 Q143 -24 143 422 L143 1024 L271 1024 L271 446 Q271 262 336.5 174 Q402 86 537 86 Q603 86 657.5 111.5 Q712 137 751.5 183.5 Q791 230 813 295 Q835 360 835 439 L835 1024 L963 1024 L963 0 L835 0 Z M938 0 Q778 -139 778 -232 Q778 -311 854 -311 Q889 -311 922 -296 L922 -384 Q884 -400 834 -400 Q761 -400 716.5 -360 Q672 -320 672 -248 Q672 -190 713 -125.5 Q754 -61 835 0 L938 0 Z " />
<glyph glyph-name="Wcircumflex" unicode="&#x174;" horiz-adv-x="1873" d="M1422 0 L1283 0 L976 1063 Q965 1101 958.5 1136 Q952 1171 951 1204 L947 1204 Q943 1146 918 1065 L600 0 L461 0 L38 1434 L186 1434 L502 309 Q513 272 519.5 238.5 Q526 205 530 174 L534 174 Q540 219 567 309 L903 1434 L1008 1434 L1323 305 Q1332 271 1339 238.5 Q1346 206 1350 175 L1354 175 Q1356 195 1362 220 Q1368 245 1376 276 L1690 1434 L1835 1434 L1422 0 Z M1111 1551 L950 1785 L788 1551 L690 1551 L908 1885 L997 1885 L1215 1551 L1111 1551 Z " />
<glyph glyph-name="wcircumflex" unicode="&#x175;" horiz-adv-x="1433" d="M1090 0 L962 0 L745 752 Q735 787 729 843 L725 843 Q723 828 718.5 806 Q714 784 704 754 L465 0 L340 0 L30 1024 L167 1024 L392 230 Q402 195 406 141 L414 141 Q416 159 420.5 182 Q425 205 433 231 L681 1024 L787 1024 L1009 229 Q1018 195 1024 140 L1032 140 Q1031 157 1036 179.5 Q1041 202 1049 229 L1274 1024 L1403 1024 L1090 0 Z M889 1203 L728 1437 L566 1203 L468 1203 L686 1537 L775 1537 L993 1203 L889 1203 Z " />
<glyph glyph-name="Ycircumflex" unicode="&#x176;" horiz-adv-x="1119" d="M617 537 L617 0 L484 0 L484 534 L34 1434 L185 1434 L513 764 Q519 752 529 728 Q539 704 553 667 L556 667 Q562 685 573 709 Q584 733 600 763 L943 1434 L1085 1434 L617 537 Z M717 1551 L556 1785 L394 1551 L296 1551 L514 1885 L603 1885 L821 1551 L717 1551 Z " />
<glyph glyph-name="ycircumflex" unicode="&#x177;" horiz-adv-x="959" d="M462 -186 Q402 -336 324 -408.5 Q246 -481 135 -481 Q80 -481 42 -468 L42 -348 Q64 -356 86.5 -360 Q109 -364 132 -364 Q195 -364 241.5 -324.5 Q288 -285 322 -205 L411 5 L17 1024 L159 1024 L452 213 Q458 197 463.5 176.5 Q469 156 474 136 L479 136 Q484 153 488.5 170.5 Q493 188 501 209 L812 1024 L947 1024 L462 -186 Z M643 1203 L482 1437 L320 1203 L222 1203 L440 1537 L529 1537 L747 1203 L643 1203 Z " />
<glyph glyph-name="longs" unicode="&#x17f;" horiz-adv-x="502" d="M583 1395 Q542 1423 473 1423 Q293 1423 293 1188 L293 0 L165 0 L165 1196 Q165 1264 183.5 1325.5 Q202 1387 240 1433.5 Q278 1480 335.5 1507.5 Q393 1535 470 1535 Q541 1535 583 1516 L583 1395 Z " />
<glyph glyph-name="Aringacute" unicode="&#x1fa;" horiz-adv-x="1304" d="M1115 0 L957 424 L342 424 L188 0 L40 0 L564 1376 Q447 1423 447 1546 Q447 1588 463 1623.5 Q479 1659 507 1684.5 Q535 1710 572.5 1724 Q610 1738 653 1738 Q696 1738 732.5 1724 Q769 1710 796 1685.5 Q823 1661 838.5 1626 Q854 1591 854 1549 Q854 1429 740 1379 L1263 0 L1115 0 Z M650 1663 Q596 1663 563 1631.5 Q530 1600 530 1549 Q530 1494 562 1464 Q594 1434 650 1434 Q703 1434 737.5 1466 Q772 1498 772 1549 Q772 1575 762.5 1596 Q753 1617 736.5 1632 Q720 1647 698 1655 Q676 1663 650 1663 Z M690 1151 Q679 1180 669.5 1209.5 Q660 1239 651 1284 L647 1284 Q641 1252 633.5 1227 Q626 1202 619 1183 L387 545 L912 545 L690 1151 Z M651 1802 L543 1802 L771 2130 L906 2130 L651 1802 Z " />
<glyph glyph-name="aringacute" unicode="&#x1fb;" horiz-adv-x="1026" d="M755 0 L755 182 L751 182 Q701 84 614.5 30 Q528 -24 419 -24 Q345 -24 285.5 -3 Q226 18 184.5 56.5 Q143 95 120.5 149 Q98 203 98 268 Q98 407 184 489.5 Q270 572 444 597 L755 642 Q755 937 526 937 Q347 937 194 806 L194 946 Q226 969 266.5 987.5 Q307 1006 352 1019.5 Q397 1033 444.5 1040.5 Q492 1048 537 1048 Q708 1048 795.5 952 Q883 856 883 666 L883 0 L755 0 Z M491 497 Q422 487 373 472 Q324 457 292 431.5 Q260 406 245 368.5 Q230 331 230 276 Q230 235 244.5 200 Q259 165 286.5 139.5 Q314 114 353.5 100 Q393 86 443 86 Q511 86 568 112 Q625 138 666.5 184 Q708 230 731.5 294 Q755 358 755 433 L755 534 L491 497 Z M518 1120 Q478 1120 442 1133 Q406 1146 378 1170 Q350 1194 333.5 1229 Q317 1264 317 1307 Q317 1349 333 1384 Q349 1419 377 1444.5 Q405 1470 442 1484 Q479 1498 522 1498 Q561 1498 597.5 1485 Q634 1472 662 1447.5 Q690 1423 707 1388 Q724 1353 724 1310 Q724 1269 707.5 1234.5 Q691 1200 662.5 1174.5 Q634 1149 597 1134.5 Q560 1120 518 1120 Z M518 1424 Q465 1424 432 1392 Q399 1360 399 1309 Q399 1254 431 1224 Q463 1194 518 1194 Q545 1194 567.5 1202.5 Q590 1211 606.5 1226.5 Q623 1242 632 1263 Q641 1284 641 1309 Q641 1362 606 1393 Q571 1424 518 1424 Z M521 1566 L413 1566 L641 1894 L776 1894 L521 1566 Z " />
<glyph glyph-name="AEacute" unicode="&#x1fc;" horiz-adv-x="1734" d="M877 0 L877 424 L371 424 L165 0 L13 0 L711 1434 L1575 1434 L1575 1309 L1009 1309 L1009 785 L1534 785 L1534 665 L1009 665 L1009 121 L1607 121 L1607 0 L877 0 Z M877 1309 L790 1309 L426 545 L877 545 L877 1309 Z M1060 1551 L952 1551 L1180 1879 L1315 1879 L1060 1551 Z " />
<glyph glyph-name="aeacute" unicode="&#x1fd;" horiz-adv-x="1711" d="M882 489 Q883 394 907 319 Q931 244 976 192.5 Q1021 141 1085.5 113.5 Q1150 86 1231 86 Q1407 86 1559 207 L1559 81 Q1414 -24 1203 -24 Q1067 -24 967.5 41.5 Q868 107 816 232 L812 232 Q673 -24 423 -24 Q347 -24 286.5 -3.5 Q226 17 184 55.5 Q142 94 120 148 Q98 202 98 268 Q98 414 194.5 496 Q291 578 482 588 L755 602 Q755 937 528 937 Q348 937 194 809 L194 946 Q349 1048 542 1048 Q774 1048 840 821 L844 821 Q964 1048 1213 1048 Q1312 1048 1388.5 1013.5 Q1465 979 1517.5 914.5 Q1570 850 1597 758.5 Q1624 667 1624 552 L1624 489 L882 489 Z M1492 601 Q1487 762 1415 849.5 Q1343 937 1213 937 Q1148 937 1092.5 914 Q1037 891 994.5 847.5 Q952 804 924 742 Q896 680 885 601 L1492 601 Z M755 490 L574 482 Q489 478 424 468 Q359 458 316 435.5 Q273 413 251 373.5 Q229 334 229 272 Q229 229 244 194.5 Q259 160 287.5 136 Q316 112 356 99 Q396 86 445 86 Q508 86 564.5 112 Q621 138 663.5 183 Q706 228 730.5 288.5 Q755 349 755 418 L755 490 Z M837 1203 L729 1203 L957 1531 L1092 1531 L837 1203 Z " />
<glyph glyph-name="Oslashacute" unicode="&#x1fe;" horiz-adv-x="1551" d="M770 -25 Q632 -25 520 19 Q408 63 323 142 L159 -53 L89 5 L260 209 Q182 306 141.5 431.5 Q101 557 101 701 Q101 869 147.5 1008.5 Q194 1148 283 1247.5 Q372 1347 501 1402.5 Q630 1458 795 1458 Q915 1458 1015 1424 Q1115 1390 1195 1327 L1333 1492 L1404 1434 L1262 1265 Q1353 1168 1401.5 1033 Q1450 898 1450 737 Q1450 574 1405.5 434.5 Q1361 295 1274.5 193 Q1188 91 1061.5 33 Q935 -25 770 -25 Z M1311 717 Q1311 848 1278.5 963 Q1246 1078 1177 1163 L405 241 Q471 173 561 134.5 Q651 96 769 96 Q903 96 1004.5 142.5 Q1106 189 1174 271.5 Q1242 354 1276.5 468 Q1311 582 1311 717 Z M781 1337 Q651 1337 550.5 1287.5 Q450 1238 381 1153.5 Q312 1069 276.5 955.5 Q241 842 240 714 Q239 602 265.5 499 Q292 396 347 313 L1113 1229 Q1050 1280 968.5 1308.5 Q887 1337 781 1337 Z M750 1551 L642 1551 L870 1879 L1005 1879 L750 1551 Z " />
<glyph glyph-name="oslashacute" unicode="&#x1ff;" horiz-adv-x="1174" d="M983 869 Q1081 729 1081 516 Q1081 393 1046 293.5 Q1011 194 946.5 123.5 Q882 53 790 14.5 Q698 -24 584 -24 Q391 -24 266 83 L110 -89 L39 -21 L198 155 Q93 296 93 503 Q93 631 129 732 Q165 833 232 903 Q299 973 393 1010.5 Q487 1048 603 1048 Q795 1048 917 942 L1084 1125 L1157 1058 L983 869 Z M833 851 Q744 937 594 937 Q509 937 440.5 907.5 Q372 878 324 822.5 Q276 767 250.5 686.5 Q225 606 225 505 Q225 355 288 250 L833 851 Z M349 173 Q444 86 591 86 Q677 86 744 115 Q811 144 856.5 198.5 Q902 253 926 332.5 Q950 412 950 512 Q950 664 894 770 L349 173 Z M562 1203 L454 1203 L682 1531 L817 1531 L562 1203 Z " />
<glyph glyph-name="anoteleia" unicode="&#x387;" horiz-adv-x="445" d="M110 622 Q110 645 119 665.5 Q128 686 143 701.5 Q158 717 178.5 726 Q199 735 222 735 Q245 735 265.5 726 Q286 717 301.5 701.5 Q317 686 326 665.5 Q335 645 335 622 Q335 599 326 578.5 Q317 558 301.5 543 Q286 528 265.5 519 Q245 510 222 510 Q199 510 178.5 519 Q158 528 143 543 Q128 558 119 578.5 Q110 599 110 622 Z " />
<glyph glyph-name="Wgrave" unicode="&#x1e80;" horiz-adv-x="1873" d="M1422 0 L1283 0 L976 1063 Q965 1101 958.5 1136 Q952 1171 951 1204 L947 1204 Q943 1146 918 1065 L600 0 L461 0 L38 1434 L186 1434 L502 309 Q513 272 519.5 238.5 Q526 205 530 174 L534 174 Q540 219 567 309 L903 1434 L1008 1434 L1323 305 Q1332 271 1339 238.5 Q1346 206 1350 175 L1354 175 Q1356 195 1362 220 Q1368 245 1376 276 L1690 1434 L1835 1434 L1422 0 Z M968 1551 L713 1879 L849 1879 L1076 1551 L968 1551 Z " />
<glyph glyph-name="wgrave" unicode="&#x1e81;" horiz-adv-x="1433" d="M1090 0 L962 0 L745 752 Q735 787 729 843 L725 843 Q723 828 718.5 806 Q714 784 704 754 L465 0 L340 0 L30 1024 L167 1024 L392 230 Q402 195 406 141 L414 141 Q416 159 420.5 182 Q425 205 433 231 L681 1024 L787 1024 L1009 229 Q1018 195 1024 140 L1032 140 Q1031 157 1036 179.5 Q1041 202 1049 229 L1274 1024 L1403 1024 L1090 0 Z M736 1203 L481 1531 L617 1531 L844 1203 L736 1203 Z " />
<glyph glyph-name="Wacute" unicode="&#x1e82;" horiz-adv-x="1873" d="M1422 0 L1283 0 L976 1063 Q965 1101 958.5 1136 Q952 1171 951 1204 L947 1204 Q943 1146 918 1065 L600 0 L461 0 L38 1434 L186 1434 L502 309 Q513 272 519.5 238.5 Q526 205 530 174 L534 174 Q540 219 567 309 L903 1434 L1008 1434 L1323 305 Q1332 271 1339 238.5 Q1346 206 1350 175 L1354 175 Q1356 195 1362 220 Q1368 245 1376 276 L1690 1434 L1835 1434 L1422 0 Z M937 1551 L829 1551 L1057 1879 L1192 1879 L937 1551 Z " />
<glyph glyph-name="wacute" unicode="&#x1e83;" horiz-adv-x="1433" d="M1090 0 L962 0 L745 752 Q735 787 729 843 L725 843 Q723 828 718.5 806 Q714 784 704 754 L465 0 L340 0 L30 1024 L167 1024 L392 230 Q402 195 406 141 L414 141 Q416 159 420.5 182 Q425 205 433 231 L681 1024 L787 1024 L1009 229 Q1018 195 1024 140 L1032 140 Q1031 157 1036 179.5 Q1041 202 1049 229 L1274 1024 L1403 1024 L1090 0 Z M728 1203 L620 1203 L848 1531 L983 1531 L728 1203 Z " />
<glyph glyph-name="Wdieresis" unicode="&#x1e84;" horiz-adv-x="1873" d="M1422 0 L1283 0 L976 1063 Q965 1101 958.5 1136 Q952 1171 951 1204 L947 1204 Q943 1146 918 1065 L600 0 L461 0 L38 1434 L186 1434 L502 309 Q513 272 519.5 238.5 Q526 205 530 174 L534 174 Q540 219 567 309 L903 1434 L1008 1434 L1323 305 Q1332 271 1339 238.5 Q1346 206 1350 175 L1354 175 Q1356 195 1362 220 Q1368 245 1376 276 L1690 1434 L1835 1434 L1422 0 Z M1122 1551 Q1089 1551 1063.5 1574.5 Q1038 1598 1038 1636 Q1038 1673 1062.5 1696.5 Q1087 1720 1120 1720 Q1156 1720 1182 1696 Q1208 1672 1208 1636 Q1208 1600 1183.5 1575.5 Q1159 1551 1122 1551 Z M764 1551 Q746 1551 730.5 1557.5 Q715 1564 703 1575.5 Q691 1587 684 1602.5 Q677 1618 677 1636 Q677 1673 702 1696.5 Q727 1720 761 1720 Q779 1720 795 1713.5 Q811 1707 823 1696 Q835 1685 842 1669.5 Q849 1654 849 1636 Q849 1600 824 1575.5 Q799 1551 764 1551 Z " />
<glyph glyph-name="wdieresis" unicode="&#x1e85;" horiz-adv-x="1433" d="M1090 0 L962 0 L745 752 Q735 787 729 843 L725 843 Q723 828 718.5 806 Q714 784 704 754 L465 0 L340 0 L30 1024 L167 1024 L392 230 Q402 195 406 141 L414 141 Q416 159 420.5 182 Q425 205 433 231 L681 1024 L787 1024 L1009 229 Q1018 195 1024 140 L1032 140 Q1031 157 1036 179.5 Q1041 202 1049 229 L1274 1024 L1403 1024 L1090 0 Z M902 1203 Q869 1203 843.5 1226.5 Q818 1250 818 1288 Q818 1325 842.5 1348.5 Q867 1372 900 1372 Q936 1372 962 1348 Q988 1324 988 1288 Q988 1252 963.5 1227.5 Q939 1203 902 1203 Z M544 1203 Q526 1203 510.5 1209.5 Q495 1216 483 1227.5 Q471 1239 464 1254.5 Q457 1270 457 1288 Q457 1325 482 1348.5 Q507 1372 541 1372 Q559 1372 575 1365.5 Q591 1359 603 1348 Q615 1337 622 1321.5 Q629 1306 629 1288 Q629 1252 604 1227.5 Q579 1203 544 1203 Z " />
<glyph glyph-name="Ygrave" unicode="&#x1ef2;" horiz-adv-x="1119" d="M617 537 L617 0 L484 0 L484 534 L34 1434 L185 1434 L513 764 Q519 752 529 728 Q539 704 553 667 L556 667 Q562 685 573 709 Q584 733 600 763 L943 1434 L1085 1434 L617 537 Z M560 1551 L305 1879 L441 1879 L668 1551 L560 1551 Z " />
<glyph glyph-name="ygrave" unicode="&#x1ef3;" horiz-adv-x="959" d="M462 -186 Q402 -336 324 -408.5 Q246 -481 135 -481 Q80 -481 42 -468 L42 -348 Q64 -356 86.5 -360 Q109 -364 132 -364 Q195 -364 241.5 -324.5 Q288 -285 322 -205 L411 5 L17 1024 L159 1024 L452 213 Q458 197 463.5 176.5 Q469 156 474 136 L479 136 Q484 153 488.5 170.5 Q493 188 501 209 L812 1024 L947 1024 L462 -186 Z M472 1203 L217 1531 L353 1531 L580 1203 L472 1203 Z " />
<glyph glyph-name="quotereversed" unicode="&#x201b;" horiz-adv-x="453" d="M103 1446 L229 1446 L346 998 L252 998 L103 1446 Z " />
<glyph glyph-name="uni203E" unicode="&#x203e;" horiz-adv-x="850" d="M850 1396 L0 1396 L0 1516 L850 1516 L850 1396 Z " />
<glyph glyph-name="lira" unicode="&#x20a4;" horiz-adv-x="1079" d="M454 899 L766 899 L766 784 L454 784 L454 624 L766 624 L766 509 L454 509 L454 482 Q454 213 251 112 L977 112 L977 0 L93 0 L93 110 Q326 197 326 449 L326 509 L113 509 L113 624 L326 624 L326 784 L113 784 L113 899 L326 899 L326 1036 Q326 1129 353 1206.5 Q380 1284 429.5 1340 Q479 1396 548.5 1427 Q618 1458 702 1458 Q809 1458 900 1420 L900 1295 Q806 1346 701 1346 Q580 1346 517 1264 Q454 1182 454 1021 L454 899 Z " />
<glyph glyph-name="estimated" unicode="&#x212e;" horiz-adv-x="1229" d="M317 530 L317 160 Q437 39 613 39 Q868 39 1008 284 L1080 242 Q1037 181 991.5 130 Q946 79 891 42 Q836 5 768.5 -15 Q701 -35 614 -35 Q494 -35 396.5 7.5 Q299 50 229.5 125.5 Q160 201 122.5 304.5 Q85 408 85 530 Q85 644 119.5 746.5 Q154 849 220.5 926.5 Q287 1004 385 1050 Q483 1096 610 1096 Q735 1096 832 1053 Q929 1010 997 934 Q1065 858 1102.5 754.5 Q1140 651 1144 530 L317 530 Z M912 604 L912 901 Q782 1024 609 1024 Q434 1024 317 901 L317 604 L912 604 Z " />
<glyph glyph-name="oneeighth" unicode="&#x215b;" horiz-adv-x="1692" d="M615 584 L127 584 L127 681 L317 681 L317 1319 L116 1256 L116 1363 L425 1458 L425 681 L615 681 L615 584 Z M444 0 L323 0 L1183 1434 L1303 1434 L444 0 Z M1454 217 Q1454 339 1270 401 Q1185 372 1141 328.5 Q1097 285 1097 221 Q1097 187 1111.5 161 Q1126 135 1150.5 117.5 Q1175 100 1207 91 Q1239 82 1275 82 Q1309 82 1341.5 91.5 Q1374 101 1399 118 Q1424 135 1439 160.5 Q1454 186 1454 217 Z M1425 649 Q1425 709 1386 739.5 Q1347 770 1280 770 Q1248 770 1220.5 761.5 Q1193 753 1172.5 737 Q1152 721 1140.5 699 Q1129 677 1129 651 Q1129 599 1167 562.5 Q1205 526 1276 498 Q1350 527 1387.5 563 Q1425 599 1425 649 Z M1567 225 Q1567 164 1543.5 118 Q1520 72 1479 41.5 Q1438 11 1383.5 -4 Q1329 -19 1267 -19 Q1213 -19 1162 -4.5 Q1111 10 1071.5 39 Q1032 68 1007.5 112 Q983 156 983 216 Q983 296 1027.5 353.5 Q1072 411 1156 449 Q1088 484 1051 533 Q1014 582 1014 649 Q1014 702 1035 743.5 Q1056 785 1092.5 813.5 Q1129 842 1178 856.5 Q1227 871 1284 871 Q1337 871 1383.5 856.5 Q1430 842 1465 815 Q1500 788 1520 749 Q1540 710 1540 661 Q1540 586 1500 535 Q1460 484 1390 449 Q1475 414 1521 359.5 Q1567 305 1567 225 Z " />
<glyph glyph-name="threeeighths" unicode="&#x215c;" horiz-adv-x="1692" d="M588 819 Q588 762 567 715 Q546 668 507.5 633.5 Q469 599 414.5 580 Q360 561 292 561 Q171 561 89 611 L89 730 Q192 660 295 660 Q381 660 429 702 Q477 744 477 816 Q477 970 250 970 L173 970 L173 1069 L244 1069 Q450 1069 450 1222 Q450 1350 301 1350 Q217 1350 122 1289 L122 1404 Q215 1452 324 1452 Q377 1452 420.5 1437 Q464 1422 495 1394 Q526 1366 542.5 1327 Q559 1288 559 1241 Q559 1084 413 1031 L413 1027 Q500 1007 544 953 Q588 899 588 819 Z M444 0 L323 0 L1183 1434 L1303 1434 L444 0 Z M1454 217 Q1454 339 1270 401 Q1185 372 1141 328.5 Q1097 285 1097 221 Q1097 187 1111.5 161 Q1126 135 1150.5 117.5 Q1175 100 1207 91 Q1239 82 1275 82 Q1309 82 1341.5 91.5 Q1374 101 1399 118 Q1424 135 1439 160.5 Q1454 186 1454 217 Z M1425 649 Q1425 709 1386 739.5 Q1347 770 1280 770 Q1248 770 1220.5 761.5 Q1193 753 1172.5 737 Q1152 721 1140.5 699 Q1129 677 1129 651 Q1129 599 1167 562.5 Q1205 526 1276 498 Q1350 527 1387.5 563 Q1425 599 1425 649 Z M1567 225 Q1567 164 1543.5 118 Q1520 72 1479 41.5 Q1438 11 1383.5 -4 Q1329 -19 1267 -19 Q1213 -19 1162 -4.5 Q1111 10 1071.5 39 Q1032 68 1007.5 112 Q983 156 983 216 Q983 296 1027.5 353.5 Q1072 411 1156 449 Q1088 484 1051 533 Q1014 582 1014 649 Q1014 702 1035 743.5 Q1056 785 1092.5 813.5 Q1129 842 1178 856.5 Q1227 871 1284 871 Q1337 871 1383.5 856.5 Q1430 842 1465 815 Q1500 788 1520 749 Q1540 710 1540 661 Q1540 586 1500 535 Q1460 484 1390 449 Q1475 414 1521 359.5 Q1567 305 1567 225 Z " />
</font>
</svg>
