<?xml version="1.0" encoding="UTF-8"?>
<svg xmlns="http://www.w3.org/2000/svg" xmlns:xlink="http://www.w3.org/1999/xlink" version="1.2" >
<font id="Segoe UI Bold">
<font-face  font-family="Segoe UI" units-per-em="2048" ascent="1491" descent="-431" font-style="normal" font-weight="700" font-stretch="normal" cap-height="1434" x-height="1024" underline-position="-178" underline-thickness="119" />
<missing-glyph  horiz-adv-x="1322" d="M166 0 L166 1398 L1156 1398 L1156 0 L166 0 Z M314 148 L1008 148 L1008 1250 L314 1250 L314 148 Z " />
<glyph glyph-name="null" unicode="&#xd;" d="" />
<glyph glyph-name="space" unicode="&#x20;" horiz-adv-x="565" d="" />
<glyph glyph-name="exclam" unicode="&#x21;" horiz-adv-x="670" d="M500 1434 L461 446 L205 446 L168 1434 L500 1434 Z M336 -23 Q256 -23 204 25.5 Q152 74 152 143 Q152 215 204.5 261 Q257 307 336 307 Q416 307 467 260.5 Q518 214 518 143 Q518 71 467.5 24 Q417 -23 336 -23 Z " />
<glyph glyph-name="quotedbl" unicode="&#x22;" horiz-adv-x="1010" d="M834 1452 L803 1008 L602 1008 L571 1452 L834 1452 Z M438 1452 L408 1010 L205 1010 L176 1452 L438 1452 Z " />
<glyph glyph-name="numbersign" unicode="&#x23;" horiz-adv-x="1213" d="M1176 1069 L1137 889 L952 889 L897 641 L1104 641 L1059 461 L860 461 L782 115 L582 115 L655 461 L426 461 L352 115 L152 115 L223 461 L37 461 L74 641 L262 641 L315 889 L113 889 L147 1069 L352 1069 L426 1425 L631 1425 L557 1069 L786 1069 L862 1425 L1065 1425 L991 1069 L1176 1069 Z M750 889 L518 889 L463 641 L694 641 L750 889 Z " />
<glyph glyph-name="dollar" unicode="&#x24;" horiz-adv-x="1178" d="M674 8 L674 -209 L528 -209 L528 2 Q325 3 150 94 L150 371 Q208 324 323 284 Q438 244 528 238 L528 602 Q294 689 208.5 790.5 Q123 892 123 1038 Q123 1195 234 1305.5 Q345 1416 528 1434 L528 1620 L674 1620 L674 1438 Q885 1428 989 1370 L989 1100 Q849 1185 674 1204 L674 825 Q893 746 988 644.5 Q1083 543 1083 399 Q1083 233 977 131.5 Q871 30 674 8 Z M528 883 L528 1200 Q389 1175 389 1055 Q389 952 528 883 Z M674 545 L674 242 Q817 264 817 385 Q817 483 674 545 Z " />
<glyph glyph-name="percent" unicode="&#x25;" horiz-adv-x="1776" d="M430 707 Q277 707 183.5 804 Q90 901 90 1065 Q90 1244 189.5 1349 Q289 1454 455 1454 Q614 1454 703.5 1359 Q793 1264 793 1092 Q793 915 694 811 Q595 707 430 707 Z M449 1278 Q303 1278 303 1075 Q303 883 442 883 Q584 883 584 1083 Q584 1278 449 1278 Z M1477 1434 L543 0 L299 0 L1231 1434 L1477 1434 Z M1323 -20 Q1170 -20 1076.5 77 Q983 174 983 338 Q983 517 1082.5 622 Q1182 727 1348 727 Q1508 727 1597 633 Q1686 539 1686 367 Q1686 190 1587 85 Q1488 -20 1323 -20 Z M1339 551 Q1194 551 1194 348 Q1194 156 1335 156 Q1477 156 1477 356 Q1477 449 1439 500 Q1401 551 1339 551 Z " />
<glyph glyph-name="ampersand" unicode="&#x26;" horiz-adv-x="1740" d="M1479 -23 Q1426 -23 1378.5 -9 Q1331 5 1288.5 29 Q1246 53 1208 85.5 Q1170 118 1136 155 Q1099 125 1047 93 Q995 61 929.5 35.5 Q864 10 785 -6.5 Q706 -23 616 -23 Q499 -23 399.5 5 Q300 33 228 88.5 Q156 144 115.5 226 Q75 308 75 416 Q75 501 105.5 567.5 Q136 634 185 684 Q234 734 296 770 Q358 806 422 830 Q391 854 359.5 885.5 Q328 917 303 954.5 Q278 992 262.5 1036 Q247 1080 247 1129 Q247 1208 279 1269 Q311 1330 368.5 1372 Q426 1414 506 1436 Q586 1458 682 1458 Q774 1458 850.5 1435 Q927 1412 982 1371 Q1037 1330 1067 1272.5 Q1097 1215 1097 1146 Q1097 1035 1030.5 953.5 Q964 872 843 821 Q891 799 935 771 Q979 743 1021 707 Q1063 671 1103 625.5 Q1143 580 1182 521 Q1264 624 1299.5 740.5 Q1335 857 1335 983 Q1335 1021 1330.5 1056 Q1326 1091 1316 1121 L1585 1121 Q1596 1089 1601 1059 Q1606 1029 1606 988 Q1606 891 1585.5 799 Q1565 707 1528 623 Q1491 539 1438.5 464 Q1386 389 1323 324 Q1372 273 1424 245.5 Q1476 218 1522 218 Q1570 218 1620 228.5 Q1670 239 1707 258 L1707 20 Q1652 -2 1598.5 -12.5 Q1545 -23 1479 -23 Z M632 216 Q691 216 743 227.5 Q795 239 841 258 Q887 277 926.5 302 Q966 327 999 354 Q948 434 898 489.5 Q848 545 799 584.5 Q750 624 701.5 651 Q653 678 604 700 Q563 680 525.5 655.5 Q488 631 459 598.5 Q430 566 412.5 524.5 Q395 483 395 429 Q395 381 412 342 Q429 303 460.5 275 Q492 247 535.5 231.5 Q579 216 632 216 Z M817 1124 Q817 1153 806 1176 Q795 1199 776 1214.5 Q757 1230 733 1238.5 Q709 1247 682 1247 Q649 1247 621.5 1237 Q594 1227 573.5 1210 Q553 1193 542 1169.5 Q531 1146 531 1119 Q531 1063 566 1016 Q601 969 653 940 Q686 952 715.5 968 Q745 984 767.5 1006 Q790 1028 803.5 1057 Q817 1086 817 1124 Z " />
<glyph glyph-name="quotesingle" unicode="&#x27;" horiz-adv-x="600" d="M430 1452 L399 1010 L199 1010 L170 1452 L430 1452 Z " />
<glyph glyph-name="&amp;#x28;" unicode="&#x28;" horiz-adv-x="756" d="M739 -326 L481 -326 Q158 30 158 549 Q158 1050 481 1434 L737 1434 Q434 1032 434 549 Q434 66 739 -326 Z " />
<glyph glyph-name="&amp;#xfd3e;" unicode="&#xfd3e;" horiz-adv-x="756" d="M739 -326 L481 -326 Q158 30 158 549 Q158 1050 481 1434 L737 1434 Q434 1032 434 549 Q434 66 739 -326 Z " />
<glyph glyph-name="&amp;#x29;" unicode="&#x29;" horiz-adv-x="756" d="M274 -326 L18 -326 Q324 64 324 549 Q324 1030 18 1434 L276 1434 Q600 1049 600 549 Q600 34 274 -326 Z " />
<glyph glyph-name="&amp;#xfd3f;" unicode="&#xfd3f;" horiz-adv-x="756" d="M274 -326 L18 -326 Q324 64 324 549 Q324 1030 18 1434 L276 1434 Q600 1049 600 549 Q600 34 274 -326 Z " />
<glyph glyph-name="asterisk" unicode="&#x2a;" horiz-adv-x="932" d="M864 1053 L590 1016 L786 805 L604 680 L467 934 L330 680 L147 805 L344 1016 L70 1053 L141 1255 L393 1147 L350 1434 L584 1434 L541 1147 L791 1255 L864 1053 Z " />
<glyph glyph-name="plus" unicode="&#x2b;" horiz-adv-x="1448" d="M1212 485 L827 485 L827 100 L625 100 L625 485 L238 485 L238 688 L625 688 L625 1075 L827 1075 L827 688 L1212 688 L1212 485 Z " />
<glyph glyph-name="comma" unicode="&#x2c;" horiz-adv-x="555" d="M432 252 L285 -254 L39 -254 L141 252 L432 252 Z " />
<glyph glyph-name="&amp;#x2d;" unicode="&#x2d;" horiz-adv-x="828" d="M690 436 L143 436 L143 657 L690 657 L690 436 Z " />
<glyph glyph-name="&amp;#x2010;" unicode="&#x2010;" horiz-adv-x="828" d="M690 436 L143 436 L143 657 L690 657 L690 436 Z " />
<glyph glyph-name="period" unicode="&#x2e;" horiz-adv-x="555" d="M274 -25 Q196 -25 144 23 Q92 71 92 141 Q92 213 145.5 259 Q199 305 279 305 Q360 305 411.5 258.5 Q463 212 463 141 Q463 68 410.5 21.5 Q358 -25 274 -25 Z " />
<glyph glyph-name="slash" unicode="&#x2f;" horiz-adv-x="908" d="M932 1434 L233 -238 L-49 -238 L647 1434 L932 1434 Z " />
<glyph glyph-name="zero" unicode="0" horiz-adv-x="1178" d="M582 -25 Q70 -25 70 694 Q70 1067 208.5 1262.5 Q347 1458 610 1458 Q1110 1458 1110 727 Q1110 363 973.5 169 Q837 -25 582 -25 Z M596 1217 Q391 1217 391 702 Q391 217 592 217 Q788 217 788 717 Q788 1217 596 1217 Z " />
<glyph glyph-name="one" unicode="1" horiz-adv-x="1178" d="M1077 0 L170 0 L170 250 L467 250 L467 1143 L162 1077 L162 1333 L782 1458 L782 250 L1077 250 L1077 0 Z " />
<glyph glyph-name="two" unicode="2" horiz-adv-x="1178" d="M471 268 L471 262 L1053 262 L1053 0 L109 0 L109 246 L520 639 Q644 758 694.5 838.5 Q745 919 745 1008 Q745 1206 532 1206 Q347 1206 178 1059 L178 1337 Q365 1458 600 1458 Q820 1458 943.5 1347.5 Q1067 1237 1067 1049 Q1067 798 766 530 L471 268 Z " />
<glyph glyph-name="three" unicode="3" horiz-adv-x="1178" d="M147 47 L147 322 Q291 217 483 217 Q604 217 671.5 269 Q739 321 739 414 Q739 510 655.5 562 Q572 614 426 614 L297 614 L297 856 L416 856 Q696 856 696 1042 Q696 1217 481 1217 Q337 1217 201 1124 L201 1382 Q352 1458 553 1458 Q773 1458 895.5 1359 Q1018 1260 1018 1102 Q1018 821 733 750 L733 745 Q885 726 973 634.5 Q1061 543 1061 410 Q1061 209 914 92 Q767 -25 508 -25 Q286 -25 147 47 Z " />
<glyph glyph-name="four" unicode="4" horiz-adv-x="1178" d="M1124 305 L952 305 L952 0 L664 0 L664 305 L39 305 L39 506 L641 1434 L952 1434 L952 530 L1124 530 L1124 305 Z M668 1118 L662 1118 Q648 1082 608 1006 L301 530 L664 530 L664 981 Q664 1041 668 1118 Z " />
<glyph glyph-name="five" unicode="5" horiz-adv-x="1178" d="M164 37 L164 307 Q311 217 477 217 Q602 217 672.5 276.5 Q743 336 743 438 Q743 651 442 651 Q344 651 205 633 L205 1434 L999 1434 L999 1176 L475 1176 L475 889 Q538 895 594 895 Q815 895 940 779 Q1065 663 1065 467 Q1065 250 916 112.5 Q767 -25 512 -25 Q305 -25 164 37 Z " />
<glyph glyph-name="six" unicode="6" horiz-adv-x="1178" d="M1008 1419 L1008 1155 Q899 1217 770 1217 Q611 1217 513.5 1095.5 Q416 974 412 770 L418 770 Q521 922 719 922 Q899 922 1004.5 800 Q1110 678 1110 477 Q1110 261 970 118 Q830 -25 614 -25 Q372 -25 236 150 Q100 325 100 641 Q100 1013 275 1235.5 Q450 1458 750 1458 Q916 1458 1008 1419 Z M612 688 Q525 688 473.5 627 Q422 566 422 471 Q422 366 474.5 291.5 Q527 217 614 217 Q699 217 750 283.5 Q801 350 801 457 Q801 688 612 688 Z " />
<glyph glyph-name="seven" unicode="7" horiz-adv-x="1178" d="M1094 1288 L588 0 L254 0 L764 1176 L96 1176 L96 1434 L1094 1434 L1094 1288 Z " />
<glyph glyph-name="eight" unicode="8" horiz-adv-x="1178" d="M371 745 L371 750 Q125 851 125 1077 Q125 1243 257 1350.5 Q389 1458 598 1458 Q811 1458 938 1357.5 Q1065 1257 1065 1098 Q1065 863 793 752 L793 748 Q939 705 1019.5 606.5 Q1100 508 1100 385 Q1100 195 959.5 85 Q819 -25 567 -25 Q349 -25 215.5 82.5 Q82 190 82 367 Q82 624 371 745 Z M768 1071 Q768 1144 721.5 1187.5 Q675 1231 598 1231 Q523 1231 473.5 1185.5 Q424 1140 424 1069 Q424 935 596 866 Q768 937 768 1071 Z M582 625 Q381 546 381 383 Q381 305 442.5 254 Q504 203 592 203 Q687 203 745 253 Q803 303 803 385 Q803 549 582 625 Z " />
<glyph glyph-name="nine" unicode="9" horiz-adv-x="1178" d="M160 31 L160 291 Q273 217 432 217 Q598 217 688.5 329.5 Q779 442 780 649 L774 651 Q679 510 485 510 Q309 510 193.5 633 Q78 756 78 952 Q78 1181 219 1319.5 Q360 1458 584 1458 Q814 1458 950.5 1284 Q1087 1110 1087 786 Q1087 402 922.5 188.5 Q758 -25 463 -25 Q288 -25 160 31 Z M575 1217 Q493 1217 440 1150.5 Q387 1084 387 979 Q387 870 439.5 807.5 Q492 745 582 745 Q664 745 716 804.5 Q768 864 768 954 Q768 1067 713.5 1142 Q659 1217 575 1217 Z " />
<glyph glyph-name="colon" unicode="&#x3a;" horiz-adv-x="555" d="M274 707 Q196 707 144 754.5 Q92 802 92 872 Q92 944 145.5 990 Q199 1036 279 1036 Q360 1036 411.5 989.5 Q463 943 463 872 Q463 799 410.5 753 Q358 707 274 707 Z M274 -25 Q196 -25 144 23 Q92 71 92 141 Q92 213 145.5 259 Q199 305 279 305 Q360 305 411.5 258.5 Q463 212 463 141 Q463 68 410.5 21.5 Q358 -25 274 -25 Z " />
<glyph glyph-name="semicolon" unicode="&#x3b;" horiz-adv-x="555" d="M281 707 Q202 707 150 755 Q98 803 98 872 Q98 945 150.5 990.5 Q203 1036 283 1036 Q364 1036 415.5 989.5 Q467 943 467 872 Q467 799 416 753 Q365 707 281 707 Z M432 252 L285 -254 L39 -254 L141 252 L432 252 Z " />
<glyph glyph-name="less" unicode="&#x3c;" horiz-adv-x="1448" d="M1192 63 L258 489 L258 651 L1192 1098 L1192 860 L526 575 L526 569 L1192 301 L1192 63 Z " />
<glyph glyph-name="equal" unicode="&#x3d;" horiz-adv-x="1448" d="M1212 700 L238 700 L238 905 L1212 905 L1212 700 Z M1212 266 L238 266 L238 469 L1212 469 L1212 266 Z " />
<glyph glyph-name="greater" unicode="&#x3e;" horiz-adv-x="1448" d="M1192 502 L258 76 L258 313 L926 580 L926 584 L258 870 L258 1108 L1192 664 L1192 502 Z " />
<glyph glyph-name="question" unicode="&#x3f;" horiz-adv-x="897" d="M263 415 Q253 441 247.5 473.5 Q242 506 242 535 Q242 581 251 619 Q260 657 278 690.5 Q296 724 323 754.5 Q350 785 386 815 Q424 847 452.5 874.5 Q481 902 501 929.5 Q521 957 531 986.5 Q541 1016 541 1052 Q541 1083 530 1109.5 Q519 1136 498.5 1155 Q478 1174 448.5 1185 Q419 1196 383 1196 Q305 1196 221 1163.5 Q137 1131 62 1065 L62 1366 Q139 1412 230 1435 Q321 1458 418 1458 Q511 1458 591 1437.5 Q671 1417 730.5 1373 Q790 1329 823.5 1260.5 Q857 1192 857 1096 Q857 1035 843 985.5 Q829 936 802 892 Q775 848 735 807.5 Q695 767 643 724 Q608 695 581.5 670 Q555 645 537.5 620.5 Q520 596 511 568.5 Q502 541 502 506 Q502 482 508.5 457 Q515 432 526 415 L263 415 Z M409 -23 Q329 -23 276 25 Q223 75 223 143 Q223 213 276 260 Q329 307 409 307 Q488 307 540 260 Q592 214 592 143 Q592 71 541 24 Q489 -23 409 -23 Z " />
<glyph glyph-name="at" unicode="&#x40;" horiz-adv-x="1954" d="M1122 371 L1116 371 Q1046 180 862 180 Q724 180 639.5 280 Q555 380 555 557 Q555 786 672 929.5 Q789 1073 954 1073 Q1103 1073 1141 956 L1145 956 L1155 1055 L1380 1055 Q1335 629 1335 498 Q1335 358 1411 358 Q1491 358 1543 464 Q1595 570 1595 741 Q1595 975 1446 1124.5 Q1297 1274 1030 1274 Q744 1274 554.5 1074.5 Q365 875 365 588 Q365 310 532.5 150 Q700 -10 995 -10 Q1220 -10 1407 76 L1407 -115 Q1236 -188 967 -188 Q598 -188 366.5 23.5 Q135 235 135 592 Q135 956 382 1204 Q629 1452 1018 1452 Q1378 1452 1600.5 1259.5 Q1823 1067 1823 752 Q1823 493 1687 336.5 Q1551 180 1350 180 Q1251 180 1189 233 Q1127 286 1122 371 Z M989 899 Q899 899 842.5 796.5 Q786 694 786 559 Q786 463 824.5 409.5 Q863 356 924 356 Q1018 356 1072 457 Q1126 558 1126 727 Q1126 807 1088.5 853 Q1051 899 989 899 Z " />
<glyph glyph-name="A" unicode="A" horiz-adv-x="1440" d="M1425 0 L1073 0 L971 319 L461 319 L360 0 L10 0 L532 1434 L915 1434 L1425 0 Z M897 567 L743 1049 Q726 1103 719 1178 L711 1178 Q706 1115 686 1053 L530 567 L897 567 Z " />
<glyph glyph-name="B" unicode="B" horiz-adv-x="1313" d="M164 0 L164 1434 L686 1434 Q926 1434 1055 1346 Q1184 1258 1184 1098 Q1184 982 1105.5 895 Q1027 808 905 774 L905 770 Q1058 751 1149.5 657 Q1241 563 1241 428 Q1241 231 1100 115.5 Q959 0 715 0 L164 0 Z M487 1196 L487 856 L629 856 Q729 856 786.5 904.5 Q844 953 844 1038 Q844 1196 608 1196 L487 1196 Z M487 616 L487 238 L662 238 Q774 238 837.5 290 Q901 342 901 432 Q901 518 838.5 567 Q776 616 664 616 L487 616 Z " />
<glyph glyph-name="C" unicode="C" horiz-adv-x="1278" d="M1192 51 Q1035 -25 782 -25 Q452 -25 263 169 Q74 363 74 686 Q74 1030 286.5 1244 Q499 1458 838 1458 Q1048 1458 1192 1405 L1192 1094 Q1048 1180 864 1180 Q662 1180 538 1053 Q414 926 414 709 Q414 501 531 377.5 Q648 254 846 254 Q1035 254 1192 346 L1192 51 Z " />
<glyph glyph-name="D" unicode="D" horiz-adv-x="1510" d="M164 0 L164 1434 L672 1434 Q1436 1434 1436 735 Q1436 400 1227.5 200 Q1019 0 672 0 L164 0 Z M487 1171 L487 262 L647 262 Q857 262 976.5 388 Q1096 514 1096 731 Q1096 936 977.5 1053.5 Q859 1171 645 1171 L487 1171 Z " />
<glyph glyph-name="E" unicode="E" horiz-adv-x="1090" d="M1024 0 L164 0 L164 1434 L991 1434 L991 1171 L487 1171 L487 852 L956 852 L956 590 L487 590 L487 262 L1024 262 L1024 0 Z " />
<glyph glyph-name="F" unicode="F" horiz-adv-x="1065" d="M993 1171 L487 1171 L487 819 L952 819 L952 557 L487 557 L487 0 L164 0 L164 1434 L993 1434 L993 1171 Z " />
<glyph glyph-name="G" unicode="G" horiz-adv-x="1456" d="M1341 96 Q1131 -25 819 -25 Q473 -25 273.5 166.5 Q74 358 74 694 Q74 1032 292 1245 Q510 1458 872 1458 Q1100 1458 1274 1395 L1274 1092 Q1108 1188 868 1188 Q667 1188 540.5 1057.5 Q414 927 414 709 Q414 488 527.5 367 Q641 246 834 246 Q950 246 1018 279 L1018 559 L731 559 L731 817 L1341 817 L1341 96 Z " />
<glyph glyph-name="H" unicode="H" horiz-adv-x="1569" d="M1405 0 L1081 0 L1081 584 L487 584 L487 0 L164 0 L164 1434 L487 1434 L487 862 L1081 862 L1081 1434 L1405 1434 L1405 0 Z " />
<glyph glyph-name="I" unicode="I" horiz-adv-x="649" d="M607 1434 L607 1184 L487 1184 L487 250 L607 250 L607 0 L44 0 L44 250 L164 250 L164 1184 L44 1184 L44 1434 L607 1434 Z " />
<glyph glyph-name="J" unicode="J" horiz-adv-x="912" d="M762 569 Q762 281 628.5 128 Q495 -25 242 -25 Q129 -25 33 14 L33 317 Q116 254 219 254 Q440 254 440 582 L440 1434 L762 1434 L762 569 Z " />
<glyph glyph-name="K" unicode="K" horiz-adv-x="1329" d="M1356 0 L948 0 L530 623 Q518 641 492 702 L487 702 L487 0 L164 0 L164 1434 L487 1434 L487 756 L492 756 Q504 784 532 836 L928 1434 L1313 1434 L813 750 L1356 0 Z " />
<glyph glyph-name="L" unicode="L" horiz-adv-x="1047" d="M1018 0 L164 0 L164 1434 L487 1434 L487 262 L1018 262 L1018 0 Z " />
<glyph glyph-name="M" unicode="M" horiz-adv-x="1960" d="M1798 0 L1479 0 L1479 858 Q1479 997 1491 1165 L1483 1165 Q1458 1033 1438 975 L1102 0 L838 0 L496 965 Q482 1004 451 1165 L442 1165 Q455 953 455 793 L455 0 L164 0 L164 1434 L637 1434 L930 584 Q965 482 981 379 L987 379 Q1014 498 1044 586 L1337 1434 L1798 1434 L1798 0 Z " />
<glyph glyph-name="N" unicode="N" horiz-adv-x="1618" d="M1454 0 L1128 0 L537 901 Q485 980 465 1020 L461 1020 Q469 944 469 788 L469 0 L164 0 L164 1434 L512 1434 L1081 561 Q1120 502 1153 444 L1157 444 Q1149 494 1149 641 L1149 1434 L1454 1434 L1454 0 Z " />
<glyph glyph-name="O" unicode="O" horiz-adv-x="1553" d="M770 -25 Q462 -25 268 175.5 Q74 376 74 698 Q74 1038 271 1248 Q468 1458 793 1458 Q1100 1458 1289.5 1257 Q1479 1056 1479 727 Q1479 389 1282.5 182 Q1086 -25 770 -25 Z M784 1180 Q614 1180 514 1052.5 Q414 925 414 715 Q414 502 514 378 Q614 254 776 254 Q943 254 1041 374.5 Q1139 495 1139 709 Q1139 932 1044 1056 Q949 1180 784 1180 Z " />
<glyph glyph-name="P" unicode="P" horiz-adv-x="1258" d="M487 494 L487 0 L164 0 L164 1434 L670 1434 Q1212 1434 1212 977 Q1212 761 1056.5 627.5 Q901 494 641 494 L487 494 Z M487 1186 L487 739 L614 739 Q872 739 872 965 Q872 1186 614 1186 L487 1186 Z " />
<glyph glyph-name="Q" unicode="Q" horiz-adv-x="1553" d="M784 1180 Q615 1180 514 1052 Q414 925 414 715 Q414 503 513 378 Q613 254 776 254 Q944 254 1041 374 Q1139 496 1139 709 Q1139 930 1045 1054 Q951 1180 784 1180 Z M1040 27 Q1092 -29 1139 -65 Q1186 -101 1233.5 -122 Q1281 -143 1331 -151 Q1381 -159 1440 -159 Q1456 -159 1475 -157.5 Q1494 -156 1513.5 -152.5 Q1533 -149 1551 -144.5 Q1569 -140 1584 -134 L1584 -406 Q1552 -415 1495.5 -424 Q1439 -433 1358 -433 Q1260 -433 1177.5 -401 Q1095 -369 1019.5 -313.5 Q944 -258 872.5 -183 Q801 -108 724 -22 Q577 -18 457 39 Q337 96 252 192.5 Q167 289 120.5 419 Q74 549 74 698 Q74 1039 270 1248 Q467 1458 795 1458 Q1100 1458 1289 1256 Q1479 1056 1479 727 Q1479 470 1363 285 Q1247 102 1040 27 Z " />
<glyph glyph-name="R" unicode="R" horiz-adv-x="1337" d="M1367 0 L996 0 L773 369 Q748 411 725 444 Q702 477 678.5 500.5 Q655 524 629.5 536.5 Q604 549 574 549 L487 549 L487 0 L164 0 L164 1434 L676 1434 Q1198 1434 1198 1044 Q1198 969 1175 905.5 Q1152 842 1110 791 Q1068 740 1008.5 703 Q949 666 876 645 L876 641 Q908 631 938 608.5 Q968 586 996 556 Q1024 526 1049.5 491.5 Q1075 457 1096 424 L1367 0 Z M487 1192 L487 793 L627 793 Q731 793 794 853 Q858 914 858 1004 Q858 1192 633 1192 L487 1192 Z " />
<glyph glyph-name="S" unicode="S" horiz-adv-x="1148" d="M98 55 L98 375 Q185 302 287 265.5 Q389 229 493 229 Q554 229 599.5 240 Q645 251 675.5 270.5 Q706 290 721 316.5 Q736 343 736 374 Q736 416 712 449 Q688 482 646.5 510 Q605 538 548 564 Q491 590 425 617 Q257 687 174.5 788 Q92 889 92 1032 Q92 1144 137 1224.5 Q182 1305 259.5 1357 Q337 1409 439 1433.5 Q541 1458 655 1458 Q767 1458 853.5 1444.5 Q940 1431 1013 1403 L1013 1104 Q977 1129 934.5 1148 Q892 1167 847 1179.5 Q802 1192 757.5 1198 Q713 1204 673 1204 Q618 1204 573 1193.5 Q528 1183 497 1164 Q466 1145 449 1118.5 Q432 1092 432 1059 Q432 1023 451 994.5 Q470 966 505 940.5 Q540 915 590 890.5 Q640 866 703 840 Q789 804 857.5 763.5 Q926 723 975 672 Q1024 621 1050 555.5 Q1076 490 1076 403 Q1076 283 1030.5 201.5 Q985 120 907 69.5 Q829 19 725.5 -3 Q622 -25 507 -25 Q389 -25 282.5 -5 Q176 15 98 55 Z " />
<glyph glyph-name="T" unicode="T" horiz-adv-x="1200" d="M1171 1171 L762 1171 L762 0 L438 0 L438 1171 L31 1171 L31 1434 L1171 1434 L1171 1171 Z " />
<glyph glyph-name="U" unicode="U" horiz-adv-x="1481" d="M1333 621 Q1333 -25 731 -25 Q147 -25 147 606 L147 1434 L471 1434 L471 602 Q471 254 743 254 Q1010 254 1010 590 L1010 1434 L1333 1434 L1333 621 Z " />
<glyph glyph-name="V" unicode="V" horiz-adv-x="1366" d="M1358 1434 L864 0 L498 0 L10 1434 L358 1434 L657 436 Q681 355 686 293 L692 293 Q699 360 723 440 L1020 1434 L1358 1434 Z " />
<glyph glyph-name="W" unicode="W" horiz-adv-x="2058" d="M2040 1434 L1661 0 L1303 0 L1065 920 Q1046 992 1042 1081 L1038 1081 Q1029 983 1012 920 L768 0 L395 0 L18 1434 L371 1434 L573 479 Q586 418 592 315 L598 315 Q602 392 627 483 L887 1434 L1233 1434 L1468 471 Q1481 418 1491 317 L1495 317 Q1499 396 1516 477 L1714 1434 L2040 1434 Z " />
<glyph glyph-name="X" unicode="X" horiz-adv-x="1342" d="M1335 0 L952 0 L705 467 Q691 493 676 563 L672 563 Q665 530 639 463 L391 0 L6 0 L463 717 L45 1434 L438 1434 L643 1004 Q667 953 686 883 L690 883 Q702 925 735 1008 L963 1434 L1323 1434 L893 723 L1335 0 Z " />
<glyph glyph-name="Y" unicode="Y" horiz-adv-x="1243" d="M1245 1434 L778 510 L778 0 L455 0 L455 504 L0 1434 L369 1434 L600 899 Q606 884 633 782 L637 782 Q650 854 668 895 L903 1434 L1245 1434 Z " />
<glyph glyph-name="Z" unicode="Z" horiz-adv-x="1243" d="M1196 0 L41 0 L41 186 L776 1171 L94 1171 L94 1434 L1194 1434 L1194 1253 L475 262 L1196 262 L1196 0 Z " />
<glyph glyph-name="bracketleft" unicode="&#x5b;" horiz-adv-x="756" d="M686 -326 L217 -326 L217 1434 L686 1434 L686 1233 L477 1233 L477 -125 L686 -125 L686 -326 Z " />
<glyph glyph-name="backslash" unicode="&#x5c;" horiz-adv-x="893" d="M961 -238 L682 -238 L0 1434 L281 1434 L961 -238 Z " />
<glyph glyph-name="bracketright" unicode="&#x5d;" horiz-adv-x="756" d="M541 -326 L70 -326 L70 -125 L281 -125 L281 1233 L70 1233 L70 1434 L541 1434 L541 -326 Z " />
<glyph glyph-name="asciicircum" unicode="&#x5e;" horiz-adv-x="1448" d="M1249 610 L1006 610 L719 1196 L715 1196 L444 610 L203 610 L633 1458 L795 1458 L1249 610 Z " />
<glyph glyph-name="underscore" unicode="&#x5f;" horiz-adv-x="850" d="M850 -297 L0 -297 L0 -178 L850 -178 L850 -297 Z " />
<glyph glyph-name="grave" unicode="&#x60;" horiz-adv-x="643" d="M596 1186 L369 1186 L55 1509 L336 1509 L596 1186 Z " />
<glyph glyph-name="a" unicode="a" horiz-adv-x="1102" d="M985 0 L686 0 L686 147 L682 147 Q579 -25 377 -25 Q228 -25 142.5 59.5 Q57 144 57 285 Q57 583 410 629 L688 666 Q688 834 506 834 Q323 834 158 725 L158 963 Q224 997 338.5 1023 Q453 1049 547 1049 Q985 1049 985 612 L985 0 Z M688 416 L688 485 L502 461 Q348 441 348 322 Q348 268 385.5 233.5 Q423 199 487 199 Q576 199 632 260.5 Q688 322 688 416 Z " />
<glyph glyph-name="b" unicode="b" horiz-adv-x="1270" d="M453 119 L449 119 L449 0 L133 0 L133 1516 L449 1516 L449 870 L453 870 Q570 1049 786 1049 Q984 1049 1091 913 Q1198 777 1198 541 Q1198 285 1073 130 Q948 -25 739 -25 Q550 -25 453 119 Z M444 551 L444 446 Q444 347 501 282 Q558 217 647 217 Q755 217 814.5 300.5 Q874 384 874 537 Q874 664 819.5 735.5 Q765 807 664 807 Q569 807 506.5 736 Q444 665 444 551 Z " />
<glyph glyph-name="c" unicode="c" horiz-adv-x="983" d="M909 37 Q802 -25 600 -25 Q364 -25 218 118 Q72 261 72 487 Q72 748 228.5 898.5 Q385 1049 647 1049 Q828 1049 909 1001 L909 733 Q810 807 688 807 Q552 807 472.5 727.5 Q393 648 393 508 Q393 372 469 294.5 Q545 217 678 217 Q796 217 909 291 L909 37 Z " />
<glyph glyph-name="d" unicode="d" horiz-adv-x="1268" d="M1135 0 L819 0 L819 141 L815 141 Q707 -25 498 -25 Q306 -25 189 110.5 Q72 246 72 489 Q72 743 201 896 Q330 1049 539 1049 Q737 1049 815 907 L819 907 L819 1516 L1135 1516 L1135 0 Z M825 498 L825 575 Q825 675 767 741 Q709 807 616 807 Q511 807 452 724.5 Q393 642 393 498 Q393 363 450 290 Q507 217 608 217 Q704 217 764.5 294 Q825 371 825 498 Z " />
<glyph glyph-name="e" unicode="e" horiz-adv-x="1108" d="M1053 422 L385 422 Q401 199 666 199 Q835 199 963 279 L963 51 Q821 -25 594 -25 Q346 -25 209 112.5 Q72 250 72 496 Q72 751 220 900 Q368 1049 584 1049 Q808 1049 930.5 916 Q1053 783 1053 555 L1053 422 Z M760 616 Q760 836 582 836 Q506 836 450.5 773 Q395 710 383 616 L760 616 Z " />
<glyph glyph-name="f" unicode="f" horiz-adv-x="785" d="M801 1274 Q740 1298 684 1298 Q532 1298 532 1133 L532 1024 L766 1024 L766 791 L532 791 L532 0 L217 0 L217 791 L45 791 L45 1024 L217 1024 L217 1151 Q217 1326 331 1433 Q445 1540 641 1540 Q737 1540 801 1520 L801 1274 Z " />
<glyph glyph-name="g" unicode="g" horiz-adv-x="1268" d="M1137 117 Q1137 -168 972 -324.5 Q807 -481 494 -481 Q287 -481 166 -422 L166 -156 Q324 -248 485 -248 Q645 -248 733 -163.5 Q821 -79 821 66 L821 147 L817 147 Q709 -25 498 -25 Q302 -25 187 113 Q72 251 72 483 Q72 743 200 896 Q328 1049 537 1049 Q724 1049 817 905 L821 905 L821 1024 L1137 1024 L1137 117 Z M825 492 L825 573 Q825 670 767.5 738.5 Q710 807 618 807 Q513 807 453 725 Q393 643 393 494 Q393 366 450 291.5 Q507 217 606 217 Q704 217 764.5 292.5 Q825 368 825 492 Z " />
<glyph glyph-name="h" unicode="h" horiz-adv-x="1233" d="M1116 0 L801 0 L801 582 Q801 807 637 807 Q553 807 501 744 Q449 681 449 584 L449 0 L133 0 L133 1516 L449 1516 L449 872 L453 872 Q569 1049 768 1049 Q1116 1049 1116 629 L1116 0 Z " />
<glyph glyph-name="i" unicode="i" horiz-adv-x="582" d="M293 1186 Q213 1186 162 1233.5 Q111 1281 111 1350 Q111 1421 162 1466 Q213 1511 293 1511 Q374 1511 424.5 1466 Q475 1421 475 1350 Q475 1278 424.5 1232 Q374 1186 293 1186 Z M449 0 L133 0 L133 1024 L449 1024 L449 0 Z " />
<glyph glyph-name="j" unicode="j" horiz-adv-x="582" d="M293 1186 Q213 1186 162 1233.5 Q111 1281 111 1350 Q111 1421 162 1466 Q213 1511 293 1511 Q374 1511 424.5 1466 Q475 1421 475 1350 Q475 1278 424.5 1232 Q374 1186 293 1186 Z M449 18 Q449 -209 338 -345 Q227 -481 18 -481 Q-51 -481 -133 -451 L-133 -203 Q-67 -240 -16 -240 Q133 -240 133 -6 L133 1024 L449 1024 L449 18 Z " />
<glyph glyph-name="k" unicode="k" horiz-adv-x="1145" d="M1159 0 L780 0 L453 508 L449 508 L449 0 L133 0 L133 1516 L449 1516 L449 551 L453 551 L758 1024 L1133 1024 L766 543 L1159 0 Z " />
<glyph glyph-name="l" unicode="l" horiz-adv-x="582" d="M449 0 L133 0 L133 1516 L449 1516 L449 0 Z " />
<glyph glyph-name="m" unicode="m" horiz-adv-x="1876" d="M1759 0 L1444 0 L1444 584 Q1444 807 1280 807 Q1202 807 1153 740 Q1104 673 1104 573 L1104 0 L788 0 L788 590 Q788 807 627 807 Q546 807 497.5 743 Q449 679 449 569 L449 0 L133 0 L133 1024 L449 1024 L449 864 L453 864 Q502 946 590.5 997.5 Q679 1049 784 1049 Q1001 1049 1081 858 Q1198 1049 1425 1049 Q1759 1049 1759 637 L1759 0 Z " />
<glyph glyph-name="n" unicode="n" horiz-adv-x="1239" d="M1122 0 L807 0 L807 569 Q807 807 637 807 Q555 807 502 744 Q449 681 449 584 L449 0 L133 0 L133 1024 L449 1024 L449 862 L453 862 Q566 1049 782 1049 Q1122 1049 1122 627 L1122 0 Z " />
<glyph glyph-name="o" unicode="o" horiz-adv-x="1252" d="M621 -25 Q365 -25 218.5 118.5 Q72 262 72 508 Q72 762 224 905.5 Q376 1049 635 1049 Q890 1049 1035 905.5 Q1180 762 1180 526 Q1180 271 1030.5 123 Q881 -25 621 -25 Z M629 807 Q517 807 455 730 Q393 653 393 512 Q393 217 631 217 Q858 217 858 520 Q858 807 629 807 Z " />
<glyph glyph-name="p" unicode="p" horiz-adv-x="1270" d="M453 119 L449 119 L449 -471 L133 -471 L133 1024 L449 1024 L449 870 L453 870 Q570 1049 782 1049 Q981 1049 1089.5 912.5 Q1198 776 1198 541 Q1198 285 1071.5 130 Q945 -25 735 -25 Q550 -25 453 119 Z M444 539 L444 457 Q444 351 500 284 Q556 217 647 217 Q755 217 814.5 300.5 Q874 384 874 537 Q874 807 664 807 Q567 807 505.5 733.5 Q444 660 444 539 Z " />
<glyph glyph-name="q" unicode="q" horiz-adv-x="1268" d="M1135 -471 L819 -471 L819 141 L815 141 Q708 -25 500 -25 Q307 -25 189.5 109.5 Q72 244 72 487 Q72 743 201 896 Q330 1049 537 1049 Q725 1049 815 905 L819 905 L819 1024 L1135 1024 L1135 -471 Z M825 489 L825 571 Q825 671 767 739 Q709 807 618 807 Q513 807 453 724.5 Q393 642 393 496 Q393 365 451.5 291 Q510 217 604 217 Q704 217 764.5 292 Q825 367 825 489 Z " />
<glyph glyph-name="r" unicode="r" horiz-adv-x="815" d="M801 739 Q744 770 668 770 Q565 770 507 694.5 Q449 619 449 489 L449 0 L133 0 L133 1024 L449 1024 L449 834 L453 834 Q528 1042 723 1042 Q773 1042 801 1030 L801 739 Z " />
<glyph glyph-name="s" unicode="s" horiz-adv-x="901" d="M66 27 L66 283 Q144 236 221.5 213 Q299 190 368 190 Q452 190 500.5 213 Q549 236 549 283 Q549 313 527 333 Q505 353 470.5 368 Q436 383 395 395 Q354 407 316 422 Q255 445 208.5 471.5 Q162 498 130.5 533 Q99 568 82.5 614 Q66 660 66 723 Q66 809 103.5 871 Q141 933 203.5 972.5 Q266 1012 346.5 1030.5 Q427 1049 514 1049 Q582 1049 652 1038.5 Q722 1028 790 1008 L790 764 Q730 799 661.5 816.5 Q593 834 527 834 Q496 834 468.5 828.5 Q441 823 420 812.5 Q399 802 387 785.5 Q375 769 375 748 Q375 720 393 700 Q411 680 440 665.5 Q469 651 504.5 639.5 Q540 628 575 616 Q638 594 689 568 Q740 542 776.5 507 Q813 472 832.5 425 Q852 378 852 313 Q852 222 812.5 157.5 Q773 93 707.5 52.5 Q642 12 556.5 -6.5 Q471 -25 379 -25 Q210 -25 66 27 Z " />
<glyph glyph-name="t" unicode="t" horiz-adv-x="797" d="M752 12 Q682 -25 541 -25 Q207 -25 207 322 L207 791 L41 791 L41 1024 L207 1024 L207 1245 L522 1335 L522 1024 L752 1024 L752 791 L522 791 L522 377 Q522 217 649 217 Q699 217 752 246 L752 12 Z " />
<glyph glyph-name="u" unicode="u" horiz-adv-x="1239" d="M1106 0 L791 0 L791 156 L786 156 Q669 -25 473 -25 Q117 -25 117 406 L117 1024 L432 1024 L432 434 Q432 217 604 217 Q689 217 740 276.5 Q791 336 791 438 L791 1024 L1106 1024 L1106 0 Z " />
<glyph glyph-name="v" unicode="v" horiz-adv-x="1110" d="M1108 1024 L727 0 L367 0 L4 1024 L342 1024 L520 393 Q550 286 555 211 L559 211 Q566 282 596 387 L778 1024 L1108 1024 Z " />
<glyph glyph-name="w" unicode="w" horiz-adv-x="1633" d="M1616 1024 L1321 0 L989 0 L838 600 Q823 660 821 731 L815 731 Q808 653 795 604 L633 0 L305 0 L16 1024 L338 1024 L479 356 Q489 309 494 242 L500 242 Q505 312 518 360 L694 1024 L995 1024 L1153 356 Q1159 331 1167 240 L1174 240 Q1179 298 1190 356 L1323 1024 L1616 1024 Z " />
<glyph glyph-name="x" unicode="x" horiz-adv-x="1131" d="M1122 1024 L784 528 L1120 0 L756 0 L608 276 Q590 309 565 369 L561 369 Q546 327 520 279 L371 0 L8 0 L354 510 L29 1024 L395 1024 L541 737 Q570 680 582 641 L586 641 Q602 688 629 739 L778 1024 L1122 1024 Z " />
<glyph glyph-name="y" unicode="y" horiz-adv-x="1102" d="M1108 1024 L692 -82 Q542 -481 240 -481 Q125 -481 51 -455 L51 -203 Q114 -240 188 -240 Q310 -240 358 -125 L412 2 L-4 1024 L346 1024 L537 401 Q555 343 565 264 L569 264 Q578 322 602 399 L795 1024 L1108 1024 Z " />
<glyph glyph-name="z" unicode="z" horiz-adv-x="981" d="M944 0 L25 0 L25 131 L539 791 L76 791 L76 1024 L940 1024 L940 868 L453 233 L944 233 L944 0 Z " />
<glyph glyph-name="braceleft" unicode="&#x7b;" horiz-adv-x="756" d="M674 -326 Q456 -326 357 -246 Q258 -166 258 39 L258 279 Q258 463 106 463 L106 647 Q258 647 258 838 L258 1061 Q258 1267 356 1350.5 Q454 1434 674 1434 L674 1247 Q514 1247 514 1073 L514 860 Q514 620 360 557 L360 553 Q514 491 514 246 L514 41 Q514 -57 551.5 -98 Q589 -139 674 -139 L674 -326 Z " />
<glyph glyph-name="bar" unicode="&#x7c;" horiz-adv-x="668" d="M461 -481 L209 -481 L209 1567 L461 1567 L461 -481 Z " />
<glyph glyph-name="braceright" unicode="&#x7d;" horiz-adv-x="756" d="M651 463 Q498 463 498 276 L498 45 Q498 -166 400.5 -246 Q303 -326 84 -326 L84 -139 Q168 -139 206 -98.5 Q244 -58 244 39 L244 252 Q244 491 397 551 L397 555 Q244 618 244 868 L244 1073 Q244 1247 84 1247 L84 1434 Q302 1434 400 1350.5 Q498 1267 498 1065 L498 836 Q498 647 651 647 L651 463 Z " />
<glyph glyph-name="asciitilde" unicode="&#x7e;" horiz-adv-x="1448" d="M1255 772 Q1249 604 1165.5 506 Q1082 408 942 408 Q836 408 684 496 Q575 559 528 559 Q405 559 399 399 L195 399 Q201 568 284.5 666 Q368 764 512 764 Q624 764 750 688 Q880 610 930 610 Q982 610 1015.5 654.5 Q1049 699 1051 772 L1255 772 Z " />
<glyph glyph-name="Adieresis" unicode="&#xc4;" horiz-adv-x="1440" d="M1425 0 L1073 0 L971 319 L461 319 L360 0 L10 0 L532 1434 L915 1434 L1425 0 Z M897 567 L743 1049 Q726 1103 719 1178 L711 1178 Q706 1115 686 1053 L530 567 L897 567 Z M945 1567 Q878 1567 835 1606 Q792 1645 792 1704 Q792 1765 835 1803 Q878 1841 945 1841 Q1012 1841 1055.5 1802.5 Q1099 1764 1099 1704 Q1099 1644 1056 1605.5 Q1013 1567 945 1567 Z M487 1567 Q419 1567 376 1606.5 Q333 1646 333 1704 Q333 1764 377 1802.5 Q421 1841 487 1841 Q555 1841 597.5 1802.5 Q640 1764 640 1704 Q640 1643 597.5 1605 Q555 1567 487 1567 Z " />
<glyph glyph-name="Aring" unicode="&#xc5;" horiz-adv-x="1440" d="M1425 0 L1073 0 L971 319 L461 319 L360 0 L10 0 L522 1407 Q469 1461 469 1544 Q469 1650 542.5 1713 Q616 1776 723 1776 Q837 1776 907 1712.5 Q977 1649 977 1548 Q977 1468 924 1411 L1425 0 Z M719 1645 Q672 1645 644 1616.5 Q616 1588 616 1546 Q616 1448 719 1448 Q767 1448 796 1476.5 Q825 1505 825 1546 Q825 1589 795.5 1617 Q766 1645 719 1645 Z M893 584 L741 1049 Q728 1089 719 1169 L711 1169 Q704 1101 688 1053 L535 584 L893 584 Z " />
<glyph glyph-name="Ccedilla" unicode="&#xc7;" horiz-adv-x="1278" d="M1192 51 Q1035 -25 782 -25 Q452 -25 263 169 Q74 363 74 686 Q74 1030 286.5 1244 Q499 1458 838 1458 Q1048 1458 1192 1405 L1192 1094 Q1048 1180 864 1180 Q662 1180 538 1053 Q414 926 414 709 Q414 501 531 377.5 Q648 254 846 254 Q1035 254 1192 346 L1192 51 Z M610 -451 L610 -313 Q645 -319 682 -319 Q805 -319 805 -246 Q805 -180 694 -180 Q681 -180 657 -182 L657 0 L829 0 L829 -82 Q1016 -90 1016 -248 Q1016 -455 698 -455 Q652 -455 610 -451 Z " />
<glyph glyph-name="Eacute" unicode="&#xc9;" horiz-adv-x="1090" d="M1024 0 L164 0 L164 1434 L991 1434 L991 1171 L487 1171 L487 852 L956 852 L956 590 L487 590 L487 262 L1024 262 L1024 0 Z M934 1890 L621 1567 L393 1567 L653 1890 L934 1890 Z " />
<glyph glyph-name="Ntilde" unicode="&#xd1;" horiz-adv-x="1618" d="M1454 0 L1128 0 L537 901 Q485 980 465 1020 L461 1020 Q469 944 469 788 L469 0 L164 0 L164 1434 L512 1434 L1081 561 Q1120 502 1153 444 L1157 444 Q1149 494 1149 641 L1149 1434 L1454 1434 L1454 0 Z M1206 1878 Q1206 1738 1150.5 1661.5 Q1095 1585 999 1585 Q913 1585 831 1628 Q742 1675 708 1675 Q628 1675 628 1567 L487 1567 Q487 1706 542 1783 Q597 1860 696 1860 Q777 1860 864 1811 Q943 1767 984 1767 Q1062 1767 1062 1878 L1206 1878 Z " />
<glyph glyph-name="Odieresis" unicode="&#xd6;" horiz-adv-x="1552" d="M770 -25 Q462 -25 268 175.5 Q74 376 74 698 Q74 1038 271 1248 Q468 1458 793 1458 Q1100 1458 1289.5 1257 Q1479 1056 1479 727 Q1479 389 1282.5 182 Q1086 -25 770 -25 Z M784 1180 Q614 1180 514 1052.5 Q414 925 414 715 Q414 502 514 378 Q614 254 776 254 Q943 254 1041 374.5 Q1139 495 1139 709 Q1139 932 1044 1056 Q949 1180 784 1180 Z M1004 1567 Q937 1567 894 1606 Q851 1645 851 1704 Q851 1765 894 1803 Q937 1841 1004 1841 Q1071 1841 1114.5 1802.5 Q1158 1764 1158 1704 Q1158 1644 1115 1605.5 Q1072 1567 1004 1567 Z M546 1567 Q478 1567 435 1606.5 Q392 1646 392 1704 Q392 1764 436 1802.5 Q480 1841 546 1841 Q614 1841 656.5 1802.5 Q699 1764 699 1704 Q699 1643 656.5 1605 Q614 1567 546 1567 Z " />
<glyph glyph-name="Udieresis" unicode="&#xdc;" horiz-adv-x="1481" d="M1333 621 Q1333 -25 731 -25 Q147 -25 147 606 L147 1434 L471 1434 L471 602 Q471 254 743 254 Q1010 254 1010 590 L1010 1434 L1333 1434 L1333 621 Z M969 1567 Q902 1567 859 1606 Q816 1645 816 1704 Q816 1765 859 1803 Q902 1841 969 1841 Q1036 1841 1079.5 1802.5 Q1123 1764 1123 1704 Q1123 1644 1080 1605.5 Q1037 1567 969 1567 Z M511 1567 Q443 1567 400 1606.5 Q357 1646 357 1704 Q357 1764 401 1802.5 Q445 1841 511 1841 Q579 1841 621.5 1802.5 Q664 1764 664 1704 Q664 1643 621.5 1605 Q579 1567 511 1567 Z " />
<glyph glyph-name="aacute" unicode="&#xe1;" horiz-adv-x="1102" d="M985 0 L686 0 L686 147 L682 147 Q579 -25 377 -25 Q228 -25 142.5 59.5 Q57 144 57 285 Q57 583 410 629 L688 666 Q688 834 506 834 Q323 834 158 725 L158 963 Q224 997 338.5 1023 Q453 1049 547 1049 Q985 1049 985 612 L985 0 Z M688 416 L688 485 L502 461 Q348 441 348 322 Q348 268 385.5 233.5 Q423 199 487 199 Q576 199 632 260.5 Q688 322 688 416 Z M891 1509 L578 1186 L350 1186 L610 1509 L891 1509 Z " />
<glyph glyph-name="agrave" unicode="&#xe0;" horiz-adv-x="1102" d="M985 0 L686 0 L686 147 L682 147 Q579 -25 377 -25 Q228 -25 142.5 59.5 Q57 144 57 285 Q57 583 410 629 L688 666 Q688 834 506 834 Q323 834 158 725 L158 963 Q224 997 338.5 1023 Q453 1049 547 1049 Q985 1049 985 612 L985 0 Z M688 416 L688 485 L502 461 Q348 441 348 322 Q348 268 385.5 233.5 Q423 199 487 199 Q576 199 632 260.5 Q688 322 688 416 Z M775 1186 L548 1186 L234 1509 L515 1509 L775 1186 Z " />
<glyph glyph-name="acircumflex" unicode="&#xe2;" horiz-adv-x="1102" d="M985 0 L686 0 L686 147 L682 147 Q579 -25 377 -25 Q228 -25 142.5 59.5 Q57 144 57 285 Q57 583 410 629 L688 666 Q688 834 506 834 Q323 834 158 725 L158 963 Q224 997 338.5 1023 Q453 1049 547 1049 Q985 1049 985 612 L985 0 Z M688 416 L688 485 L502 461 Q348 441 348 322 Q348 268 385.5 233.5 Q423 199 487 199 Q576 199 632 260.5 Q688 322 688 416 Z M914 1186 L707 1186 L549 1374 L402 1186 L195 1186 L430 1511 L678 1511 L914 1186 Z " />
<glyph glyph-name="adieresis" unicode="&#xe4;" horiz-adv-x="1102" d="M985 0 L686 0 L686 147 L682 147 Q579 -25 377 -25 Q228 -25 142.5 59.5 Q57 144 57 285 Q57 583 410 629 L688 666 Q688 834 506 834 Q323 834 158 725 L158 963 Q224 997 338.5 1023 Q453 1049 547 1049 Q985 1049 985 612 L985 0 Z M688 416 L688 485 L502 461 Q348 441 348 322 Q348 268 385.5 233.5 Q423 199 487 199 Q576 199 632 260.5 Q688 322 688 416 Z M787 1186 Q720 1186 677 1225 Q634 1264 634 1323 Q634 1384 677 1422 Q720 1460 787 1460 Q854 1460 897.5 1421.5 Q941 1383 941 1323 Q941 1263 898 1224.5 Q855 1186 787 1186 Z M329 1186 Q261 1186 218 1225.5 Q175 1265 175 1323 Q175 1383 219 1421.5 Q263 1460 329 1460 Q397 1460 439.5 1421.5 Q482 1383 482 1323 Q482 1262 439.5 1224 Q397 1186 329 1186 Z " />
<glyph glyph-name="atilde" unicode="&#xe3;" horiz-adv-x="1102" d="M985 0 L686 0 L686 147 L682 147 Q579 -25 377 -25 Q228 -25 142.5 59.5 Q57 144 57 285 Q57 583 410 629 L688 666 Q688 834 506 834 Q323 834 158 725 L158 963 Q224 997 338.5 1023 Q453 1049 547 1049 Q985 1049 985 612 L985 0 Z M688 416 L688 485 L502 461 Q348 441 348 322 Q348 268 385.5 233.5 Q423 199 487 199 Q576 199 632 260.5 Q688 322 688 416 Z M907 1497 Q907 1357 851.5 1280.5 Q796 1204 700 1204 Q614 1204 532 1247 Q443 1294 409 1294 Q329 1294 329 1186 L188 1186 Q188 1325 243 1402 Q298 1479 397 1479 Q478 1479 565 1430 Q644 1386 685 1386 Q763 1386 763 1497 L907 1497 Z " />
<glyph glyph-name="aring" unicode="&#xe5;" horiz-adv-x="1102" d="M985 0 L686 0 L686 147 L682 147 Q579 -25 377 -25 Q228 -25 142.5 59.5 Q57 144 57 285 Q57 583 410 629 L688 666 Q688 834 506 834 Q323 834 158 725 L158 963 Q224 997 338.5 1023 Q453 1049 547 1049 Q985 1049 985 612 L985 0 Z M688 416 L688 485 L502 461 Q348 441 348 322 Q348 268 385.5 233.5 Q423 199 487 199 Q576 199 632 260.5 Q688 322 688 416 Z M573 1186 Q471 1186 404.5 1245.5 Q338 1305 338 1401 Q338 1502 407.5 1562 Q477 1622 578 1622 Q685 1622 751 1562.5 Q817 1503 817 1407 Q817 1309 745.5 1247.5 Q674 1186 573 1186 Z M573 1499 Q477 1499 477 1405 Q477 1311 573 1311 Q618 1311 647 1338.5 Q676 1366 676 1405 Q676 1446 647.5 1472.5 Q619 1499 573 1499 Z " />
<glyph glyph-name="ccedilla" unicode="&#xe7;" horiz-adv-x="983" d="M909 37 Q802 -25 600 -25 Q364 -25 218 118 Q72 261 72 487 Q72 748 228.5 898.5 Q385 1049 647 1049 Q828 1049 909 1001 L909 733 Q810 807 688 807 Q552 807 472.5 727.5 Q393 648 393 508 Q393 372 469 294.5 Q545 217 678 217 Q796 217 909 291 L909 37 Z M426 -451 L426 -313 Q461 -319 498 -319 Q621 -319 621 -246 Q621 -180 510 -180 Q497 -180 473 -182 L473 0 L645 0 L645 -82 Q832 -90 832 -248 Q832 -455 514 -455 Q468 -455 426 -451 Z " />
<glyph glyph-name="eacute" unicode="&#xe9;" horiz-adv-x="1108" d="M1053 422 L385 422 Q401 199 666 199 Q835 199 963 279 L963 51 Q821 -25 594 -25 Q346 -25 209 112.5 Q72 250 72 496 Q72 751 220 900 Q368 1049 584 1049 Q808 1049 930.5 916 Q1053 783 1053 555 L1053 422 Z M760 616 Q760 836 582 836 Q506 836 450.5 773 Q395 710 383 616 L760 616 Z M921 1509 L608 1186 L380 1186 L640 1509 L921 1509 Z " />
<glyph glyph-name="egrave" unicode="&#xe8;" horiz-adv-x="1108" d="M1053 422 L385 422 Q401 199 666 199 Q835 199 963 279 L963 51 Q821 -25 594 -25 Q346 -25 209 112.5 Q72 250 72 496 Q72 751 220 900 Q368 1049 584 1049 Q808 1049 930.5 916 Q1053 783 1053 555 L1053 422 Z M760 616 Q760 836 582 836 Q506 836 450.5 773 Q395 710 383 616 L760 616 Z M795 1186 L568 1186 L254 1509 L535 1509 L795 1186 Z " />
<glyph glyph-name="ecircumflex" unicode="&#xea;" horiz-adv-x="1108" d="M1053 422 L385 422 Q401 199 666 199 Q835 199 963 279 L963 51 Q821 -25 594 -25 Q346 -25 209 112.5 Q72 250 72 496 Q72 751 220 900 Q368 1049 584 1049 Q808 1049 930.5 916 Q1053 783 1053 555 L1053 422 Z M760 616 Q760 836 582 836 Q506 836 450.5 773 Q395 710 383 616 L760 616 Z M949 1186 L742 1186 L584 1374 L437 1186 L230 1186 L465 1511 L713 1511 L949 1186 Z " />
<glyph glyph-name="edieresis" unicode="&#xeb;" horiz-adv-x="1108" d="M1053 422 L385 422 Q401 199 666 199 Q835 199 963 279 L963 51 Q821 -25 594 -25 Q346 -25 209 112.5 Q72 250 72 496 Q72 751 220 900 Q368 1049 584 1049 Q808 1049 930.5 916 Q1053 783 1053 555 L1053 422 Z M760 616 Q760 836 582 836 Q506 836 450.5 773 Q395 710 383 616 L760 616 Z M808 1186 Q741 1186 698 1225 Q655 1264 655 1323 Q655 1384 698 1422 Q741 1460 808 1460 Q875 1460 918.5 1421.5 Q962 1383 962 1323 Q962 1263 919 1224.5 Q876 1186 808 1186 Z M350 1186 Q282 1186 239 1225.5 Q196 1265 196 1323 Q196 1383 240 1421.5 Q284 1460 350 1460 Q418 1460 460.5 1421.5 Q503 1383 503 1323 Q503 1262 460.5 1224 Q418 1186 350 1186 Z " />
<glyph glyph-name="iacute" unicode="&#xed;" horiz-adv-x="582" d="M449 0 L133 0 L133 1024 L449 1024 L449 0 Z M612 1509 L299 1186 L71 1186 L331 1509 L612 1509 Z " />
<glyph glyph-name="igrave" unicode="&#xec;" horiz-adv-x="582" d="M449 0 L133 0 L133 1024 L449 1024 L449 0 Z M514 1186 L287 1186 L-27 1509 L254 1509 L514 1186 Z " />
<glyph glyph-name="icircumflex" unicode="&#xee;" horiz-adv-x="582" d="M449 0 L133 0 L133 1024 L449 1024 L449 0 Z M657 1186 L450 1186 L292 1374 L145 1186 L-62 1186 L173 1511 L421 1511 L657 1186 Z " />
<glyph glyph-name="idieresis" unicode="&#xef;" horiz-adv-x="582" d="M449 0 L133 0 L133 1024 L449 1024 L449 0 Z M526 1186 Q459 1186 416 1225 Q373 1264 373 1323 Q373 1384 416 1422 Q459 1460 526 1460 Q593 1460 636.5 1421.5 Q680 1383 680 1323 Q680 1263 637 1224.5 Q594 1186 526 1186 Z M68 1186 Q0 1186 -43 1225.5 Q-86 1265 -86 1323 Q-86 1383 -42 1421.5 Q2 1460 68 1460 Q136 1460 178.5 1421.5 Q221 1383 221 1323 Q221 1262 178.5 1224 Q136 1186 68 1186 Z " />
<glyph glyph-name="ntilde" unicode="&#xf1;" horiz-adv-x="1239" d="M1122 0 L807 0 L807 569 Q807 807 637 807 Q555 807 502 744 Q449 681 449 584 L449 0 L133 0 L133 1024 L449 1024 L449 862 L453 862 Q566 1049 782 1049 Q1122 1049 1122 627 L1122 0 Z M982 1497 Q982 1357 926.5 1280.5 Q871 1204 775 1204 Q689 1204 607 1247 Q518 1294 484 1294 Q404 1294 404 1186 L263 1186 Q263 1325 318 1402 Q373 1479 472 1479 Q553 1479 640 1430 Q719 1386 760 1386 Q838 1386 838 1497 L982 1497 Z " />
<glyph glyph-name="oacute" unicode="&#xf3;" horiz-adv-x="1251" d="M621 -25 Q365 -25 218.5 118.5 Q72 262 72 508 Q72 762 224 905.5 Q376 1049 635 1049 Q890 1049 1035 905.5 Q1180 762 1180 526 Q1180 271 1030.5 123 Q881 -25 621 -25 Z M629 807 Q517 807 455 730 Q393 653 393 512 Q393 217 631 217 Q858 217 858 520 Q858 807 629 807 Z M968 1509 L655 1186 L427 1186 L687 1509 L968 1509 Z " />
<glyph glyph-name="ograve" unicode="&#xf2;" horiz-adv-x="1251" d="M621 -25 Q365 -25 218.5 118.5 Q72 262 72 508 Q72 762 224 905.5 Q376 1049 635 1049 Q890 1049 1035 905.5 Q1180 762 1180 526 Q1180 271 1030.5 123 Q881 -25 621 -25 Z M629 807 Q517 807 455 730 Q393 653 393 512 Q393 217 631 217 Q858 217 858 520 Q858 807 629 807 Z M852 1186 L625 1186 L311 1509 L592 1509 L852 1186 Z " />
<glyph glyph-name="ocircumflex" unicode="&#xf4;" horiz-adv-x="1251" d="M621 -25 Q365 -25 218.5 118.5 Q72 262 72 508 Q72 762 224 905.5 Q376 1049 635 1049 Q890 1049 1035 905.5 Q1180 762 1180 526 Q1180 271 1030.5 123 Q881 -25 621 -25 Z M629 807 Q517 807 455 730 Q393 653 393 512 Q393 217 631 217 Q858 217 858 520 Q858 807 629 807 Z M988 1186 L781 1186 L623 1374 L476 1186 L269 1186 L504 1511 L752 1511 L988 1186 Z " />
<glyph glyph-name="odieresis" unicode="&#xf6;" horiz-adv-x="1251" d="M621 -25 Q365 -25 218.5 118.5 Q72 262 72 508 Q72 762 224 905.5 Q376 1049 635 1049 Q890 1049 1035 905.5 Q1180 762 1180 526 Q1180 271 1030.5 123 Q881 -25 621 -25 Z M629 807 Q517 807 455 730 Q393 653 393 512 Q393 217 631 217 Q858 217 858 520 Q858 807 629 807 Z M859 1186 Q792 1186 749 1225 Q706 1264 706 1323 Q706 1384 749 1422 Q792 1460 859 1460 Q926 1460 969.5 1421.5 Q1013 1383 1013 1323 Q1013 1263 970 1224.5 Q927 1186 859 1186 Z M401 1186 Q333 1186 290 1225.5 Q247 1265 247 1323 Q247 1383 291 1421.5 Q335 1460 401 1460 Q469 1460 511.5 1421.5 Q554 1383 554 1323 Q554 1262 511.5 1224 Q469 1186 401 1186 Z " />
<glyph glyph-name="otilde" unicode="&#xf5;" horiz-adv-x="1251" d="M621 -25 Q365 -25 218.5 118.5 Q72 262 72 508 Q72 762 224 905.5 Q376 1049 635 1049 Q890 1049 1035 905.5 Q1180 762 1180 526 Q1180 271 1030.5 123 Q881 -25 621 -25 Z M629 807 Q517 807 455 730 Q393 653 393 512 Q393 217 631 217 Q858 217 858 520 Q858 807 629 807 Z M985 1497 Q985 1357 929.5 1280.5 Q874 1204 778 1204 Q692 1204 610 1247 Q521 1294 487 1294 Q407 1294 407 1186 L266 1186 Q266 1325 321 1402 Q376 1479 475 1479 Q556 1479 643 1430 Q722 1386 763 1386 Q841 1386 841 1497 L985 1497 Z " />
<glyph glyph-name="uacute" unicode="&#xfa;" horiz-adv-x="1239" d="M1106 0 L791 0 L791 156 L786 156 Q669 -25 473 -25 Q117 -25 117 406 L117 1024 L432 1024 L432 434 Q432 217 604 217 Q689 217 740 276.5 Q791 336 791 438 L791 1024 L1106 1024 L1106 0 Z M977 1509 L664 1186 L436 1186 L696 1509 L977 1509 Z " />
<glyph glyph-name="ugrave" unicode="&#xf9;" horiz-adv-x="1239" d="M1106 0 L791 0 L791 156 L786 156 Q669 -25 473 -25 Q117 -25 117 406 L117 1024 L432 1024 L432 434 Q432 217 604 217 Q689 217 740 276.5 Q791 336 791 438 L791 1024 L1106 1024 L1106 0 Z M784 1186 L557 1186 L243 1509 L524 1509 L784 1186 Z " />
<glyph glyph-name="ucircumflex" unicode="&#xfb;" horiz-adv-x="1239" d="M1106 0 L791 0 L791 156 L786 156 Q669 -25 473 -25 Q117 -25 117 406 L117 1024 L432 1024 L432 434 Q432 217 604 217 Q689 217 740 276.5 Q791 336 791 438 L791 1024 L1106 1024 L1106 0 Z M970 1186 L763 1186 L605 1374 L458 1186 L251 1186 L486 1511 L734 1511 L970 1186 Z " />
<glyph glyph-name="udieresis" unicode="&#xfc;" horiz-adv-x="1239" d="M1106 0 L791 0 L791 156 L786 156 Q669 -25 473 -25 Q117 -25 117 406 L117 1024 L432 1024 L432 434 Q432 217 604 217 Q689 217 740 276.5 Q791 336 791 438 L791 1024 L1106 1024 L1106 0 Z M844 1186 Q777 1186 734 1225 Q691 1264 691 1323 Q691 1384 734 1422 Q777 1460 844 1460 Q911 1460 954.5 1421.5 Q998 1383 998 1323 Q998 1263 955 1224.5 Q912 1186 844 1186 Z M386 1186 Q318 1186 275 1225.5 Q232 1265 232 1323 Q232 1383 276 1421.5 Q320 1460 386 1460 Q454 1460 496.5 1421.5 Q539 1383 539 1323 Q539 1262 496.5 1224 Q454 1186 386 1186 Z " />
<glyph glyph-name="dagger" unicode="&#x2020;" horiz-adv-x="832" d="M798 868 L525 898 L480 202 L351 202 L306 898 L33 868 L33 1094 L326 1064 L296 1434 L535 1434 L505 1064 L798 1094 L798 868 Z " />
<glyph glyph-name="degree" unicode="&#xb0;" horiz-adv-x="778" d="M399 895 Q280 895 197.5 977.5 Q115 1060 115 1178 Q115 1296 197.5 1377 Q280 1458 399 1458 Q517 1458 600.5 1377 Q684 1296 684 1178 Q684 1060 600.5 977.5 Q517 895 399 895 Z M399 1307 Q345 1307 307.5 1269.5 Q270 1232 270 1178 Q270 1124 307.5 1085.5 Q345 1047 399 1047 Q452 1047 490 1085.5 Q528 1124 528 1178 Q528 1232 490.5 1269.5 Q453 1307 399 1307 Z " />
<glyph glyph-name="cent" unicode="&#xa2;" horiz-adv-x="1178" d="M1004 207 Q931 165 823 152 L823 -37 L662 -37 L662 147 Q446 159 308 298.5 Q170 438 170 657 Q170 891 304 1038.5 Q438 1186 662 1210 L662 1421 L823 1421 L823 1214 Q933 1208 1004 1169 L1004 897 Q928 955 823 967 L823 393 Q931 410 1004 461 L1004 207 Z M662 399 L662 958 Q467 899 467 678 Q467 456 662 399 Z " />
<glyph glyph-name="sterling" unicode="&#xa3;" horiz-adv-x="1178" d="M1114 0 L143 0 L143 227 Q336 279 336 496 L336 612 L164 612 L164 829 L336 829 L336 1016 Q336 1214 458 1336 Q580 1458 788 1458 Q915 1458 1022 1409 L1022 1151 Q924 1217 813 1217 Q629 1217 629 987 L629 829 L897 829 L897 612 L629 612 L629 526 Q629 342 477 242 L1114 242 L1114 0 Z " />
<glyph glyph-name="section" unicode="&#xa7;" horiz-adv-x="994" d="M752 434 Q834 359 834 260 Q834 111 725.5 22.5 Q617 -66 440 -66 Q277 -66 150 2 L150 250 Q330 145 461 145 Q588 145 588 244 Q588 305 492 352 Q351 417 282 464.5 Q213 512 172 581 Q131 650 131 731 Q131 874 256 965 Q168 1053 168 1180 Q168 1320 270.5 1405.5 Q373 1491 545 1491 Q684 1491 805 1436 L805 1186 Q666 1282 545 1282 Q422 1282 422 1188 Q422 1143 462.5 1110.5 Q503 1078 647 1014 Q901 902 901 705 Q901 538 752 434 Z M432 864 Q367 826 367 754 Q367 697 418 652 Q469 607 596 553 Q662 597 662 676 Q662 738 608.5 776.5 Q555 815 432 864 Z " />
<glyph glyph-name="bullet" unicode="&#x2022;" horiz-adv-x="865" d="M434 281 Q321 281 240.5 362 Q160 443 160 557 Q160 671 240 751 Q320 831 434 831 Q548 831 629.5 750.5 Q711 670 711 557 Q711 444 629.5 362.5 Q548 281 434 281 Z " />
<glyph glyph-name="paragraph" unicode="&#xb6;" horiz-adv-x="1043" d="M946 1272 L829 1272 L829 0 L655 0 L655 1272 L537 1272 L537 0 L360 0 L360 836 Q245 843 168.5 928 Q92 1013 92 1139 Q92 1268 177.5 1351 Q263 1434 389 1434 L946 1434 L946 1272 Z " />
<glyph glyph-name="germandbls" unicode="&#xdf;" horiz-adv-x="1286" d="M545 8 L545 270 Q628 217 721 217 Q804 217 853.5 269.5 Q903 322 903 414 Q903 530 814 597.5 Q725 665 563 670 L563 891 Q674 899 735.5 959 Q797 1019 797 1118 Q797 1202 752.5 1250 Q708 1298 633 1298 Q449 1298 449 1053 L449 0 L133 0 L133 1049 Q133 1272 270 1406 Q407 1540 651 1540 Q868 1540 994 1430.5 Q1120 1321 1120 1149 Q1120 1027 1048.5 935 Q977 843 864 809 L864 805 Q1227 736 1227 406 Q1227 226 1100.5 100.5 Q974 -25 758 -25 Q653 -25 545 8 Z " />
<glyph glyph-name="sfthyphen" unicode="&#xad;" horiz-adv-x="828" d="M690 436 L143 436 L143 657 L690 657 L690 436 Z " />
<glyph glyph-name="registered" unicode="&#xae;" horiz-adv-x="1790" d="M893 -25 Q560 -25 345.5 182 Q131 389 131 713 Q131 1030 351.5 1244 Q572 1458 901 1458 Q1229 1458 1445 1249.5 Q1661 1041 1661 717 Q1661 400 1439.5 187.5 Q1218 -25 893 -25 Z M897 1346 Q622 1346 443 1166 Q264 986 264 717 Q264 445 445.5 266.5 Q627 88 897 88 Q1162 88 1345 267.5 Q1528 447 1528 715 Q1528 987 1348 1166.5 Q1168 1346 897 1346 Z M1288 264 L1034 264 L958 496 Q918 618 848 618 L774 618 L774 264 L563 264 L563 1186 L883 1186 Q1253 1186 1253 924 Q1253 735 1036 680 L1036 676 Q1126 656 1178 530 L1288 264 Z M774 1010 L774 780 L885 780 Q1024 780 1024 899 Q1024 1010 864 1010 L774 1010 Z " />
<glyph glyph-name="copyright" unicode="&#xa9;" horiz-adv-x="1790" d="M893 -25 Q560 -25 345.5 182 Q131 389 131 713 Q131 1030 351.5 1244 Q572 1458 901 1458 Q1229 1458 1445 1249.5 Q1661 1041 1661 717 Q1661 400 1439.5 187.5 Q1218 -25 893 -25 Z M897 1346 Q622 1346 443 1166 Q264 986 264 717 Q264 445 445.5 266.5 Q627 88 897 88 Q1162 88 1345 267.5 Q1528 447 1528 715 Q1528 987 1348 1166.5 Q1168 1346 897 1346 Z M1204 295 Q1079 227 930 227 Q721 227 583.5 361 Q446 495 446 696 Q446 927 589.5 1066.5 Q733 1206 963 1206 Q1088 1206 1202 1151 L1202 915 Q1104 991 958 991 Q843 991 765.5 914.5 Q688 838 688 709 Q688 587 766.5 511.5 Q845 436 965 436 Q1106 436 1204 512 L1204 295 Z " />
<glyph glyph-name="trademark" unicode="&#x2122;" horiz-adv-x="1579" d="M1395 772 L1245 772 L1245 1217 L1241 1217 L1081 772 L946 772 L801 1217 L795 1217 L795 772 L647 772 L647 1434 L864 1434 L1020 981 L1024 981 L1192 1434 L1395 1434 L1395 772 Z M582 1311 L403 1311 L403 772 L248 772 L248 1311 L76 1311 L76 1434 L582 1434 L582 1311 Z " />
<glyph glyph-name="acute" unicode="&#xb4;" horiz-adv-x="621" d="M596 1509 L283 1186 L55 1186 L315 1509 L596 1509 Z " />
<glyph glyph-name="dieresis" unicode="&#xa8;" horiz-adv-x="946" d="M698 1186 Q631 1186 588 1225 Q545 1264 545 1323 Q545 1384 588 1422 Q631 1460 698 1460 Q765 1460 808.5 1421.5 Q852 1383 852 1323 Q852 1263 809 1224.5 Q766 1186 698 1186 Z M240 1186 Q172 1186 129 1225.5 Q86 1265 86 1323 Q86 1383 130 1421.5 Q174 1460 240 1460 Q308 1460 350.5 1421.5 Q393 1383 393 1323 Q393 1262 350.5 1224 Q308 1186 240 1186 Z " />
<glyph glyph-name="notequal" unicode="&#x2260;" horiz-adv-x="1450" d="M1212 266 L676 266 L537 0 L293 0 L432 266 L238 266 L238 469 L539 469 L659 700 L238 700 L238 905 L766 905 L911 1188 L1155 1188 L1010 905 L1212 905 L1212 700 L903 700 L782 469 L1212 469 L1212 266 Z " />
<glyph glyph-name="AE" unicode="&#xc6;" horiz-adv-x="1915" d="M1849 0 L991 0 L991 319 L520 319 L373 0 L-2 0 L723 1434 L1817 1434 L1817 1171 L1313 1171 L1313 852 L1782 852 L1782 590 L1313 590 L1313 262 L1849 262 L1849 0 Z M991 567 L991 1171 L913 1171 L631 567 L991 567 Z " />
<glyph glyph-name="Oslash" unicode="&#xd8;" horiz-adv-x="1553" d="M348 109 L205 -61 L80 43 L229 219 Q74 411 74 698 Q74 1038 270.5 1248 Q467 1458 793 1458 Q1027 1458 1194 1339 L1323 1489 L1448 1386 L1313 1229 Q1479 1033 1479 727 Q1479 389 1282.5 182 Q1086 -25 770 -25 Q530 -25 348 109 Z M1016 1130 Q919 1206 784 1206 Q603 1206 497 1069.5 Q391 933 391 709 Q391 563 438 457 L1016 1130 Z M1110 995 L532 319 Q633 227 776 227 Q951 227 1057 355.5 Q1163 484 1163 707 Q1163 871 1110 995 Z " />
<glyph glyph-name="infinity" unicode="&#x221e;" horiz-adv-x="1664" d="M834 438 Q681 195 455 195 Q285 195 177.5 306.5 Q70 418 70 598 Q70 763 181 879 Q292 995 455 995 Q691 995 834 743 Q986 985 1214 985 Q1385 985 1492 874 Q1599 763 1599 584 Q1599 419 1487 302.5 Q1375 186 1212 186 Q981 186 834 438 Z M729 596 Q621 788 483 788 Q402 788 350.5 733.5 Q299 679 299 596 Q299 513 350.5 459.5 Q402 406 485 406 Q621 406 729 596 Z M940 586 Q1048 395 1186 395 Q1266 395 1317 449 Q1368 503 1368 586 Q1368 670 1316.5 724 Q1265 778 1184 778 Q1050 778 940 586 Z " />
<glyph glyph-name="plusminus" unicode="&#xb1;" horiz-adv-x="1448" d="M1212 694 L827 694 L827 307 L625 307 L625 694 L242 694 L242 897 L625 897 L625 1288 L827 1288 L827 897 L1212 897 L1212 694 Z M1210 0 L238 0 L238 203 L1210 203 L1210 0 Z " />
<glyph glyph-name="lessequal" unicode="&#x2264;" horiz-adv-x="1450" d="M1194 248 L258 647 L258 821 L1194 1239 L1194 1001 L526 737 L526 733 L1194 485 L1194 248 Z M1210 0 L238 0 L238 203 L1210 203 L1210 0 Z " />
<glyph glyph-name="greaterequal" unicode="&#x2265;" horiz-adv-x="1450" d="M1194 647 L258 248 L258 485 L926 731 L926 735 L258 1001 L258 1239 L1194 821 L1194 647 Z M1210 0 L238 0 L238 203 L1210 203 L1210 0 Z " />
<glyph glyph-name="yen" unicode="&#xa5;" horiz-adv-x="1178" d="M1157 1434 L803 793 L1055 793 L1055 604 L750 604 L750 451 L1055 451 L1055 262 L750 262 L750 0 L442 0 L442 262 L127 262 L127 451 L442 451 L442 604 L127 604 L127 793 L383 793 L41 1434 L362 1434 L608 864 L612 864 Q616 875 649 954 L852 1434 L1157 1434 Z " />
<glyph glyph-name="mu1" unicode="&#xb5;" horiz-adv-x="1255" d="M1161 0 L837 0 Q812 70 812 154 L808 154 Q751 -23 592 -23 Q495 -23 452 41 L449 41 L449 -395 L133 -395 L133 1024 L449 1024 L449 435 Q449 228 619 228 Q803 228 803 482 L803 1024 L1122 1024 L1122 314 Q1122 78 1161 0 Z " />
<glyph glyph-name="partialdiff" unicode="&#x2202;" horiz-adv-x="1183" d="M819 879 L823 879 Q825 910 825 918 Q825 1260 582 1260 Q448 1260 313 1190 L377 1440 Q514 1501 662 1501 Q1149 1501 1149 922 Q1149 705 1075 470 Q1001 235 846.5 105 Q692 -25 475 -25 Q274 -25 159.5 88 Q45 201 45 397 Q45 650 190 835 Q335 1020 563 1020 Q732 1020 819 879 Z M786 645 Q748 799 629 799 Q520 799 443.5 678 Q367 557 367 408 Q367 217 510 217 Q612 217 688 336.5 Q764 456 786 645 Z " />
<glyph glyph-name="summation" unicode="&#x2211;" horiz-adv-x="1316" d="M1270 -469 L53 -469 L53 -293 L657 492 L78 1249 L78 1434 L1237 1434 L1237 1171 L530 1171 L1030 500 L502 -207 L1270 -207 L1270 -469 Z " />
<glyph glyph-name="product" unicode="&#x220f;" horiz-adv-x="1620" d="M1475 -471 L1151 -471 L1151 1155 L487 1155 L487 -471 L164 -471 L164 1434 L1475 1434 L1475 -471 Z " />
<glyph glyph-name="integral" unicode="&#x222b;" horiz-adv-x="1180" d="M1016 1274 Q955 1298 899 1298 Q748 1298 748 1133 L748 -98 Q748 -274 634.5 -381.5 Q521 -489 326 -489 Q231 -489 166 -469 L166 -223 Q231 -248 281 -248 Q432 -248 432 -82 L432 1151 Q432 1326 546 1433 Q660 1540 856 1540 Q952 1540 1016 1520 L1016 1274 Z " />
<glyph glyph-name="ordfeminine" unicode="&#xaa;" horiz-adv-x="840" d="M739 717 L526 717 L526 803 L522 803 Q435 696 303 696 Q202 696 137 757 Q72 818 72 915 Q72 1126 334 1159 L526 1184 Q526 1298 387 1298 Q269 1298 141 1221 L141 1397 Q265 1454 428 1454 Q739 1454 739 1155 L739 717 Z M526 985 L526 1055 L403 1038 Q287 1022 287 942 Q287 854 391 854 Q445 854 485.5 892.5 Q526 931 526 985 Z " />
<glyph glyph-name="ordmasculine" unicode="&#xba;" horiz-adv-x="934" d="M459 696 Q274 696 172 795.5 Q70 895 70 1073 Q70 1252 178.5 1353 Q287 1454 471 1454 Q652 1454 755 1352.5 Q858 1251 858 1087 Q858 903 751.5 799.5 Q645 696 459 696 Z M465 1280 Q301 1280 301 1077 Q301 870 465 870 Q625 870 625 1079 Q625 1280 465 1280 Z " />
<glyph glyph-name="Ohm" unicode="&#x2126;" horiz-adv-x="1568" d="M1137 260 L1484 260 L1484 0 L883 0 L883 260 Q1146 487 1146 785 Q1146 965 1044 1073 Q942 1181 789 1181 Q630 1181 527 1073.5 Q424 966 424 775 Q424 495 683 260 L683 0 L82 0 L82 260 L422 260 Q84 456 84 829 Q84 1114 279.5 1286 Q475 1458 783 1458 Q1099 1458 1292 1284.5 Q1485 1111 1485 833 Q1485 454 1137 260 Z " />
<glyph glyph-name="ae" unicode="&#xe6;" horiz-adv-x="1696" d="M1640 422 L973 422 Q993 199 1255 199 Q1415 199 1552 279 L1552 53 Q1396 -25 1174 -25 Q905 -25 776 154 L772 154 Q631 -25 410 -25 Q244 -25 150.5 57.5 Q57 140 57 287 Q57 433 153.5 521 Q250 609 430 623 L686 643 Q686 834 502 834 Q328 834 158 727 L158 963 Q345 1049 528 1049 Q762 1049 852 915 L856 915 Q988 1049 1182 1049 Q1396 1049 1518 916 Q1640 783 1640 551 L1640 422 Z M1348 616 Q1348 836 1171 836 Q1096 836 1039.5 774 Q983 712 973 616 L1348 616 Z M686 414 L686 459 L530 446 Q346 431 346 315 Q346 265 385 232 Q424 199 487 199 Q573 199 629.5 258.5 Q686 318 686 414 Z " />
<glyph glyph-name="oslash" unicode="&#xf8;" horiz-adv-x="1252" d="M1206 1010 L1067 864 Q1180 721 1180 526 Q1180 267 1032 122 Q884 -23 621 -23 Q423 -23 293 63 L158 -78 L39 29 L176 172 Q72 313 72 510 Q72 763 224.5 907 Q377 1051 637 1051 Q816 1051 948 969 L1087 1116 L1206 1010 Z M772 791 Q716 831 631 831 Q373 831 373 514 Q373 441 391 393 L772 791 Z M862 651 L469 242 Q530 197 629 197 Q881 197 881 520 Q881 594 862 651 Z " />
<glyph glyph-name="questiondown" unicode="&#xbf;" horiz-adv-x="897" d="M647 611 Q657 585 662.5 552.5 Q668 520 668 491 Q668 445 659 407 Q650 369 632 335.5 Q614 302 587 271.5 Q560 241 524 211 Q487 179 458 151.5 Q429 124 409 96.5 Q389 69 379 39.5 Q369 10 369 -26 Q369 -57 380 -83.5 Q391 -110 411.5 -129 Q432 -148 461.5 -159 Q491 -170 527 -170 Q605 -170 689 -137.5 Q773 -105 848 -39 L848 -340 Q771 -386 680 -409 Q589 -432 492 -432 Q399 -432 319 -411.5 Q239 -391 179.5 -347 Q120 -303 86.5 -234.5 Q53 -166 53 -70 Q53 -9 67 40.5 Q81 90 108 134 Q135 178 175 218.5 Q215 259 267 302 Q302 331 328.5 356 Q355 381 372.5 405.5 Q390 430 399 457.5 Q408 485 408 520 Q408 544 401.5 569 Q395 594 384 611 L647 611 Z M501 1049 Q582 1049 634 1001 Q687 951 687 883 Q687 813 634 766 Q581 719 501 719 Q422 719 370 766 Q318 812 318 883 Q318 956 369 1002 Q421 1049 501 1049 Z " />
<glyph glyph-name="nbspace" unicode="&#xa0;" horiz-adv-x="565" d="" />
<glyph glyph-name="exclamdown" unicode="&#xa1;" horiz-adv-x="670" d="M336 721 Q255 721 203.5 767 Q152 813 152 883 Q152 955 203.5 1002 Q255 1049 336 1049 Q415 1049 466.5 1001 Q518 953 518 883 Q518 811 466.5 766 Q415 721 336 721 Z M504 -408 L172 -408 L209 582 L465 582 L504 -408 Z " />
<glyph glyph-name="logicalnot" unicode="&#xac;" horiz-adv-x="1448" d="M1212 266 L1010 266 L1010 655 L238 655 L238 858 L1212 858 L1212 266 Z " />
<glyph glyph-name="radical" unicode="&#x221a;" horiz-adv-x="1331" d="M1196 1516 L788 0 L592 0 L272 729 L90 729 L90 897 L440 897 L682 330 L999 1516 L1196 1516 Z " />
<glyph glyph-name="florin" unicode="&#x192;" horiz-adv-x="1178" d="M1044 1174 Q980 1204 911 1204 Q787 1204 764 1067 L741 930 L899 930 L899 715 L707 715 L616 121 Q586 -75 476 -190 Q366 -305 199 -305 Q149 -305 78 -285 L78 -43 Q117 -63 170 -63 Q293 -63 324 139 L412 715 L307 715 L307 930 L449 930 L471 1079 Q496 1246 606 1346 Q716 1446 885 1446 Q967 1446 1044 1423 L1044 1174 Z " />
<glyph glyph-name="approxequal" unicode="&#x2248;" horiz-adv-x="1450" d="M1255 997 Q1249 829 1165.5 731 Q1082 633 942 633 Q837 633 684 721 Q575 784 528 784 Q405 784 399 627 L195 627 Q201 796 283.5 892.5 Q366 989 510 989 Q624 989 750 913 Q875 838 930 838 Q983 838 1016 881.5 Q1049 925 1051 997 L1255 997 Z M1255 549 Q1249 381 1165.5 282.5 Q1082 184 942 184 Q840 184 684 274 Q574 338 528 338 Q405 338 399 176 L195 176 Q201 346 283.5 444.5 Q366 543 510 543 Q624 543 750 467 Q880 389 930 389 Q983 389 1016 433 Q1049 477 1051 549 L1255 549 Z " />
<glyph glyph-name="increment" unicode="&#x394;" horiz-adv-x="1440" d="M1379 0 L36 0 L36 125 L522 1434 L904 1434 L1379 125 L1379 0 Z M994 262 L741 1026 Q713 1111 707 1169 L699 1169 Q692 1104 667 1028 L412 262 L994 262 Z " />
<glyph glyph-name="guillemotleft" unicode="&#xab;" horiz-adv-x="1190" d="M1137 201 L868 201 L541 537 L868 881 L1137 881 L803 537 L1137 201 Z M651 201 L383 201 L53 537 L383 881 L649 881 L315 537 L651 201 Z " />
<glyph glyph-name="guillemotright" unicode="&#xbb;" horiz-adv-x="1190" d="M1137 537 L809 201 L541 201 L874 537 L543 881 L809 881 L1137 537 Z M651 537 L322 201 L53 201 L389 537 L55 881 L322 881 L651 537 Z " />
<glyph glyph-name="ellipsis" unicode="&#x2026;" horiz-adv-x="1868" d="M1554 -23 Q1476 -23 1424 25 Q1372 73 1372 143 Q1372 215 1424.5 261 Q1477 307 1556 307 Q1637 307 1689 260.5 Q1741 214 1741 143 Q1741 70 1689.5 23.5 Q1638 -23 1554 -23 Z M932 -23 Q854 -23 803 25 Q752 73 752 143 Q752 215 803.5 261 Q855 307 934 307 Q1015 307 1066.5 260.5 Q1118 214 1118 143 Q1118 70 1066.5 23.5 Q1015 -23 932 -23 Z M309 -23 Q231 -23 180 25 Q129 73 129 143 Q129 215 180.5 261 Q232 307 311 307 Q392 307 444 260.5 Q496 214 496 143 Q496 70 444.5 23.5 Q393 -23 309 -23 Z " />
<glyph glyph-name="Agrave" unicode="&#xc0;" horiz-adv-x="1440" d="M1425 0 L1073 0 L971 319 L461 319 L360 0 L10 0 L532 1434 L915 1434 L1425 0 Z M897 567 L743 1049 Q726 1103 719 1178 L711 1178 Q706 1115 686 1053 L530 567 L897 567 Z M916 1567 L689 1567 L375 1890 L656 1890 L916 1567 Z " />
<glyph glyph-name="Atilde" unicode="&#xc3;" horiz-adv-x="1440" d="M1425 0 L1073 0 L971 319 L461 319 L360 0 L10 0 L532 1434 L915 1434 L1425 0 Z M897 567 L743 1049 Q726 1103 719 1178 L711 1178 Q706 1115 686 1053 L530 567 L897 567 Z M1077 1878 Q1077 1738 1021.5 1661.5 Q966 1585 870 1585 Q784 1585 702 1628 Q613 1675 579 1675 Q499 1675 499 1567 L358 1567 Q358 1706 413 1783 Q468 1860 567 1860 Q648 1860 735 1811 Q814 1767 855 1767 Q933 1767 933 1878 L1077 1878 Z " />
<glyph glyph-name="Otilde" unicode="&#xd5;" horiz-adv-x="1552" d="M770 -25 Q462 -25 268 175.5 Q74 376 74 698 Q74 1038 271 1248 Q468 1458 793 1458 Q1100 1458 1289.5 1257 Q1479 1056 1479 727 Q1479 389 1282.5 182 Q1086 -25 770 -25 Z M784 1180 Q614 1180 514 1052.5 Q414 925 414 715 Q414 502 514 378 Q614 254 776 254 Q943 254 1041 374.5 Q1139 495 1139 709 Q1139 932 1044 1056 Q949 1180 784 1180 Z M1147 1878 Q1147 1738 1091.5 1661.5 Q1036 1585 940 1585 Q854 1585 772 1628 Q683 1675 649 1675 Q569 1675 569 1567 L428 1567 Q428 1706 483 1783 Q538 1860 637 1860 Q718 1860 805 1811 Q884 1767 925 1767 Q1003 1767 1003 1878 L1147 1878 Z " />
<glyph glyph-name="OE" unicode="&#x152;" horiz-adv-x="1925" d="M1860 0 L1032 0 Q1006 0 915 -12 Q825 -25 758 -25 Q451 -25 262.5 178 Q74 381 74 698 Q74 1040 268 1249 Q462 1458 784 1458 Q847 1458 935 1446 Q1024 1434 1044 1434 L1827 1434 L1827 1171 L1323 1171 L1323 848 L1792 848 L1792 584 L1323 584 L1323 262 L1860 262 L1860 0 Z M991 305 L991 1128 Q905 1180 782 1180 Q614 1180 515 1050.5 Q416 921 416 711 Q416 503 517 378.5 Q618 254 778 254 Q894 254 991 305 Z " />
<glyph glyph-name="oe" unicode="&#x153;" horiz-adv-x="1893" d="M1837 422 L1167 422 Q1181 199 1450 199 Q1617 199 1745 279 L1745 51 Q1603 -25 1399 -25 Q1147 -25 1008 164 L1004 164 Q867 -23 596 -23 Q362 -23 217 120 Q72 263 72 508 Q72 759 219 905 Q366 1051 608 1051 Q742 1051 846.5 1001.5 Q951 952 1001 874 L1006 874 Q1124 1049 1382 1049 Q1595 1049 1716 915 Q1837 781 1837 557 L1837 422 Z M1542 616 Q1542 836 1368 836 Q1288 836 1233 772.5 Q1178 709 1167 616 L1542 616 Z M631 807 Q518 807 455.5 729.5 Q393 652 393 512 Q393 219 629 219 Q858 219 858 516 Q858 654 798.5 730.5 Q739 807 631 807 Z " />
<glyph glyph-name="endash" unicode="&#x2013;" horiz-adv-x="1024" d="M1024 436 L0 436 L0 657 L1024 657 L1024 436 Z " />
<glyph glyph-name="emdash" unicode="&#x2014;" horiz-adv-x="2048" d="M2048 436 L0 436 L0 657 L2048 657 L2048 436 Z " />
<glyph glyph-name="quotedblleft" unicode="&#x201c;" horiz-adv-x="1010" d="M897 1468 L784 1024 L512 1024 L702 1468 L897 1468 Z M481 1468 L371 1024 L96 1024 L285 1468 L481 1468 Z " />
<glyph glyph-name="quotedblright" unicode="&#x201d;" horiz-adv-x="1010" d="M915 1468 L725 1024 L528 1024 L641 1468 L915 1468 Z M500 1468 L307 1024 L113 1024 L227 1468 L500 1468 Z " />
<glyph glyph-name="quoteleft" unicode="&#x2018;" horiz-adv-x="594" d="M481 1468 L371 1024 L96 1024 L285 1468 L481 1468 Z " />
<glyph glyph-name="quoteright" unicode="&#x2019;" horiz-adv-x="594" d="M500 1468 L307 1024 L113 1024 L227 1468 L500 1468 Z " />
<glyph glyph-name="divide" unicode="&#xf7;" horiz-adv-x="1448" d="M731 846 Q672 846 631 886 Q590 926 590 983 Q590 1045 629.5 1086.5 Q669 1128 731 1128 Q793 1128 830.5 1088 Q868 1048 868 985 Q868 924 827.5 885 Q787 846 731 846 Z M1212 485 L238 485 L238 688 L1212 688 L1212 485 Z M727 47 Q668 47 627 86 Q586 125 586 182 Q586 244 625.5 286 Q665 328 727 328 Q789 328 826.5 287.5 Q864 247 864 184 Q864 123 824 85 Q784 47 727 47 Z " />
<glyph glyph-name="lozenge" unicode="&#x25ca;" horiz-adv-x="1203" d="M1128 717 L655 0 L541 0 L72 715 L541 1434 L655 1434 L1128 717 Z M899 717 L600 1188 L301 717 L600 246 L899 717 Z " />
<glyph glyph-name="ydieresis" unicode="&#xff;" horiz-adv-x="1102" d="M1108 1024 L692 -82 Q542 -481 240 -481 Q125 -481 51 -455 L51 -203 Q114 -240 188 -240 Q310 -240 358 -125 L412 2 L-4 1024 L346 1024 L537 401 Q555 343 565 264 L569 264 Q578 322 602 399 L795 1024 L1108 1024 Z M793 1186 Q726 1186 683 1225 Q640 1264 640 1323 Q640 1384 683 1422 Q726 1460 793 1460 Q860 1460 903.5 1421.5 Q947 1383 947 1323 Q947 1263 904 1224.5 Q861 1186 793 1186 Z M335 1186 Q267 1186 224 1225.5 Q181 1265 181 1323 Q181 1383 225 1421.5 Q269 1460 335 1460 Q403 1460 445.5 1421.5 Q488 1383 488 1323 Q488 1262 445.5 1224 Q403 1186 335 1186 Z " />
<glyph glyph-name="Ydieresis" unicode="&#x178;" horiz-adv-x="1243" d="M1245 1434 L778 510 L778 0 L455 0 L455 504 L0 1434 L369 1434 L600 899 Q606 884 633 782 L637 782 Q650 854 668 895 L903 1434 L1245 1434 Z M858 1567 Q791 1567 748 1606 Q705 1645 705 1704 Q705 1765 748 1803 Q791 1841 858 1841 Q925 1841 968.5 1802.5 Q1012 1764 1012 1704 Q1012 1644 969 1605.5 Q926 1567 858 1567 Z M400 1567 Q332 1567 289 1606.5 Q246 1646 246 1704 Q246 1764 290 1802.5 Q334 1841 400 1841 Q468 1841 510.5 1802.5 Q553 1764 553 1704 Q553 1643 510.5 1605 Q468 1567 400 1567 Z " />
<glyph glyph-name="&amp;#x2044;" unicode="&#x2044;" horiz-adv-x="719" d="M932 1434 L41 0 L-203 0 L688 1434 L932 1434 Z " />
<glyph glyph-name="&amp;#x2215;" unicode="&#x2215;" horiz-adv-x="719" d="M932 1434 L41 0 L-203 0 L688 1434 L932 1434 Z " />
<glyph glyph-name="Euro" unicode="&#x20ac;" horiz-adv-x="1178" d="M1094 45 Q976 -27 786 -27 Q561 -27 419 97.5 Q277 222 231 453 L109 453 L109 643 L205 643 Q203 668 203 702 Q203 720 207 784 L109 784 L109 971 L236 971 Q291 1202 444 1330 Q597 1458 825 1458 Q992 1458 1094 1403 L1094 1143 Q982 1231 840 1231 Q730 1231 646.5 1160 Q563 1089 528 971 L954 971 L954 784 L498 784 Q494 725 494 702 Q494 675 496 643 L954 643 L954 453 L526 453 Q601 201 825 201 Q966 201 1094 291 L1094 45 Z " />
<glyph glyph-name="guilsinglleft" unicode="&#x2039;" horiz-adv-x="705" d="M651 201 L383 201 L53 537 L383 881 L651 881 L317 537 L651 201 Z " />
<glyph glyph-name="guilsinglright" unicode="&#x203a;" horiz-adv-x="705" d="M651 537 L322 201 L53 201 L387 537 L55 881 L322 881 L651 537 Z " />
<glyph glyph-name="fi" unicode="&#xfb01;" horiz-adv-x="1366" d="M786 1272 Q729 1300 672 1300 Q530 1300 530 1135 L530 1024 L762 1024 L762 795 L530 795 L530 0 L213 0 L213 795 L41 795 L41 1024 L213 1024 L213 1151 Q213 1326 325.5 1433 Q438 1540 631 1540 Q724 1540 786 1520 L786 1272 Z M1077 1186 Q997 1186 946 1233.5 Q895 1281 895 1350 Q895 1421 946 1466 Q997 1511 1077 1511 Q1158 1511 1209 1466 Q1260 1421 1260 1350 Q1260 1279 1209.5 1232.5 Q1159 1186 1077 1186 Z M1233 0 L918 0 L918 1024 L1233 1024 L1233 0 Z " />
<glyph glyph-name="fl" unicode="&#xfb02;" horiz-adv-x="1366" d="M786 1272 Q729 1300 672 1300 Q530 1300 530 1135 L530 1024 L762 1024 L762 795 L530 795 L530 0 L213 0 L213 795 L41 795 L41 1024 L213 1024 L213 1151 Q213 1326 325.5 1433 Q438 1540 631 1540 Q724 1540 786 1520 L786 1272 Z M1233 0 L918 0 L918 1516 L1233 1516 L1233 0 Z " />
<glyph glyph-name="daggerdbl" unicode="&#x2021;" horiz-adv-x="832" d="M798 482 L500 512 L535 202 L296 202 L331 512 L33 482 L33 708 L301 678 L334 818 L301 958 L33 928 L33 1154 L331 1124 L296 1434 L535 1434 L500 1124 L798 1154 L798 928 L530 958 L497 818 L530 678 L798 708 L798 482 Z " />
<glyph glyph-name="middot" unicode="&#xb7;" horiz-adv-x="555" d="M274 487 Q196 487 144 535 Q92 583 92 653 Q92 725 145.5 771 Q199 817 279 817 Q360 817 411.5 770.5 Q463 724 463 653 Q463 580 410.5 533.5 Q358 487 274 487 Z " />
<glyph glyph-name="quotesinglbase" unicode="&#x201a;" horiz-adv-x="594" d="M477 219 L285 -225 L90 -225 L205 219 L477 219 Z " />
<glyph glyph-name="quotedblbase" unicode="&#x201e;" horiz-adv-x="1010" d="M893 219 L700 -225 L506 -225 L618 219 L893 219 Z M477 219 L285 -225 L90 -225 L205 219 L477 219 Z " />
<glyph glyph-name="perthousand" unicode="&#x2030;" horiz-adv-x="2573" d="M430 707 Q277 707 183.5 804 Q90 901 90 1065 Q90 1244 189.5 1349 Q289 1454 455 1454 Q614 1454 703.5 1359 Q793 1264 793 1092 Q793 915 694 811 Q595 707 430 707 Z M449 1278 Q303 1278 303 1075 Q303 883 442 883 Q584 883 584 1083 Q584 1278 449 1278 Z M1477 1434 L543 0 L299 0 L1233 1434 L1477 1434 Z M2118 -20 Q1965 -20 1871.5 77 Q1778 174 1778 338 Q1778 517 1877.5 622 Q1977 727 2142 727 Q2303 727 2392.5 633 Q2482 539 2482 367 Q2482 190 2382.5 85 Q2283 -20 2118 -20 Z M2136 551 Q1991 551 1991 348 Q1991 156 2130 156 Q2273 156 2273 356 Q2273 449 2235 500 Q2197 551 2136 551 Z M1323 -20 Q1170 -20 1076.5 77 Q983 174 983 338 Q983 517 1082.5 622 Q1182 727 1348 727 Q1508 727 1597 633 Q1686 539 1686 367 Q1686 190 1587 85 Q1488 -20 1323 -20 Z M1339 551 Q1194 551 1194 348 Q1194 156 1335 156 Q1477 156 1477 356 Q1477 449 1439 500 Q1401 551 1339 551 Z " />
<glyph glyph-name="Acircumflex" unicode="&#xc2;" horiz-adv-x="1440" d="M1425 0 L1073 0 L971 319 L461 319 L360 0 L10 0 L532 1434 L915 1434 L1425 0 Z M897 567 L743 1049 Q726 1103 719 1178 L711 1178 Q706 1115 686 1053 L530 567 L897 567 Z M1078 1567 L871 1567 L713 1755 L566 1567 L359 1567 L594 1892 L842 1892 L1078 1567 Z " />
<glyph glyph-name="Ecircumflex" unicode="&#xca;" horiz-adv-x="1090" d="M1024 0 L164 0 L164 1434 L991 1434 L991 1171 L487 1171 L487 852 L956 852 L956 590 L487 590 L487 262 L1024 262 L1024 0 Z M932 1567 L725 1567 L567 1755 L420 1567 L213 1567 L448 1892 L696 1892 L932 1567 Z " />
<glyph glyph-name="Aacute" unicode="&#xc1;" horiz-adv-x="1440" d="M1425 0 L1073 0 L971 319 L461 319 L360 0 L10 0 L532 1434 L915 1434 L1425 0 Z M897 567 L743 1049 Q726 1103 719 1178 L711 1178 Q706 1115 686 1053 L530 567 L897 567 Z M1036 1890 L723 1567 L495 1567 L755 1890 L1036 1890 Z " />
<glyph glyph-name="Edieresis" unicode="&#xcb;" horiz-adv-x="1090" d="M1024 0 L164 0 L164 1434 L991 1434 L991 1171 L487 1171 L487 852 L956 852 L956 590 L487 590 L487 262 L1024 262 L1024 0 Z M812 1567 Q745 1567 702 1606 Q659 1645 659 1704 Q659 1765 702 1803 Q745 1841 812 1841 Q879 1841 922.5 1802.5 Q966 1764 966 1704 Q966 1644 923 1605.5 Q880 1567 812 1567 Z M354 1567 Q286 1567 243 1606.5 Q200 1646 200 1704 Q200 1764 244 1802.5 Q288 1841 354 1841 Q422 1841 464.5 1802.5 Q507 1764 507 1704 Q507 1643 464.5 1605 Q422 1567 354 1567 Z " />
<glyph glyph-name="Egrave" unicode="&#xc8;" horiz-adv-x="1090" d="M1024 0 L164 0 L164 1434 L991 1434 L991 1171 L487 1171 L487 852 L956 852 L956 590 L487 590 L487 262 L1024 262 L1024 0 Z M766 1567 L539 1567 L225 1890 L506 1890 L766 1567 Z " />
<glyph glyph-name="Iacute" unicode="&#xcd;" horiz-adv-x="649" d="M607 1434 L607 1184 L487 1184 L487 250 L607 250 L607 0 L44 0 L44 250 L164 250 L164 1184 L44 1184 L44 1434 L607 1434 Z M651 1890 L338 1567 L110 1567 L370 1890 L651 1890 Z " />
<glyph glyph-name="Icircumflex" unicode="&#xce;" horiz-adv-x="649" d="M607 1434 L607 1184 L487 1184 L487 250 L607 250 L607 0 L44 0 L44 250 L164 250 L164 1184 L44 1184 L44 1434 L607 1434 Z M691 1567 L484 1567 L326 1755 L179 1567 L-28 1567 L207 1892 L455 1892 L691 1567 Z " />
<glyph glyph-name="Idieresis" unicode="&#xcf;" horiz-adv-x="649" d="M607 1434 L607 1184 L487 1184 L487 250 L607 250 L607 0 L44 0 L44 250 L164 250 L164 1184 L44 1184 L44 1434 L607 1434 Z M559 1567 Q492 1567 449 1606 Q406 1645 406 1704 Q406 1765 449 1803 Q492 1841 559 1841 Q626 1841 669.5 1802.5 Q713 1764 713 1704 Q713 1644 670 1605.5 Q627 1567 559 1567 Z M101 1567 Q33 1567 -10 1606.5 Q-53 1646 -53 1704 Q-53 1764 -9 1802.5 Q35 1841 101 1841 Q169 1841 211.5 1802.5 Q254 1764 254 1704 Q254 1643 211.5 1605 Q169 1567 101 1567 Z " />
<glyph glyph-name="Igrave" unicode="&#xcc;" horiz-adv-x="649" d="M607 1434 L607 1184 L487 1184 L487 250 L607 250 L607 0 L44 0 L44 250 L164 250 L164 1184 L44 1184 L44 1434 L607 1434 Z M532 1567 L305 1567 L-9 1890 L272 1890 L532 1567 Z " />
<glyph glyph-name="Oacute" unicode="&#xd3;" horiz-adv-x="1552" d="M770 -25 Q462 -25 268 175.5 Q74 376 74 698 Q74 1038 271 1248 Q468 1458 793 1458 Q1100 1458 1289.5 1257 Q1479 1056 1479 727 Q1479 389 1282.5 182 Q1086 -25 770 -25 Z M784 1180 Q614 1180 514 1052.5 Q414 925 414 715 Q414 502 514 378 Q614 254 776 254 Q943 254 1041 374.5 Q1139 495 1139 709 Q1139 932 1044 1056 Q949 1180 784 1180 Z M1110 1890 L797 1567 L569 1567 L829 1890 L1110 1890 Z " />
<glyph glyph-name="Ocircumflex" unicode="&#xd4;" horiz-adv-x="1552" d="M770 -25 Q462 -25 268 175.5 Q74 376 74 698 Q74 1038 271 1248 Q468 1458 793 1458 Q1100 1458 1289.5 1257 Q1479 1056 1479 727 Q1479 389 1282.5 182 Q1086 -25 770 -25 Z M784 1180 Q614 1180 514 1052.5 Q414 925 414 715 Q414 502 514 378 Q614 254 776 254 Q943 254 1041 374.5 Q1139 495 1139 709 Q1139 932 1044 1056 Q949 1180 784 1180 Z M1149 1567 L942 1567 L784 1755 L637 1567 L430 1567 L665 1892 L913 1892 L1149 1567 Z " />
<glyph glyph-name="Ograve" unicode="&#xd2;" horiz-adv-x="1552" d="M770 -25 Q462 -25 268 175.5 Q74 376 74 698 Q74 1038 271 1248 Q468 1458 793 1458 Q1100 1458 1289.5 1257 Q1479 1056 1479 727 Q1479 389 1282.5 182 Q1086 -25 770 -25 Z M784 1180 Q614 1180 514 1052.5 Q414 925 414 715 Q414 502 514 378 Q614 254 776 254 Q943 254 1041 374.5 Q1139 495 1139 709 Q1139 932 1044 1056 Q949 1180 784 1180 Z M971 1567 L744 1567 L430 1890 L711 1890 L971 1567 Z " />
<glyph glyph-name="Uacute" unicode="&#xda;" horiz-adv-x="1481" d="M1333 621 Q1333 -25 731 -25 Q147 -25 147 606 L147 1434 L471 1434 L471 602 Q471 254 743 254 Q1010 254 1010 590 L1010 1434 L1333 1434 L1333 621 Z M1088 1890 L775 1567 L547 1567 L807 1890 L1088 1890 Z " />
<glyph glyph-name="Ucircumflex" unicode="&#xdb;" horiz-adv-x="1481" d="M1333 621 Q1333 -25 731 -25 Q147 -25 147 606 L147 1434 L471 1434 L471 602 Q471 254 743 254 Q1010 254 1010 590 L1010 1434 L1333 1434 L1333 621 Z M1099 1567 L892 1567 L734 1755 L587 1567 L380 1567 L615 1892 L863 1892 L1099 1567 Z " />
<glyph glyph-name="Ugrave" unicode="&#xd9;" horiz-adv-x="1481" d="M1333 621 Q1333 -25 731 -25 Q147 -25 147 606 L147 1434 L471 1434 L471 602 Q471 254 743 254 Q1010 254 1010 590 L1010 1434 L1333 1434 L1333 621 Z M920 1567 L693 1567 L379 1890 L660 1890 L920 1567 Z " />
<glyph glyph-name="dotlessi" unicode="&#x131;" horiz-adv-x="582" d="M449 0 L133 0 L133 1024 L449 1024 L449 0 Z " />
<glyph glyph-name="circumflex" unicode="&#x2c6;" horiz-adv-x="785" d="M750 1186 L543 1186 L385 1374 L238 1186 L31 1186 L266 1511 L514 1511 L750 1186 Z " />
<glyph glyph-name="tilde" unicode="&#x2dc;" horiz-adv-x="785" d="M754 1497 Q754 1357 698.5 1280.5 Q643 1204 547 1204 Q461 1204 379 1247 Q290 1294 256 1294 Q176 1294 176 1186 L35 1186 Q35 1325 90 1402 Q145 1479 244 1479 Q325 1479 412 1430 Q491 1386 532 1386 Q610 1386 610 1497 L754 1497 Z " />
<glyph glyph-name="overscore" unicode="&#x2c9;" horiz-adv-x="690" d="M637 1186 L51 1186 L51 1358 L637 1358 L637 1186 Z " />
<glyph glyph-name="breve" unicode="&#x2d8;" horiz-adv-x="709" d="M692 1493 Q680 1352 589.5 1269 Q499 1186 352 1186 Q206 1186 114 1271.5 Q22 1357 18 1493 L197 1493 Q214 1358 356 1358 Q493 1358 512 1493 L692 1493 Z " />
<glyph glyph-name="dotaccent" unicode="&#x2d9;" horiz-adv-x="518" d="M260 1186 Q193 1186 149.5 1226 Q106 1266 106 1323 Q106 1383 150 1420.5 Q194 1458 260 1458 Q327 1458 369.5 1420 Q412 1382 412 1323 Q412 1264 369.5 1225 Q327 1186 260 1186 Z " />
<glyph glyph-name="ring" unicode="&#x2da;" horiz-adv-x="555" d="M274 1186 Q172 1186 105.5 1245.5 Q39 1305 39 1401 Q39 1502 108.5 1562 Q178 1622 279 1622 Q386 1622 452 1562.5 Q518 1503 518 1407 Q518 1309 446.5 1247.5 Q375 1186 274 1186 Z M274 1499 Q178 1499 178 1405 Q178 1311 274 1311 Q319 1311 348 1338.5 Q377 1366 377 1405 Q377 1446 348.5 1472.5 Q320 1499 274 1499 Z " />
<glyph glyph-name="cedilla" unicode="&#xb8;" horiz-adv-x="441" d="M51 -451 L51 -313 Q86 -319 123 -319 Q246 -319 246 -246 Q246 -180 135 -180 Q122 -180 98 -182 L98 0 L270 0 L270 -82 Q457 -90 457 -248 Q457 -455 139 -455 Q93 -455 51 -451 Z " />
<glyph glyph-name="hungarumlaut" unicode="&#x2dd;" horiz-adv-x="832" d="M870 1505 L618 1186 L408 1186 L621 1505 L870 1505 Z M492 1505 L244 1186 L33 1186 L244 1505 L492 1505 Z " />
<glyph glyph-name="ogonek" unicode="&#x2db;" horiz-adv-x="545" d="M411 -400 Q387 -408 353.5 -413.5 Q320 -419 285 -419 Q200 -419 149 -374.5 Q98 -330 98 -245 Q98 -214 109 -180.5 Q120 -147 141 -114.5 Q162 -82 193 -53 Q224 -24 264 0 L419 0 Q341 -57 303.5 -111.5 Q266 -166 266 -208 Q266 -241 283 -257.5 Q300 -274 329 -274 Q348 -274 369 -271 Q390 -268 410 -262 L411 -400 Z " />
<glyph glyph-name="caron" unicode="&#x2c7;" horiz-adv-x="785" d="M754 1511 L516 1186 L268 1186 L33 1511 L238 1511 L393 1323 L549 1511 L754 1511 Z " />
<glyph glyph-name="Lslash" unicode="&#x141;" horiz-adv-x="1047" d="M1018 0 L164 0 L164 467 L2 381 L2 645 L164 729 L164 1434 L487 1434 L487 885 L770 1034 L770 772 L487 623 L487 262 L1018 262 L1018 0 Z " />
<glyph glyph-name="lslash" unicode="&#x142;" horiz-adv-x="643" d="M610 754 L475 668 L475 0 L160 0 L160 473 L29 389 L29 647 L160 729 L160 1516 L475 1516 L475 924 L610 1010 L610 754 Z " />
<glyph glyph-name="Scaron" unicode="&#x160;" horiz-adv-x="1148" d="M98 55 L98 375 Q185 302 287 265.5 Q389 229 493 229 Q554 229 599.5 240 Q645 251 675.5 270.5 Q706 290 721 316.5 Q736 343 736 374 Q736 416 712 449 Q688 482 646.5 510 Q605 538 548 564 Q491 590 425 617 Q257 687 174.5 788 Q92 889 92 1032 Q92 1144 137 1224.5 Q182 1305 259.5 1357 Q337 1409 439 1433.5 Q541 1458 655 1458 Q767 1458 853.5 1444.5 Q940 1431 1013 1403 L1013 1104 Q977 1129 934.5 1148 Q892 1167 847 1179.5 Q802 1192 757.5 1198 Q713 1204 673 1204 Q618 1204 573 1193.5 Q528 1183 497 1164 Q466 1145 449 1118.5 Q432 1092 432 1059 Q432 1023 451 994.5 Q470 966 505 940.5 Q540 915 590 890.5 Q640 866 703 840 Q789 804 857.5 763.5 Q926 723 975 672 Q1024 621 1050 555.5 Q1076 490 1076 403 Q1076 283 1030.5 201.5 Q985 120 907 69.5 Q829 19 725.5 -3 Q622 -25 507 -25 Q389 -25 282.5 -5 Q176 15 98 55 Z M973 1861 L735 1536 L487 1536 L252 1861 L457 1861 L612 1673 L768 1861 L973 1861 Z " />
<glyph glyph-name="scaron" unicode="&#x161;" horiz-adv-x="901" d="M66 27 L66 283 Q144 236 221.5 213 Q299 190 368 190 Q452 190 500.5 213 Q549 236 549 283 Q549 313 527 333 Q505 353 470.5 368 Q436 383 395 395 Q354 407 316 422 Q255 445 208.5 471.5 Q162 498 130.5 533 Q99 568 82.5 614 Q66 660 66 723 Q66 809 103.5 871 Q141 933 203.5 972.5 Q266 1012 346.5 1030.5 Q427 1049 514 1049 Q582 1049 652 1038.5 Q722 1028 790 1008 L790 764 Q730 799 661.5 816.5 Q593 834 527 834 Q496 834 468.5 828.5 Q441 823 420 812.5 Q399 802 387 785.5 Q375 769 375 748 Q375 720 393 700 Q411 680 440 665.5 Q469 651 504.5 639.5 Q540 628 575 616 Q638 594 689 568 Q740 542 776.5 507 Q813 472 832.5 425 Q852 378 852 313 Q852 222 812.5 157.5 Q773 93 707.5 52.5 Q642 12 556.5 -6.5 Q471 -25 379 -25 Q210 -25 66 27 Z M811 1511 L573 1186 L325 1186 L90 1511 L295 1511 L450 1323 L606 1511 L811 1511 Z " />
<glyph glyph-name="Zcaron" unicode="&#x17d;" horiz-adv-x="1243" d="M1196 0 L41 0 L41 186 L776 1171 L94 1171 L94 1434 L1194 1434 L1194 1253 L475 262 L1196 262 L1196 0 Z M990 1858 L752 1533 L504 1533 L269 1858 L474 1858 L629 1670 L785 1858 L990 1858 Z " />
<glyph glyph-name="zcaron" unicode="&#x17e;" horiz-adv-x="981" d="M944 0 L25 0 L25 131 L539 791 L76 791 L76 1024 L940 1024 L940 868 L453 233 L944 233 L944 0 Z M872 1511 L634 1186 L386 1186 L151 1511 L356 1511 L511 1323 L667 1511 L872 1511 Z " />
<glyph glyph-name="brokenbar" unicode="&#xa6;" horiz-adv-x="668" d="M461 684 L209 684 L209 1567 L461 1567 L461 684 Z M461 -481 L209 -481 L209 414 L461 414 L461 -481 Z " />
<glyph glyph-name="Eth" unicode="&#xd0;" horiz-adv-x="1510" d="M164 0 L164 586 L0 586 L0 852 L164 852 L164 1434 L672 1434 Q1436 1434 1436 735 Q1436 400 1227.5 200 Q1019 0 672 0 L164 0 Z M487 1171 L487 852 L758 852 L758 586 L487 586 L487 262 L647 262 Q857 262 976.5 388 Q1096 514 1096 731 Q1096 936 977.5 1053.5 Q859 1171 645 1171 L487 1171 Z " />
<glyph glyph-name="eth" unicode="&#xf0;" horiz-adv-x="1215" d="M756 965 L760 967 Q676 1114 565 1204 L274 1061 L193 1202 L434 1317 Q277 1442 164 1516 L516 1516 Q527 1510 647 1419 L920 1552 L997 1415 L782 1311 Q1143 1020 1143 563 Q1143 303 993 139 Q843 -25 598 -25 Q350 -25 211 119.5 Q72 264 72 514 Q72 745 204.5 892.5 Q337 1040 551 1040 Q668 1040 756 965 Z M612 807 Q509 807 451 728.5 Q393 650 393 514 Q393 374 450 295.5 Q507 217 608 217 Q706 217 763.5 298.5 Q821 380 821 520 Q821 807 612 807 Z " />
<glyph glyph-name="Yacute" unicode="&#xdd;" horiz-adv-x="1243" d="M1245 1434 L778 510 L778 0 L455 0 L455 504 L0 1434 L369 1434 L600 899 Q606 884 633 782 L637 782 Q650 854 668 895 L903 1434 L1245 1434 Z M903 1857 L590 1534 L362 1534 L622 1857 L903 1857 Z " />
<glyph glyph-name="yacute" unicode="&#xfd;" horiz-adv-x="1102" d="M1108 1024 L692 -82 Q542 -481 240 -481 Q125 -481 51 -455 L51 -203 Q114 -240 188 -240 Q310 -240 358 -125 L412 2 L-4 1024 L346 1024 L537 401 Q555 343 565 264 L569 264 Q578 322 602 399 L795 1024 L1108 1024 Z M834 1509 L521 1186 L293 1186 L553 1509 L834 1509 Z " />
<glyph glyph-name="Thorn" unicode="&#xde;" horiz-adv-x="1258" d="M487 281 L487 0 L164 0 L164 1434 L487 1434 L487 1223 L670 1223 Q1212 1223 1212 766 Q1212 550 1056.5 415.5 Q901 281 641 281 L487 281 Z M487 975 L487 528 L614 528 Q872 528 872 754 Q872 975 614 975 L487 975 Z " />
<glyph glyph-name="thorn" unicode="&#xfe;" horiz-adv-x="1270" d="M453 119 L449 119 L449 -471 L133 -471 L133 1516 L449 1516 L449 870 L453 870 Q570 1049 782 1049 Q981 1049 1089.5 912.5 Q1198 776 1198 541 Q1198 285 1071.5 130 Q945 -25 735 -25 Q550 -25 453 119 Z M444 539 L444 457 Q444 351 500 284 Q556 217 647 217 Q755 217 814.5 300.5 Q874 384 874 537 Q874 807 664 807 Q567 807 505.5 733.5 Q444 660 444 539 Z " />
<glyph glyph-name="minus" unicode="&#x2212;" horiz-adv-x="1448" d="M1212 485 L238 485 L238 688 L1212 688 L1212 485 Z " />
<glyph glyph-name="multiply" unicode="&#xd7;" horiz-adv-x="1448" d="M1210 248 L1065 104 L727 444 L387 104 L242 250 L582 586 L242 926 L383 1071 L727 731 L1069 1071 L1208 920 L870 586 L1210 248 Z " />
<glyph glyph-name="onehalf" unicode="&#xbd;" horiz-adv-x="1977" d="M676 584 L113 584 L113 756 L289 756 L289 1233 L98 1192 L98 1372 L504 1454 L504 756 L676 756 L676 584 Z M1506 1434 L615 0 L371 0 L1262 1434 L1506 1434 Z M1843 0 L1239 0 L1239 157 L1487 391 Q1564 464 1582.5 501 Q1601 538 1601 583 Q1601 625 1572.5 652.5 Q1544 680 1497 680 Q1399 680 1286 577 L1286 792 Q1404 870 1536 870 Q1672 870 1751.5 801.5 Q1831 733 1831 612 Q1831 542 1793.5 471 Q1756 400 1614 274 L1509 182 L1509 178 L1843 178 L1843 0 Z " />
<glyph glyph-name="onequarter" unicode="&#xbc;" horiz-adv-x="1950" d="M676 584 L113 584 L113 756 L289 756 L289 1233 L98 1192 L98 1372 L504 1454 L504 756 L676 756 L676 584 Z M1505 1434 L614 0 L370 0 L1261 1434 L1505 1434 Z M1845 176 L1735 176 L1735 0 L1522 0 L1522 176 L1127 176 L1127 317 L1477 850 L1735 850 L1735 331 L1845 331 L1845 176 Z M1526 678 L1518 678 Q1504 642 1479 602 L1311 331 L1522 331 L1522 594 Q1522 641 1526 678 Z " />
<glyph glyph-name="threequarters" unicode="&#xbe;" horiz-adv-x="2005" d="M131 616 L131 797 Q238 729 352 729 Q502 729 502 831 Q502 934 330 934 L213 934 L213 1100 L326 1100 Q475 1100 475 1196 Q475 1286 356 1286 Q249 1286 158 1221 L158 1397 Q257 1454 397 1454 Q531 1454 608.5 1393.5 Q686 1333 686 1233 Q686 1086 543 1038 L543 1034 Q715 993 715 836 Q715 713 617 638 Q519 563 360 563 Q227 563 131 616 Z M1565 1434 L674 0 L430 0 L1321 1434 L1565 1434 Z M1892 176 L1782 176 L1782 0 L1569 0 L1569 176 L1174 176 L1174 317 L1524 850 L1782 850 L1782 331 L1892 331 L1892 176 Z M1573 678 L1565 678 Q1551 642 1526 602 L1358 331 L1569 331 L1569 594 Q1569 641 1573 678 Z " />
<glyph glyph-name="franc" unicode="&#x20a3;" horiz-adv-x="1065" d="M993 1171 L487 1171 L487 819 L952 819 L952 557 L487 557 L487 393 L758 393 L758 188 L487 188 L487 0 L164 0 L164 188 L0 188 L0 393 L164 393 L164 1434 L993 1434 L993 1171 Z " />
<glyph glyph-name="Gbreve" unicode="&#x11e;" horiz-adv-x="1456" d="M1341 96 Q1131 -25 819 -25 Q473 -25 273.5 166.5 Q74 358 74 694 Q74 1032 292 1245 Q510 1458 872 1458 Q1100 1458 1274 1395 L1274 1092 Q1108 1188 868 1188 Q667 1188 540.5 1057.5 Q414 927 414 709 Q414 488 527.5 367 Q641 246 834 246 Q950 246 1018 279 L1018 559 L731 559 L731 817 L1341 817 L1341 96 Z M1143 1874 Q1131 1733 1040.5 1650 Q950 1567 803 1567 Q657 1567 565 1652.5 Q473 1738 469 1874 L648 1874 Q665 1739 807 1739 Q944 1739 963 1874 L1143 1874 Z " />
<glyph glyph-name="gbreve" unicode="&#x11f;" horiz-adv-x="1268" d="M1137 117 Q1137 -168 972 -324.5 Q807 -481 494 -481 Q287 -481 166 -422 L166 -156 Q324 -248 485 -248 Q645 -248 733 -163.5 Q821 -79 821 66 L821 147 L817 147 Q709 -25 498 -25 Q302 -25 187 113 Q72 251 72 483 Q72 743 200 896 Q328 1049 537 1049 Q724 1049 817 905 L821 905 L821 1024 L1137 1024 L1137 117 Z M825 492 L825 573 Q825 670 767.5 738.5 Q710 807 618 807 Q513 807 453 725 Q393 643 393 494 Q393 366 450 291.5 Q507 217 606 217 Q704 217 764.5 292.5 Q825 368 825 492 Z M971 1493 Q959 1352 868.5 1269 Q778 1186 631 1186 Q485 1186 393 1271.5 Q301 1357 297 1493 L476 1493 Q493 1358 635 1358 Q772 1358 791 1493 L971 1493 Z " />
<glyph glyph-name="Idot" unicode="&#x130;" horiz-adv-x="649" d="M607 1434 L607 1184 L487 1184 L487 250 L607 250 L607 0 L44 0 L44 250 L164 250 L164 1184 L44 1184 L44 1434 L607 1434 Z M325 1567 Q258 1567 214.5 1607 Q171 1647 171 1704 Q171 1764 215 1801.5 Q259 1839 325 1839 Q392 1839 434.5 1801 Q477 1763 477 1704 Q477 1645 434.5 1606 Q392 1567 325 1567 Z " />
<glyph glyph-name="Scedilla" unicode="&#x15e;" horiz-adv-x="1148" d="M98 55 L98 375 Q185 302 287 265.5 Q389 229 493 229 Q554 229 599.5 240 Q645 251 675.5 270.5 Q706 290 721 316.5 Q736 343 736 374 Q736 416 712 449 Q688 482 646.5 510 Q605 538 548 564 Q491 590 425 617 Q257 687 174.5 788 Q92 889 92 1032 Q92 1144 137 1224.5 Q182 1305 259.5 1357 Q337 1409 439 1433.5 Q541 1458 655 1458 Q767 1458 853.5 1444.5 Q940 1431 1013 1403 L1013 1104 Q977 1129 934.5 1148 Q892 1167 847 1179.5 Q802 1192 757.5 1198 Q713 1204 673 1204 Q618 1204 573 1193.5 Q528 1183 497 1164 Q466 1145 449 1118.5 Q432 1092 432 1059 Q432 1023 451 994.5 Q470 966 505 940.5 Q540 915 590 890.5 Q640 866 703 840 Q789 804 857.5 763.5 Q926 723 975 672 Q1024 621 1050 555.5 Q1076 490 1076 403 Q1076 283 1030.5 201.5 Q985 120 907 69.5 Q829 19 725.5 -3 Q622 -25 507 -25 Q389 -25 282.5 -5 Q176 15 98 55 Z M417 -451 L417 -313 Q452 -319 489 -319 Q612 -319 612 -246 Q612 -180 501 -180 Q488 -180 464 -182 L464 0 L636 0 L636 -82 Q823 -90 823 -248 Q823 -455 505 -455 Q459 -455 417 -451 Z " />
<glyph glyph-name="scedilla" unicode="&#x15f;" horiz-adv-x="901" d="M66 27 L66 283 Q144 236 221.5 213 Q299 190 368 190 Q452 190 500.5 213 Q549 236 549 283 Q549 313 527 333 Q505 353 470.5 368 Q436 383 395 395 Q354 407 316 422 Q255 445 208.5 471.5 Q162 498 130.5 533 Q99 568 82.5 614 Q66 660 66 723 Q66 809 103.5 871 Q141 933 203.5 972.5 Q266 1012 346.5 1030.5 Q427 1049 514 1049 Q582 1049 652 1038.5 Q722 1028 790 1008 L790 764 Q730 799 661.5 816.5 Q593 834 527 834 Q496 834 468.5 828.5 Q441 823 420 812.5 Q399 802 387 785.5 Q375 769 375 748 Q375 720 393 700 Q411 680 440 665.5 Q469 651 504.5 639.5 Q540 628 575 616 Q638 594 689 568 Q740 542 776.5 507 Q813 472 832.5 425 Q852 378 852 313 Q852 222 812.5 157.5 Q773 93 707.5 52.5 Q642 12 556.5 -6.5 Q471 -25 379 -25 Q210 -25 66 27 Z M279 -451 L279 -313 Q314 -319 351 -319 Q474 -319 474 -246 Q474 -180 363 -180 Q350 -180 326 -182 L326 0 L498 0 L498 -82 Q685 -90 685 -248 Q685 -455 367 -455 Q321 -455 279 -451 Z " />
<glyph glyph-name="Cacute" unicode="&#x106;" horiz-adv-x="1278" d="M1192 51 Q1035 -25 782 -25 Q452 -25 263 169 Q74 363 74 686 Q74 1030 286.5 1244 Q499 1458 838 1458 Q1048 1458 1192 1405 L1192 1094 Q1048 1180 864 1180 Q662 1180 538 1053 Q414 926 414 709 Q414 501 531 377.5 Q648 254 846 254 Q1035 254 1192 346 L1192 51 Z M1159 1890 L846 1567 L618 1567 L878 1890 L1159 1890 Z " />
<glyph glyph-name="cacute" unicode="&#x107;" horiz-adv-x="983" d="M909 37 Q802 -25 600 -25 Q364 -25 218 118 Q72 261 72 487 Q72 748 228.5 898.5 Q385 1049 647 1049 Q828 1049 909 1001 L909 733 Q810 807 688 807 Q552 807 472.5 727.5 Q393 648 393 508 Q393 372 469 294.5 Q545 217 678 217 Q796 217 909 291 L909 37 Z M926 1509 L613 1186 L385 1186 L645 1509 L926 1509 Z " />
<glyph glyph-name="Ccaron" unicode="&#x10c;" horiz-adv-x="1278" d="M1192 51 Q1035 -25 782 -25 Q452 -25 263 169 Q74 363 74 686 Q74 1030 286.5 1244 Q499 1458 838 1458 Q1048 1458 1192 1405 L1192 1094 Q1048 1180 864 1180 Q662 1180 538 1053 Q414 926 414 709 Q414 501 531 377.5 Q648 254 846 254 Q1035 254 1192 346 L1192 51 Z M1163 1892 L925 1567 L677 1567 L442 1892 L647 1892 L802 1704 L958 1892 L1163 1892 Z " />
<glyph glyph-name="ccaron" unicode="&#x10d;" horiz-adv-x="983" d="M909 37 Q802 -25 600 -25 Q364 -25 218 118 Q72 261 72 487 Q72 748 228.5 898.5 Q385 1049 647 1049 Q828 1049 909 1001 L909 733 Q810 807 688 807 Q552 807 472.5 727.5 Q393 648 393 508 Q393 372 469 294.5 Q545 217 678 217 Q796 217 909 291 L909 37 Z M950 1511 L712 1186 L464 1186 L229 1511 L434 1511 L589 1323 L745 1511 L950 1511 Z " />
<glyph glyph-name="dslash" unicode="&#x111;" horiz-adv-x="1295" d="M1278 1171 L1135 1171 L1135 0 L819 0 L819 141 L815 141 Q707 -25 498 -25 Q306 -25 189 110.5 Q72 246 72 489 Q72 743 201 896 Q330 1049 539 1049 Q737 1049 815 907 L819 907 L819 1171 L489 1171 L489 1376 L819 1376 L819 1516 L1135 1516 L1135 1376 L1278 1376 L1278 1171 Z M825 498 L825 575 Q825 675 767 741 Q709 807 616 807 Q511 807 452 724.5 Q393 642 393 498 Q393 363 450 290 Q507 217 608 217 Q704 217 764.5 294 Q825 371 825 498 Z " />
<glyph glyph-name="uni00AF" unicode="&#xaf;" horiz-adv-x="850" d="M850 1396 L0 1396 L0 1516 L850 1516 L850 1396 Z " />
<glyph glyph-name="uni2219" unicode="&#x2219;" horiz-adv-x="555" d="M274 487 Q196 487 144 535 Q92 583 92 653 Q92 725 145.5 771 Q199 817 279 817 Q360 817 411.5 770.5 Q463 724 463 653 Q463 580 410.5 533.5 Q358 487 274 487 Z " />
<glyph glyph-name="Abreve" unicode="&#x102;" horiz-adv-x="1440" d="M1425 0 L1073 0 L971 319 L461 319 L360 0 L10 0 L532 1434 L915 1434 L1425 0 Z M897 567 L743 1049 Q726 1103 719 1178 L711 1178 Q706 1115 686 1053 L530 567 L897 567 Z M1057 1874 Q1045 1733 954.5 1650 Q864 1567 717 1567 Q571 1567 479 1652.5 Q387 1738 383 1874 L562 1874 Q579 1739 721 1739 Q858 1739 877 1874 L1057 1874 Z " />
<glyph glyph-name="abreve" unicode="&#x103;" horiz-adv-x="1102" d="M985 0 L686 0 L686 147 L682 147 Q579 -25 377 -25 Q228 -25 142.5 59.5 Q57 144 57 285 Q57 583 410 629 L688 666 Q688 834 506 834 Q323 834 158 725 L158 963 Q224 997 338.5 1023 Q453 1049 547 1049 Q985 1049 985 612 L985 0 Z M688 416 L688 485 L502 461 Q348 441 348 322 Q348 268 385.5 233.5 Q423 199 487 199 Q576 199 632 260.5 Q688 322 688 416 Z M908 1493 Q896 1352 805.5 1269 Q715 1186 568 1186 Q422 1186 330 1271.5 Q238 1357 234 1493 L413 1493 Q430 1358 572 1358 Q709 1358 728 1493 L908 1493 Z " />
<glyph glyph-name="Aogonek" unicode="&#x104;" horiz-adv-x="1440" d="M1425 0 L1073 0 L971 319 L461 319 L360 0 L10 0 L532 1434 L915 1434 L1425 0 Z M897 567 L743 1049 Q726 1103 719 1178 L711 1178 Q706 1115 686 1053 L530 567 L897 567 Z M1221 -400 Q1197 -408 1163.5 -413.5 Q1130 -419 1095 -419 Q1010 -419 959 -374.5 Q908 -330 908 -245 Q908 -214 919 -180.5 Q930 -147 951 -114.5 Q972 -82 1003 -53 Q1034 -24 1074 0 L1229 0 Q1151 -57 1113.5 -111.5 Q1076 -166 1076 -208 Q1076 -241 1093 -257.5 Q1110 -274 1139 -274 Q1158 -274 1179 -271 Q1200 -268 1220 -262 L1221 -400 Z " />
<glyph glyph-name="aogonek" unicode="&#x105;" horiz-adv-x="1102" d="M985 0 L686 0 L686 147 L682 147 Q579 -25 377 -25 Q228 -25 142.5 59.5 Q57 144 57 285 Q57 583 410 629 L688 666 Q688 834 506 834 Q323 834 158 725 L158 963 Q224 997 338.5 1023 Q453 1049 547 1049 Q985 1049 985 612 L985 0 Z M688 416 L688 485 L502 461 Q348 441 348 322 Q348 268 385.5 233.5 Q423 199 487 199 Q576 199 632 260.5 Q688 322 688 416 Z M834 -400 Q810 -408 776.5 -413.5 Q743 -419 708 -419 Q623 -419 572 -374.5 Q521 -330 521 -245 Q521 -214 532 -180.5 Q543 -147 564 -114.5 Q585 -82 616 -53 Q647 -24 687 0 L842 0 Q764 -57 726.5 -111.5 Q689 -166 689 -208 Q689 -241 706 -257.5 Q723 -274 752 -274 Q771 -274 792 -271 Q813 -268 833 -262 L834 -400 Z " />
<glyph glyph-name="Dcaron" unicode="&#x10e;" horiz-adv-x="1510" d="M164 0 L164 1434 L672 1434 Q1436 1434 1436 735 Q1436 400 1227.5 200 Q1019 0 672 0 L164 0 Z M487 1171 L487 262 L647 262 Q857 262 976.5 388 Q1096 514 1096 731 Q1096 936 977.5 1053.5 Q859 1171 645 1171 L487 1171 Z M1077 1892 L839 1567 L591 1567 L356 1892 L561 1892 L716 1704 L872 1892 L1077 1892 Z " />
<glyph glyph-name="dcaron" unicode="&#x10f;" horiz-adv-x="1517" d="M1135 0 L819 0 L819 141 L815 141 Q707 -25 498 -25 Q306 -25 189 110.5 Q72 246 72 489 Q72 743 201 896 Q330 1049 539 1049 Q737 1049 815 907 L819 907 L819 1516 L1135 1516 L1135 0 Z M825 498 L825 575 Q825 675 767 741 Q709 807 616 807 Q511 807 452 724.5 Q393 642 393 498 Q393 363 450 290 Q507 217 608 217 Q704 217 764.5 294 Q825 371 825 498 Z M1580 1516 L1412 1164 L1218 1164 L1308 1516 L1580 1516 Z " />
<glyph glyph-name="Dcroat" unicode="&#x110;" horiz-adv-x="1510" d="M164 0 L164 586 L0 586 L0 852 L164 852 L164 1434 L672 1434 Q1436 1434 1436 735 Q1436 400 1227.5 200 Q1019 0 672 0 L164 0 Z M487 1171 L487 852 L758 852 L758 586 L487 586 L487 262 L647 262 Q857 262 976.5 388 Q1096 514 1096 731 Q1096 936 977.5 1053.5 Q859 1171 645 1171 L487 1171 Z " />
<glyph glyph-name="Eogonek" unicode="&#x118;" horiz-adv-x="1090" d="M1024 0 L164 0 L164 1434 L991 1434 L991 1171 L487 1171 L487 852 L956 852 L956 590 L487 590 L487 262 L1024 262 L1024 0 Z M920 -400 Q896 -408 862.5 -413.5 Q829 -419 794 -419 Q709 -419 658 -374.5 Q607 -330 607 -245 Q607 -214 618 -180.5 Q629 -147 650 -114.5 Q671 -82 702 -53 Q733 -24 773 0 L928 0 Q850 -57 812.5 -111.5 Q775 -166 775 -208 Q775 -241 792 -257.5 Q809 -274 838 -274 Q857 -274 878 -271 Q899 -268 919 -262 L920 -400 Z " />
<glyph glyph-name="eogonek" unicode="&#x119;" horiz-adv-x="1108" d="M1053 422 L385 422 Q401 199 666 199 Q835 199 963 279 L963 51 Q821 -25 594 -25 Q346 -25 209 112.5 Q72 250 72 496 Q72 751 220 900 Q368 1049 584 1049 Q808 1049 930.5 916 Q1053 783 1053 555 L1053 422 Z M760 616 Q760 836 582 836 Q506 836 450.5 773 Q395 710 383 616 L760 616 Z M808 -400 Q784 -408 750.5 -413.5 Q717 -419 682 -419 Q597 -419 546 -374.5 Q495 -330 495 -245 Q495 -214 506 -180.5 Q517 -147 538 -114.5 Q559 -82 590 -53 Q621 -24 661 0 L816 0 Q738 -57 700.5 -111.5 Q663 -166 663 -208 Q663 -241 680 -257.5 Q697 -274 726 -274 Q745 -274 766 -271 Q787 -268 807 -262 L808 -400 Z " />
<glyph glyph-name="Ecaron" unicode="&#x11a;" horiz-adv-x="1090" d="M1024 0 L164 0 L164 1434 L991 1434 L991 1171 L487 1171 L487 852 L956 852 L956 590 L487 590 L487 262 L1024 262 L1024 0 Z M954 1892 L716 1567 L468 1567 L233 1892 L438 1892 L593 1704 L749 1892 L954 1892 Z " />
<glyph glyph-name="ecaron" unicode="&#x11b;" horiz-adv-x="1108" d="M1053 422 L385 422 Q401 199 666 199 Q835 199 963 279 L963 51 Q821 -25 594 -25 Q346 -25 209 112.5 Q72 250 72 496 Q72 751 220 900 Q368 1049 584 1049 Q808 1049 930.5 916 Q1053 783 1053 555 L1053 422 Z M760 616 Q760 836 582 836 Q506 836 450.5 773 Q395 710 383 616 L760 616 Z M935 1511 L697 1186 L449 1186 L214 1511 L419 1511 L574 1323 L730 1511 L935 1511 Z " />
<glyph glyph-name="Lacute" unicode="&#x139;" horiz-adv-x="1047" d="M1018 0 L164 0 L164 1434 L487 1434 L487 262 L1018 262 L1018 0 Z M903 1890 L590 1567 L362 1567 L622 1890 L903 1890 Z " />
<glyph glyph-name="lacute" unicode="&#x13a;" horiz-adv-x="582" d="M449 0 L133 0 L133 1516 L449 1516 L449 0 Z M652 1972 L339 1649 L111 1649 L371 1972 L652 1972 Z " />
<glyph glyph-name="Lcaron" unicode="&#x13d;" horiz-adv-x="1047" d="M1018 0 L164 0 L164 1434 L487 1434 L487 262 L1018 262 L1018 0 Z M1054 1436 L886 1084 L692 1084 L782 1436 L1054 1436 Z " />
<glyph glyph-name="lcaron" unicode="&#x13e;" horiz-adv-x="746" d="M449 0 L133 0 L133 1516 L449 1516 L449 0 Z M917 1516 L749 1164 L555 1164 L645 1516 L917 1516 Z " />
<glyph glyph-name="Ldot" unicode="&#x13f;" horiz-adv-x="1047" d="M1018 0 L164 0 L164 1434 L487 1434 L487 262 L1018 262 L1018 0 Z M827 651 Q760 651 716.5 691 Q673 731 673 788 Q673 848 717 885.5 Q761 923 827 923 Q894 923 936.5 885 Q979 847 979 788 Q979 729 936.5 690 Q894 651 827 651 Z " />
<glyph glyph-name="ldot" unicode="&#x140;" horiz-adv-x="887" d="M449 0 L133 0 L133 1516 L449 1516 L449 0 Z M735 590 Q668 590 624.5 630 Q581 670 581 727 Q581 787 625 824.5 Q669 862 735 862 Q802 862 844.5 824 Q887 786 887 727 Q887 668 844.5 629 Q802 590 735 590 Z " />
<glyph glyph-name="Nacute" unicode="&#x143;" horiz-adv-x="1618" d="M1454 0 L1128 0 L537 901 Q485 980 465 1020 L461 1020 Q469 944 469 788 L469 0 L164 0 L164 1434 L512 1434 L1081 561 Q1120 502 1153 444 L1157 444 Q1149 494 1149 641 L1149 1434 L1454 1434 L1454 0 Z M1143 1890 L830 1567 L602 1567 L862 1890 L1143 1890 Z " />
<glyph glyph-name="nacute" unicode="&#x144;" horiz-adv-x="1239" d="M1122 0 L807 0 L807 569 Q807 807 637 807 Q555 807 502 744 Q449 681 449 584 L449 0 L133 0 L133 1024 L449 1024 L449 862 L453 862 Q566 1049 782 1049 Q1122 1049 1122 627 L1122 0 Z M972 1509 L659 1186 L431 1186 L691 1509 L972 1509 Z " />
<glyph glyph-name="Ncaron" unicode="&#x147;" horiz-adv-x="1618" d="M1454 0 L1128 0 L537 901 Q485 980 465 1020 L461 1020 Q469 944 469 788 L469 0 L164 0 L164 1434 L512 1434 L1081 561 Q1120 502 1153 444 L1157 444 Q1149 494 1149 641 L1149 1434 L1454 1434 L1454 0 Z M1170 1892 L932 1567 L684 1567 L449 1892 L654 1892 L809 1704 L965 1892 L1170 1892 Z " />
<glyph glyph-name="ncaron" unicode="&#x148;" horiz-adv-x="1239" d="M1122 0 L807 0 L807 569 Q807 807 637 807 Q555 807 502 744 Q449 681 449 584 L449 0 L133 0 L133 1024 L449 1024 L449 862 L453 862 Q566 1049 782 1049 Q1122 1049 1122 627 L1122 0 Z M1001 1511 L763 1186 L515 1186 L280 1511 L485 1511 L640 1323 L796 1511 L1001 1511 Z " />
<glyph glyph-name="Ohungarumlaut" unicode="&#x150;" horiz-adv-x="1553" d="M770 -25 Q462 -25 268 175.5 Q74 376 74 698 Q74 1038 271 1248 Q468 1458 793 1458 Q1100 1458 1289.5 1257 Q1479 1056 1479 727 Q1479 389 1282.5 182 Q1086 -25 770 -25 Z M784 1180 Q614 1180 514 1052.5 Q414 925 414 715 Q414 502 514 378 Q614 254 776 254 Q943 254 1041 374.5 Q1139 495 1139 709 Q1139 932 1044 1056 Q949 1180 784 1180 Z M1277 1886 L1025 1567 L815 1567 L1028 1886 L1277 1886 Z M899 1886 L651 1567 L440 1567 L651 1886 L899 1886 Z " />
<glyph glyph-name="ohungarumlaut" unicode="&#x151;" horiz-adv-x="1252" d="M621 -25 Q365 -25 218.5 118.5 Q72 262 72 508 Q72 762 224 905.5 Q376 1049 635 1049 Q890 1049 1035 905.5 Q1180 762 1180 526 Q1180 271 1030.5 123 Q881 -25 621 -25 Z M629 807 Q517 807 455 730 Q393 653 393 512 Q393 217 631 217 Q858 217 858 520 Q858 807 629 807 Z M1106 1505 L854 1186 L644 1186 L857 1505 L1106 1505 Z M728 1505 L480 1186 L269 1186 L480 1505 L728 1505 Z " />
<glyph glyph-name="Racute" unicode="&#x154;" horiz-adv-x="1337" d="M1367 0 L996 0 L773 369 Q748 411 725 444 Q702 477 678.5 500.5 Q655 524 629.5 536.5 Q604 549 574 549 L487 549 L487 0 L164 0 L164 1434 L676 1434 Q1198 1434 1198 1044 Q1198 969 1175 905.5 Q1152 842 1110 791 Q1068 740 1008.5 703 Q949 666 876 645 L876 641 Q908 631 938 608.5 Q968 586 996 556 Q1024 526 1049.5 491.5 Q1075 457 1096 424 L1367 0 Z M487 1192 L487 793 L627 793 Q731 793 794 853 Q858 914 858 1004 Q858 1192 633 1192 L487 1192 Z M979 1890 L666 1567 L438 1567 L698 1890 L979 1890 Z " />
<glyph glyph-name="racute" unicode="&#x155;" horiz-adv-x="815" d="M801 739 Q744 770 668 770 Q565 770 507 694.5 Q449 619 449 489 L449 0 L133 0 L133 1024 L449 1024 L449 834 L453 834 Q528 1042 723 1042 Q773 1042 801 1030 L801 739 Z M772 1509 L459 1186 L231 1186 L491 1509 L772 1509 Z " />
<glyph glyph-name="Rcaron" unicode="&#x158;" horiz-adv-x="1337" d="M1367 0 L996 0 L773 369 Q748 411 725 444 Q702 477 678.5 500.5 Q655 524 629.5 536.5 Q604 549 574 549 L487 549 L487 0 L164 0 L164 1434 L676 1434 Q1198 1434 1198 1044 Q1198 969 1175 905.5 Q1152 842 1110 791 Q1068 740 1008.5 703 Q949 666 876 645 L876 641 Q908 631 938 608.5 Q968 586 996 556 Q1024 526 1049.5 491.5 Q1075 457 1096 424 L1367 0 Z M487 1192 L487 793 L627 793 Q731 793 794 853 Q858 914 858 1004 Q858 1192 633 1192 L487 1192 Z M997 1892 L759 1567 L511 1567 L276 1892 L481 1892 L636 1704 L792 1892 L997 1892 Z " />
<glyph glyph-name="rcaron" unicode="&#x159;" horiz-adv-x="815" d="M801 739 Q744 770 668 770 Q565 770 507 694.5 Q449 619 449 489 L449 0 L133 0 L133 1024 L449 1024 L449 834 L453 834 Q528 1042 723 1042 Q773 1042 801 1030 L801 739 Z M789 1511 L551 1186 L303 1186 L68 1511 L273 1511 L428 1323 L584 1511 L789 1511 Z " />
<glyph glyph-name="Sacute" unicode="&#x15a;" horiz-adv-x="1148" d="M98 55 L98 375 Q185 302 287 265.5 Q389 229 493 229 Q554 229 599.5 240 Q645 251 675.5 270.5 Q706 290 721 316.5 Q736 343 736 374 Q736 416 712 449 Q688 482 646.5 510 Q605 538 548 564 Q491 590 425 617 Q257 687 174.5 788 Q92 889 92 1032 Q92 1144 137 1224.5 Q182 1305 259.5 1357 Q337 1409 439 1433.5 Q541 1458 655 1458 Q767 1458 853.5 1444.5 Q940 1431 1013 1403 L1013 1104 Q977 1129 934.5 1148 Q892 1167 847 1179.5 Q802 1192 757.5 1198 Q713 1204 673 1204 Q618 1204 573 1193.5 Q528 1183 497 1164 Q466 1145 449 1118.5 Q432 1092 432 1059 Q432 1023 451 994.5 Q470 966 505 940.5 Q540 915 590 890.5 Q640 866 703 840 Q789 804 857.5 763.5 Q926 723 975 672 Q1024 621 1050 555.5 Q1076 490 1076 403 Q1076 283 1030.5 201.5 Q985 120 907 69.5 Q829 19 725.5 -3 Q622 -25 507 -25 Q389 -25 282.5 -5 Q176 15 98 55 Z M879 1890 L566 1567 L338 1567 L598 1890 L879 1890 Z " />
<glyph glyph-name="sacute" unicode="&#x15b;" horiz-adv-x="901" d="M66 27 L66 283 Q144 236 221.5 213 Q299 190 368 190 Q452 190 500.5 213 Q549 236 549 283 Q549 313 527 333 Q505 353 470.5 368 Q436 383 395 395 Q354 407 316 422 Q255 445 208.5 471.5 Q162 498 130.5 533 Q99 568 82.5 614 Q66 660 66 723 Q66 809 103.5 871 Q141 933 203.5 972.5 Q266 1012 346.5 1030.5 Q427 1049 514 1049 Q582 1049 652 1038.5 Q722 1028 790 1008 L790 764 Q730 799 661.5 816.5 Q593 834 527 834 Q496 834 468.5 828.5 Q441 823 420 812.5 Q399 802 387 785.5 Q375 769 375 748 Q375 720 393 700 Q411 680 440 665.5 Q469 651 504.5 639.5 Q540 628 575 616 Q638 594 689 568 Q740 542 776.5 507 Q813 472 832.5 425 Q852 378 852 313 Q852 222 812.5 157.5 Q773 93 707.5 52.5 Q642 12 556.5 -6.5 Q471 -25 379 -25 Q210 -25 66 27 Z M793 1509 L480 1186 L252 1186 L512 1509 L793 1509 Z " />
<glyph glyph-name="Tcedilla" unicode="&#x162;" horiz-adv-x="1200" d="M1171 1171 L762 1171 L762 0 L438 0 L438 1171 L31 1171 L31 1434 L1171 1434 L1171 1171 Z M426 -451 L426 -313 Q461 -319 498 -319 Q621 -319 621 -246 Q621 -180 510 -180 Q497 -180 473 -182 L473 0 L645 0 L645 -82 Q832 -90 832 -248 Q832 -455 514 -455 Q468 -455 426 -451 Z " />
<glyph glyph-name="tcedilla" unicode="&#x163;" horiz-adv-x="797" d="M752 12 Q682 -25 541 -25 Q207 -25 207 322 L207 791 L41 791 L41 1024 L207 1024 L207 1245 L522 1335 L522 1024 L752 1024 L752 791 L522 791 L522 377 Q522 217 649 217 Q699 217 752 246 L752 12 Z M338 -451 L338 -313 Q373 -319 410 -319 Q533 -319 533 -246 Q533 -180 422 -180 Q409 -180 385 -182 L385 0 L557 0 L557 -82 Q744 -90 744 -248 Q744 -455 426 -455 Q380 -455 338 -451 Z " />
<glyph glyph-name="Tcaron" unicode="&#x164;" horiz-adv-x="1200" d="M1171 1171 L762 1171 L762 0 L438 0 L438 1171 L31 1171 L31 1434 L1171 1434 L1171 1171 Z M961 1892 L723 1567 L475 1567 L240 1892 L445 1892 L600 1704 L756 1892 L961 1892 Z " />
<glyph glyph-name="tcaron" unicode="&#x165;" horiz-adv-x="1050" d="M752 12 Q682 -25 541 -25 Q207 -25 207 322 L207 791 L41 791 L41 1024 L207 1024 L207 1245 L522 1335 L522 1024 L752 1024 L752 791 L522 791 L522 377 Q522 217 649 217 Q699 217 752 246 L752 12 Z M1113 1516 L945 1164 L751 1164 L841 1516 L1113 1516 Z " />
<glyph glyph-name="Uring" unicode="&#x16e;" horiz-adv-x="1481" d="M1333 621 Q1333 -25 731 -25 Q147 -25 147 606 L147 1434 L471 1434 L471 602 Q471 254 743 254 Q1010 254 1010 590 L1010 1434 L1333 1434 L1333 621 Z M736 1567 Q634 1567 567.5 1626.5 Q501 1686 501 1782 Q501 1883 570.5 1943 Q640 2003 741 2003 Q848 2003 914 1943.5 Q980 1884 980 1788 Q980 1690 908.5 1628.5 Q837 1567 736 1567 Z M736 1880 Q640 1880 640 1786 Q640 1692 736 1692 Q781 1692 810 1719.5 Q839 1747 839 1786 Q839 1827 810.5 1853.5 Q782 1880 736 1880 Z " />
<glyph glyph-name="uring" unicode="&#x16f;" horiz-adv-x="1239" d="M1106 0 L791 0 L791 156 L786 156 Q669 -25 473 -25 Q117 -25 117 406 L117 1024 L432 1024 L432 434 Q432 217 604 217 Q689 217 740 276.5 Q791 336 791 438 L791 1024 L1106 1024 L1106 0 Z M615 1186 Q513 1186 446.5 1245.5 Q380 1305 380 1401 Q380 1502 449.5 1562 Q519 1622 620 1622 Q727 1622 793 1562.5 Q859 1503 859 1407 Q859 1309 787.5 1247.5 Q716 1186 615 1186 Z M615 1499 Q519 1499 519 1405 Q519 1311 615 1311 Q660 1311 689 1338.5 Q718 1366 718 1405 Q718 1446 689.5 1472.5 Q661 1499 615 1499 Z " />
<glyph glyph-name="Uhungarumlaut" unicode="&#x170;" horiz-adv-x="1481" d="M1333 621 Q1333 -25 731 -25 Q147 -25 147 606 L147 1434 L471 1434 L471 602 Q471 254 743 254 Q1010 254 1010 590 L1010 1434 L1333 1434 L1333 621 Z M1221 1886 L969 1567 L759 1567 L972 1886 L1221 1886 Z M843 1886 L595 1567 L384 1567 L595 1886 L843 1886 Z " />
<glyph glyph-name="uhungarumlaut" unicode="&#x171;" horiz-adv-x="1239" d="M1106 0 L791 0 L791 156 L786 156 Q669 -25 473 -25 Q117 -25 117 406 L117 1024 L432 1024 L432 434 Q432 217 604 217 Q689 217 740 276.5 Q791 336 791 438 L791 1024 L1106 1024 L1106 0 Z M1090 1505 L838 1186 L628 1186 L841 1505 L1090 1505 Z M712 1505 L464 1186 L253 1186 L464 1505 L712 1505 Z " />
<glyph glyph-name="Zacute" unicode="&#x179;" horiz-adv-x="1243" d="M1196 0 L41 0 L41 186 L776 1171 L94 1171 L94 1434 L1194 1434 L1194 1253 L475 262 L1196 262 L1196 0 Z M967 1890 L654 1567 L426 1567 L686 1890 L967 1890 Z " />
<glyph glyph-name="zacute" unicode="&#x17a;" horiz-adv-x="981" d="M944 0 L25 0 L25 131 L539 791 L76 791 L76 1024 L940 1024 L940 868 L453 233 L944 233 L944 0 Z M836 1509 L523 1186 L295 1186 L555 1509 L836 1509 Z " />
<glyph glyph-name="Zdotaccent" unicode="&#x17b;" horiz-adv-x="1243" d="M1196 0 L41 0 L41 186 L776 1171 L94 1171 L94 1434 L1194 1434 L1194 1253 L475 262 L1196 262 L1196 0 Z M641 1567 Q574 1567 530.5 1607 Q487 1647 487 1704 Q487 1764 531 1801.5 Q575 1839 641 1839 Q708 1839 750.5 1801 Q793 1763 793 1704 Q793 1645 750.5 1606 Q708 1567 641 1567 Z " />
<glyph glyph-name="zdotaccent" unicode="&#x17c;" horiz-adv-x="981" d="M944 0 L25 0 L25 131 L539 791 L76 791 L76 1024 L940 1024 L940 868 L453 233 L944 233 L944 0 Z M512 1186 Q445 1186 401.5 1226 Q358 1266 358 1323 Q358 1383 402 1420.5 Q446 1458 512 1458 Q579 1458 621.5 1420 Q664 1382 664 1323 Q664 1264 621.5 1225 Q579 1186 512 1186 Z " />
<glyph glyph-name="Gamma" unicode="&#x393;" horiz-adv-x="1048" d="M1019 1168 L487 1168 L487 0 L164 0 L164 1434 L1019 1434 L1019 1168 Z " />
<glyph glyph-name="Theta" unicode="&#x398;" horiz-adv-x="1553" d="M771 -25 Q463 -25 268.5 175.5 Q74 376 74 698 Q74 1038 270.5 1248 Q467 1458 792 1458 Q1099 1458 1289 1257 Q1479 1056 1479 727 Q1479 389 1282.5 182 Q1086 -25 771 -25 Z M784 1179 Q614 1179 514.5 1052.5 Q415 926 415 716 Q415 503 514.5 379 Q614 255 776 255 Q942 255 1040 375 Q1138 495 1138 709 Q1138 932 1043.5 1055.5 Q949 1179 784 1179 Z M1004 594 L551 594 L551 838 L1004 838 L1004 594 Z " />
<glyph glyph-name="Phi" unicode="&#x3a6;" horiz-adv-x="1670" d="M985 178 L985 -20 L685 -20 L685 178 L662 178 Q403 178 239 339.5 Q75 501 75 750 Q75 993 242 1148 Q409 1303 663 1303 L685 1303 L685 1452 L985 1452 L985 1302 L1008 1302 Q1265 1302 1429.5 1149 Q1594 996 1594 756 Q1594 506 1428 342 Q1262 178 1007 178 L985 178 Z M985 1061 L985 424 L1004 424 Q1130 424 1205.5 511.5 Q1281 599 1281 747 Q1281 888 1205.5 974.5 Q1130 1061 1004 1061 L985 1061 Z M687 424 L687 1061 L669 1061 Q542 1061 466 973 Q390 885 390 745 Q390 597 465.5 510.5 Q541 424 668 424 L687 424 Z " />
<glyph glyph-name="alpha" unicode="&#x3b1;" horiz-adv-x="1304" d="M863 214 Q740 -25 492 -25 Q297 -25 185 116 Q73 257 73 483 Q73 728 203 888.5 Q333 1049 552 1049 Q799 1049 886 838 L891 838 L947 1024 L1266 1024 L1045 505 Q1083 363 1123.5 300.5 Q1164 238 1217 238 Q1264 238 1296 254 L1292 12 Q1226 -15 1141 -15 Q1031 -15 966.5 38.5 Q902 92 869 214 L863 214 Z M795 526 Q737 809 592 809 Q497 809 443 721 Q389 633 389 502 Q389 377 432.5 298.5 Q476 220 559 220 Q701 220 780 479 L795 526 Z " />
<glyph glyph-name="delta" unicode="&#x3b4;" horiz-adv-x="1253" d="M425 932 Q221 1057 221 1240 Q221 1376 341 1456 Q461 1536 657 1536 Q826 1536 1032 1459 L1032 1161 Q836 1294 681 1294 Q543 1294 543 1208 Q543 1167 591 1127.5 Q639 1088 811 995 Q1180 797 1180 494 Q1180 258 1030.5 116.5 Q881 -25 617 -25 Q369 -25 220.5 114 Q72 253 72 459 Q72 800 425 932 Z M623 791 Q522 757 457.5 674 Q393 591 393 483 Q393 363 456.5 290 Q520 217 628 217 Q735 217 796.5 290 Q858 363 858 482 Q858 665 623 791 Z " />
<glyph glyph-name="epsilon" unicode="&#x3b5;" horiz-adv-x="948" d="M883 254 L883 21 Q728 -25 517 -25 Q304 -25 185.5 53 Q67 131 67 272 Q67 470 297 525 L297 530 Q215 551 159.5 614 Q104 677 104 761 Q104 898 216.5 973.5 Q329 1049 537 1049 Q704 1049 839 1008 L839 776 Q694 836 580 836 Q426 836 426 736 Q426 619 631 619 Q699 619 748 626 L748 418 Q694 424 602 424 Q388 424 388 304 Q388 188 587 188 Q730 188 883 254 Z " />
<glyph glyph-name="sigma" unicode="&#x3c3;" horiz-adv-x="1256" d="M1238 796 L1013 796 Q1121 659 1121 478 Q1121 247 983.5 111 Q846 -25 606 -25 Q360 -25 216 119.5 Q72 264 72 510 Q72 760 212.5 892 Q353 1024 621 1024 L1238 1024 L1238 796 Z M722 796 L650 796 Q395 796 395 497 Q395 367 452 292 Q509 217 603 217 Q696 217 747.5 295 Q799 373 799 511 Q799 672 722 796 Z " />
<glyph glyph-name="tau" unicode="&#x3c4;" horiz-adv-x="1125" d="M1076 796 L717 796 L717 363 Q717 233 823 233 Q876 233 929 255 L929 14 Q853 -19 723 -19 Q400 -19 400 316 L400 796 L314 796 Q165 796 34 694 L34 945 Q127 1024 341 1024 L1076 1024 L1076 796 Z " />
<glyph glyph-name="phi" unicode="&#x3c6;" horiz-adv-x="1538" d="M908 -25 L908 -481 L623 -481 L623 -25 L603 -25 Q359 -25 215.5 120.5 Q72 266 72 510 Q72 814 243 1024 L571 1024 Q488 945 429.5 802 Q371 659 371 523 Q371 380 435.5 298 Q500 216 605 216 L623 216 L623 671 Q623 853 720.5 951 Q818 1049 998 1049 Q1218 1049 1342 904 Q1466 759 1466 496 Q1466 261 1320.5 118 Q1175 -25 929 -25 L908 -25 Z M908 216 L933 216 Q1037 216 1101 295 Q1165 374 1165 515 Q1165 651 1120 729.5 Q1075 808 1003 808 Q908 808 908 690 L908 216 Z " />
<glyph glyph-name="underscoredbl" unicode="&#x2017;" horiz-adv-x="850" d="M0 -277 L0 -158 L850 -158 L850 -277 L0 -277 Z M0 -514 L0 -395 L850 -395 L850 -514 L0 -514 Z " />
<glyph glyph-name="exclamdbl" unicode="&#x203c;" horiz-adv-x="1188" d="M500 1434 L461 446 L205 446 L168 1434 L500 1434 Z M336 -23 Q256 -23 204 25.5 Q152 74 152 143 Q152 215 204.5 261 Q257 307 336 307 Q416 307 467 260.5 Q518 214 518 143 Q518 71 467.5 24 Q417 -23 336 -23 Z M1018 1434 L979 446 L723 446 L686 1434 L1018 1434 Z M854 -23 Q774 -23 722 25.5 Q670 74 670 143 Q670 215 722.5 261 Q775 307 854 307 Q934 307 985 260.5 Q1036 214 1036 143 Q1036 71 985.5 24 Q935 -23 854 -23 Z " />
<glyph glyph-name="nsuperior" unicode="&#x207f;" horiz-adv-x="912" d="M803 717 L590 717 L590 1159 Q590 1298 477 1298 Q416 1298 369 1251 Q322 1204 322 1145 L322 717 L109 717 L109 1436 L317 1436 L317 1337 Q391 1454 545 1454 Q803 1454 803 1171 L803 717 Z " />
<glyph glyph-name="peseta" unicode="&#x20a7;" horiz-adv-x="2681" d="M487 494 L487 0 L164 0 L164 1434 L588 1434 Q1130 1434 1130 977 Q1130 761 974.5 627.5 Q819 494 559 494 L487 494 Z M487 1186 L487 739 L532 739 Q791 739 791 965 Q791 1186 532 1186 L487 1186 Z M1812 12 Q1742 -25 1602 -25 Q1440 -25 1364 53.5 Q1288 132 1288 301 L1288 688 L1143 688 L1143 901 L1288 901 L1288 1122 L1583 1212 L1583 901 L1812 901 L1812 688 L1583 688 L1583 356 Q1583 197 1710 197 Q1761 197 1812 225 L1812 12 Z M1872 27 L1872 262 Q2026 170 2165 170 Q2294 170 2294 262 Q2294 307 2185 346 Q2026 402 1976 435 Q1926 468 1899 516.5 Q1872 565 1872 627 Q1872 768 1973 847 Q2074 926 2249 926 Q2388 926 2515 885 L2515 662 Q2398 731 2265 731 Q2161 731 2161 657 Q2161 618 2269 578 Q2420 522 2471 487 Q2522 452 2549 403 Q2576 354 2576 293 Q2576 -25 2169 -25 Q2010 -25 1872 27 Z " />
<glyph glyph-name="IJ" unicode="&#x132;" horiz-adv-x="1561" d="M607 1434 L607 1184 L487 1184 L487 250 L607 250 L607 0 L44 0 L44 250 L164 250 L164 1184 L44 1184 L44 1434 L607 1434 Z M1412 569 Q1412 281 1278.5 128 Q1145 -25 892 -25 Q779 -25 683 14 L683 317 Q766 254 869 254 Q1090 254 1090 582 L1090 1434 L1412 1434 L1412 569 Z " />
<glyph glyph-name="ij" unicode="&#x133;" horiz-adv-x="1238" d="M293 1186 Q213 1186 162 1233.5 Q111 1281 111 1350 Q111 1421 162 1466 Q213 1511 293 1511 Q374 1511 424.5 1466 Q475 1421 475 1350 Q475 1278 424.5 1232 Q374 1186 293 1186 Z M449 0 L133 0 L133 1024 L449 1024 L449 0 Z M949 1186 Q869 1186 818 1233.5 Q767 1281 767 1350 Q767 1421 818 1466 Q869 1511 949 1511 Q1030 1511 1080.5 1466 Q1131 1421 1131 1350 Q1131 1278 1080.5 1232 Q1030 1186 949 1186 Z M1105 18 Q1105 -209 994 -345 Q883 -481 674 -481 Q605 -481 523 -451 L523 -203 Q589 -240 640 -240 Q789 -240 789 -6 L789 1024 L1105 1024 L1105 18 Z " />
<glyph glyph-name="napostrophe" unicode="&#x149;" horiz-adv-x="1403" d="M326 1468 L133 1024 L-61 1024 L53 1468 L326 1468 Z M1286 0 L971 0 L971 569 Q971 807 801 807 Q717 807 664.5 743.5 Q612 680 612 584 L612 0 L297 0 L297 1024 L612 1024 L612 862 L616 862 Q729 1049 946 1049 Q1286 1049 1286 627 L1286 0 Z " />
<glyph glyph-name="minute" unicode="&#x2032;" horiz-adv-x="600" d="M477 1452 L352 1010 L152 1010 L217 1452 L477 1452 Z " />
<glyph glyph-name="second" unicode="&#x2033;" horiz-adv-x="1010" d="M881 1452 L756 1008 L555 1008 L619 1452 L881 1452 Z M486 1452 L361 1010 L158 1010 L223 1452 L486 1452 Z " />
<glyph glyph-name="uni2105" unicode="&#x2105;" horiz-adv-x="1779" d="M800 1413 L760 1240 Q701 1285 616 1285 Q522 1285 458 1205 Q394 1125 394 1023 Q394 872 529 872 Q612 872 698 924 L663 755 Q565 703 454 703 Q321 703 246.5 782 Q172 861 172 998 Q172 1191 295.5 1322.5 Q419 1454 614 1454 Q730 1454 800 1413 Z M1598 1434 L360 0 L115 0 L1354 1434 L1598 1434 Z M1218 -20 Q1064 -20 979 67 Q894 154 894 289 Q894 465 1003.5 595.5 Q1113 726 1302 726 Q1450 726 1533.5 644.5 Q1617 563 1617 421 Q1617 242 1509.5 111 Q1402 -20 1218 -20 Z M1294 553 Q1212 553 1161 472 Q1110 391 1110 289 Q1110 153 1224 153 Q1302 153 1352 232 Q1402 311 1402 415 Q1402 553 1294 553 Z " />
<glyph glyph-name="uni2113" unicode="&#x2113;" horiz-adv-x="662" d="M360 666 L360 250 Q360 160 374.5 139.5 Q389 119 418 119 Q439 119 473 133 Q507 147 616 225 L616 63 Q504 -25 391 -25 Q193 -25 193 217 L193 442 L113 344 L14 422 L193 657 L193 1112 Q193 1335 253 1413 Q313 1491 426 1491 Q520 1491 582.5 1426.5 Q645 1362 645 1251 Q645 1147 576.5 1008.5 Q508 870 360 666 Z M360 899 Q452 1058 479 1123 Q506 1188 506 1251 Q506 1303 485.5 1336.5 Q465 1370 430 1370 Q403 1370 388.5 1351.5 Q374 1333 367 1277 Q360 1221 360 1126 L360 899 Z " />
<glyph glyph-name="uni25A1" unicode="&#x25a1;" horiz-adv-x="1237" d="M1090 0 L145 0 L145 944 L1090 944 L1090 0 Z M1014 76 L1014 868 L221 868 L221 76 L1014 76 Z " />
<glyph glyph-name="uni25AA" unicode="&#x25aa;" horiz-adv-x="725" d="M594 444 L131 444 L131 907 L594 907 L594 444 Z " />
<glyph glyph-name="uni25AB" unicode="&#x25ab;" horiz-adv-x="725" d="M594 444 L131 444 L131 907 L594 907 L594 444 Z M518 520 L518 831 L207 831 L207 520 L518 520 Z " />
<glyph glyph-name="uni25CF" unicode="&#x25cf;" horiz-adv-x="1237" d="M621 137 Q439 137 308.5 264.5 Q178 392 178 578 Q178 690 236.5 796 Q295 902 399.5 960 Q504 1018 618 1018 Q735 1018 842.5 956 Q950 894 1004.5 788.5 Q1059 683 1059 578 Q1059 398 931.5 267.5 Q804 137 621 137 Z " />
<glyph glyph-name="openbullet" unicode="&#x25e6;" horiz-adv-x="725" d="M362 426 Q258 426 185.5 499.5 Q113 573 113 678 Q113 780 186 854 Q259 928 362 928 Q467 928 540.5 854.5 Q614 781 614 678 Q614 573 540.5 499.5 Q467 426 362 426 Z M362 852 Q289 852 238.5 799.5 Q188 747 188 678 Q188 604 239.5 553 Q291 502 365 502 Q436 502 487.5 553.5 Q539 605 539 678 Q539 745 489.5 798.5 Q440 852 362 852 Z " />
<glyph glyph-name="Amacron" unicode="&#x100;" horiz-adv-x="1440" d="M1425 0 L1073 0 L971 319 L461 319 L360 0 L10 0 L532 1434 L915 1434 L1425 0 Z M897 567 L743 1049 Q726 1103 719 1178 L711 1178 Q706 1115 686 1053 L530 567 L897 567 Z M1013 1567 L427 1567 L427 1739 L1013 1739 L1013 1567 Z " />
<glyph glyph-name="amacron" unicode="&#x101;" horiz-adv-x="1102" d="M985 0 L686 0 L686 147 L682 147 Q579 -25 377 -25 Q228 -25 142.5 59.5 Q57 144 57 285 Q57 583 410 629 L688 666 Q688 834 506 834 Q323 834 158 725 L158 963 Q224 997 338.5 1023 Q453 1049 547 1049 Q985 1049 985 612 L985 0 Z M688 416 L688 485 L502 461 Q348 441 348 322 Q348 268 385.5 233.5 Q423 199 487 199 Q576 199 632 260.5 Q688 322 688 416 Z M864 1186 L278 1186 L278 1358 L864 1358 L864 1186 Z " />
<glyph glyph-name="Ccircumflex" unicode="&#x108;" horiz-adv-x="1278" d="M1192 51 Q1035 -25 782 -25 Q452 -25 263 169 Q74 363 74 686 Q74 1030 286.5 1244 Q499 1458 838 1458 Q1048 1458 1192 1405 L1192 1094 Q1048 1180 864 1180 Q662 1180 538 1053 Q414 926 414 709 Q414 501 531 377.5 Q648 254 846 254 Q1035 254 1192 346 L1192 51 Z M1159 1567 L952 1567 L794 1755 L647 1567 L440 1567 L675 1892 L923 1892 L1159 1567 Z " />
<glyph glyph-name="ccircumflex" unicode="&#x109;" horiz-adv-x="983" d="M909 37 Q802 -25 600 -25 Q364 -25 218 118 Q72 261 72 487 Q72 748 228.5 898.5 Q385 1049 647 1049 Q828 1049 909 1001 L909 733 Q810 807 688 807 Q552 807 472.5 727.5 Q393 648 393 508 Q393 372 469 294.5 Q545 217 678 217 Q796 217 909 291 L909 37 Z M953 1186 L746 1186 L588 1374 L441 1186 L234 1186 L469 1511 L717 1511 L953 1186 Z " />
<glyph glyph-name="Cdotaccent" unicode="&#x10a;" horiz-adv-x="1278" d="M1192 51 Q1035 -25 782 -25 Q452 -25 263 169 Q74 363 74 686 Q74 1030 286.5 1244 Q499 1458 838 1458 Q1048 1458 1192 1405 L1192 1094 Q1048 1180 864 1180 Q662 1180 538 1053 Q414 926 414 709 Q414 501 531 377.5 Q648 254 846 254 Q1035 254 1192 346 L1192 51 Z M819 1567 Q752 1567 708.5 1607 Q665 1647 665 1704 Q665 1764 709 1801.5 Q753 1839 819 1839 Q886 1839 928.5 1801 Q971 1763 971 1704 Q971 1645 928.5 1606 Q886 1567 819 1567 Z " />
<glyph glyph-name="cdotaccent" unicode="&#x10b;" horiz-adv-x="983" d="M909 37 Q802 -25 600 -25 Q364 -25 218 118 Q72 261 72 487 Q72 748 228.5 898.5 Q385 1049 647 1049 Q828 1049 909 1001 L909 733 Q810 807 688 807 Q552 807 472.5 727.5 Q393 648 393 508 Q393 372 469 294.5 Q545 217 678 217 Q796 217 909 291 L909 37 Z M610 1186 Q543 1186 499.5 1226 Q456 1266 456 1323 Q456 1383 500 1420.5 Q544 1458 610 1458 Q677 1458 719.5 1420 Q762 1382 762 1323 Q762 1264 719.5 1225 Q677 1186 610 1186 Z " />
<glyph glyph-name="Emacron" unicode="&#x112;" horiz-adv-x="1090" d="M1024 0 L164 0 L164 1434 L991 1434 L991 1171 L487 1171 L487 852 L956 852 L956 590 L487 590 L487 262 L1024 262 L1024 0 Z M864 1567 L278 1567 L278 1739 L864 1739 L864 1567 Z " />
<glyph glyph-name="emacron" unicode="&#x113;" horiz-adv-x="1108" d="M1053 422 L385 422 Q401 199 666 199 Q835 199 963 279 L963 51 Q821 -25 594 -25 Q346 -25 209 112.5 Q72 250 72 496 Q72 751 220 900 Q368 1049 584 1049 Q808 1049 930.5 916 Q1053 783 1053 555 L1053 422 Z M760 616 Q760 836 582 836 Q506 836 450.5 773 Q395 710 383 616 L760 616 Z M867 1186 L281 1186 L281 1358 L867 1358 L867 1186 Z " />
<glyph glyph-name="Ebreve" unicode="&#x114;" horiz-adv-x="1090" d="M1024 0 L164 0 L164 1434 L991 1434 L991 1171 L487 1171 L487 852 L956 852 L956 590 L487 590 L487 262 L1024 262 L1024 0 Z M926 1874 Q914 1733 823.5 1650 Q733 1567 586 1567 Q440 1567 348 1652.5 Q256 1738 252 1874 L431 1874 Q448 1739 590 1739 Q727 1739 746 1874 L926 1874 Z " />
<glyph glyph-name="ebreve" unicode="&#x115;" horiz-adv-x="1108" d="M1053 422 L385 422 Q401 199 666 199 Q835 199 963 279 L963 51 Q821 -25 594 -25 Q346 -25 209 112.5 Q72 250 72 496 Q72 751 220 900 Q368 1049 584 1049 Q808 1049 930.5 916 Q1053 783 1053 555 L1053 422 Z M760 616 Q760 836 582 836 Q506 836 450.5 773 Q395 710 383 616 L760 616 Z M911 1493 Q899 1352 808.5 1269 Q718 1186 571 1186 Q425 1186 333 1271.5 Q241 1357 237 1493 L416 1493 Q433 1358 575 1358 Q712 1358 731 1493 L911 1493 Z " />
<glyph glyph-name="Edotaccent" unicode="&#x116;" horiz-adv-x="1090" d="M1024 0 L164 0 L164 1434 L991 1434 L991 1171 L487 1171 L487 852 L956 852 L956 590 L487 590 L487 262 L1024 262 L1024 0 Z M589 1567 Q522 1567 478.5 1607 Q435 1647 435 1704 Q435 1764 479 1801.5 Q523 1839 589 1839 Q656 1839 698.5 1801 Q741 1763 741 1704 Q741 1645 698.5 1606 Q656 1567 589 1567 Z " />
<glyph glyph-name="edotaccent" unicode="&#x117;" horiz-adv-x="1108" d="M1053 422 L385 422 Q401 199 666 199 Q835 199 963 279 L963 51 Q821 -25 594 -25 Q346 -25 209 112.5 Q72 250 72 496 Q72 751 220 900 Q368 1049 584 1049 Q808 1049 930.5 916 Q1053 783 1053 555 L1053 422 Z M760 616 Q760 836 582 836 Q506 836 450.5 773 Q395 710 383 616 L760 616 Z M596 1186 Q529 1186 485.5 1226 Q442 1266 442 1323 Q442 1383 486 1420.5 Q530 1458 596 1458 Q663 1458 705.5 1420 Q748 1382 748 1323 Q748 1264 705.5 1225 Q663 1186 596 1186 Z " />
<glyph glyph-name="Gcircumflex" unicode="&#x11c;" horiz-adv-x="1456" d="M1341 96 Q1131 -25 819 -25 Q473 -25 273.5 166.5 Q74 358 74 694 Q74 1032 292 1245 Q510 1458 872 1458 Q1100 1458 1274 1395 L1274 1092 Q1108 1188 868 1188 Q667 1188 540.5 1057.5 Q414 927 414 709 Q414 488 527.5 367 Q641 246 834 246 Q950 246 1018 279 L1018 559 L731 559 L731 817 L1341 817 L1341 96 Z M1196 1567 L989 1567 L831 1755 L684 1567 L477 1567 L712 1892 L960 1892 L1196 1567 Z " />
<glyph glyph-name="gcircumflex" unicode="&#x11d;" horiz-adv-x="1268" d="M1137 117 Q1137 -168 972 -324.5 Q807 -481 494 -481 Q287 -481 166 -422 L166 -156 Q324 -248 485 -248 Q645 -248 733 -163.5 Q821 -79 821 66 L821 147 L817 147 Q709 -25 498 -25 Q302 -25 187 113 Q72 251 72 483 Q72 743 200 896 Q328 1049 537 1049 Q724 1049 817 905 L821 905 L821 1024 L1137 1024 L1137 117 Z M825 492 L825 573 Q825 670 767.5 738.5 Q710 807 618 807 Q513 807 453 725 Q393 643 393 494 Q393 366 450 291.5 Q507 217 606 217 Q704 217 764.5 292.5 Q825 368 825 492 Z M993 1186 L786 1186 L628 1374 L481 1186 L274 1186 L509 1511 L757 1511 L993 1186 Z " />
<glyph glyph-name="Gdotaccent" unicode="&#x120;" horiz-adv-x="1456" d="M1341 96 Q1131 -25 819 -25 Q473 -25 273.5 166.5 Q74 358 74 694 Q74 1032 292 1245 Q510 1458 872 1458 Q1100 1458 1274 1395 L1274 1092 Q1108 1188 868 1188 Q667 1188 540.5 1057.5 Q414 927 414 709 Q414 488 527.5 367 Q641 246 834 246 Q950 246 1018 279 L1018 559 L731 559 L731 817 L1341 817 L1341 96 Z M819 1567 Q752 1567 708.5 1607 Q665 1647 665 1704 Q665 1764 709 1801.5 Q753 1839 819 1839 Q886 1839 928.5 1801 Q971 1763 971 1704 Q971 1645 928.5 1606 Q886 1567 819 1567 Z " />
<glyph glyph-name="gdotaccent" unicode="&#x121;" horiz-adv-x="1268" d="M1137 117 Q1137 -168 972 -324.5 Q807 -481 494 -481 Q287 -481 166 -422 L166 -156 Q324 -248 485 -248 Q645 -248 733 -163.5 Q821 -79 821 66 L821 147 L817 147 Q709 -25 498 -25 Q302 -25 187 113 Q72 251 72 483 Q72 743 200 896 Q328 1049 537 1049 Q724 1049 817 905 L821 905 L821 1024 L1137 1024 L1137 117 Z M825 492 L825 573 Q825 670 767.5 738.5 Q710 807 618 807 Q513 807 453 725 Q393 643 393 494 Q393 366 450 291.5 Q507 217 606 217 Q704 217 764.5 292.5 Q825 368 825 492 Z M634 1186 Q567 1186 523.5 1226 Q480 1266 480 1323 Q480 1383 524 1420.5 Q568 1458 634 1458 Q701 1458 743.5 1420 Q786 1382 786 1323 Q786 1264 743.5 1225 Q701 1186 634 1186 Z " />
<glyph glyph-name="Gcommaaccent" unicode="&#x122;" horiz-adv-x="1456" d="M1341 96 Q1131 -25 819 -25 Q473 -25 273.5 166.5 Q74 358 74 694 Q74 1032 292 1245 Q510 1458 872 1458 Q1100 1458 1274 1395 L1274 1092 Q1108 1188 868 1188 Q667 1188 540.5 1057.5 Q414 927 414 709 Q414 488 527.5 367 Q641 246 834 246 Q950 246 1018 279 L1018 559 L731 559 L731 817 L1341 817 L1341 96 Z M972 -117 L804 -469 L610 -469 L700 -117 L972 -117 Z " />
<glyph glyph-name="gcommaaccent" unicode="&#x123;" horiz-adv-x="1268" d="M821 1538 L731 1186 L459 1186 L627 1538 L821 1538 Z M1137 117 Q1137 -168 972 -324.5 Q807 -481 494 -481 Q287 -481 166 -422 L166 -156 Q324 -248 485 -248 Q645 -248 733 -163.5 Q821 -79 821 66 L821 147 L817 147 Q709 -25 498 -25 Q302 -25 187 113 Q72 251 72 483 Q72 743 200 896 Q328 1049 537 1049 Q724 1049 817 905 L821 905 L821 1024 L1137 1024 L1137 117 Z M825 492 L825 573 Q825 670 767.5 738.5 Q710 807 618 807 Q513 807 453 725 Q393 643 393 494 Q393 366 450 291.5 Q507 217 606 217 Q704 217 764.5 292.5 Q825 368 825 492 Z " />
<glyph glyph-name="Hcircumflex" unicode="&#x124;" horiz-adv-x="1569" d="M1405 0 L1081 0 L1081 584 L487 584 L487 0 L164 0 L164 1434 L487 1434 L487 862 L1081 862 L1081 1434 L1405 1434 L1405 0 Z M1144 1567 L937 1567 L779 1755 L632 1567 L425 1567 L660 1892 L908 1892 L1144 1567 Z " />
<glyph glyph-name="hcircumflex" unicode="&#x125;" horiz-adv-x="1233" d="M1116 0 L801 0 L801 582 Q801 807 637 807 Q553 807 501 744 Q449 681 449 584 L449 0 L133 0 L133 1516 L449 1516 L449 872 L453 872 Q569 1049 768 1049 Q1116 1049 1116 629 L1116 0 Z M1012 1567 L805 1567 L647 1755 L500 1567 L293 1567 L528 1892 L776 1892 L1012 1567 Z " />
<glyph glyph-name="Hbar" unicode="&#x126;" horiz-adv-x="1569" d="M1569 1018 L1405 1018 L1405 0 L1081 0 L1081 584 L487 584 L487 0 L164 0 L164 1018 L0 1018 L0 1223 L164 1223 L164 1434 L487 1434 L487 1223 L1081 1223 L1081 1434 L1405 1434 L1405 1223 L1569 1223 L1569 1018 Z M1081 862 L1081 1018 L487 1018 L487 862 L1081 862 Z " />
<glyph glyph-name="hbar" unicode="&#x127;" horiz-adv-x="1262" d="M1149 0 L838 0 L838 553 Q838 778 674 778 Q586 778 535.5 717 Q485 656 485 559 L485 0 L170 0 L170 1179 L27 1179 L27 1338 L170 1338 L170 1516 L485 1516 L485 1338 L815 1338 L815 1179 L485 1179 L485 850 L489 850 Q605 1026 805 1026 Q1149 1026 1149 606 L1149 0 Z " />
<glyph glyph-name="Itilde" unicode="&#x128;" horiz-adv-x="649" d="M607 1434 L607 1184 L487 1184 L487 250 L607 250 L607 0 L44 0 L44 250 L164 250 L164 1184 L44 1184 L44 1434 L607 1434 Z M684 1860 Q684 1720 628.5 1643.5 Q573 1567 477 1567 Q391 1567 309 1610 Q220 1657 186 1657 Q106 1657 106 1549 L-35 1549 Q-35 1688 20 1765 Q75 1842 174 1842 Q255 1842 342 1793 Q421 1749 462 1749 Q540 1749 540 1860 L684 1860 Z " />
<glyph glyph-name="itilde" unicode="&#x129;" horiz-adv-x="582" d="M449 0 L133 0 L133 1024 L449 1024 L449 0 Z M650 1497 Q650 1357 594.5 1280.5 Q539 1204 443 1204 Q357 1204 275 1247 Q186 1294 152 1294 Q72 1294 72 1186 L-69 1186 Q-69 1325 -14 1402 Q41 1479 140 1479 Q221 1479 308 1430 Q387 1386 428 1386 Q506 1386 506 1497 L650 1497 Z " />
<glyph glyph-name="Imacron" unicode="&#x12a;" horiz-adv-x="649" d="M607 1434 L607 1184 L487 1184 L487 250 L607 250 L607 0 L44 0 L44 250 L164 250 L164 1184 L44 1184 L44 1434 L607 1434 Z M617 1567 L31 1567 L31 1739 L617 1739 L617 1567 Z " />
<glyph glyph-name="imacron" unicode="&#x12b;" horiz-adv-x="582" d="M449 0 L133 0 L133 1024 L449 1024 L449 0 Z M584 1186 L-2 1186 L-2 1358 L584 1358 L584 1186 Z " />
<glyph glyph-name="Ibreve" unicode="&#x12c;" horiz-adv-x="649" d="M607 1434 L607 1184 L487 1184 L487 250 L607 250 L607 0 L44 0 L44 250 L164 250 L164 1184 L44 1184 L44 1434 L607 1434 Z M662 1874 Q650 1733 559.5 1650 Q469 1567 322 1567 Q176 1567 84 1652.5 Q-8 1738 -12 1874 L167 1874 Q184 1739 326 1739 Q463 1739 482 1874 L662 1874 Z " />
<glyph glyph-name="ibreve" unicode="&#x12d;" horiz-adv-x="582" d="M449 0 L133 0 L133 1024 L449 1024 L449 0 Z M628 1493 Q616 1352 525.5 1269 Q435 1186 288 1186 Q142 1186 50 1271.5 Q-42 1357 -46 1493 L133 1493 Q150 1358 292 1358 Q429 1358 448 1493 L628 1493 Z " />
<glyph glyph-name="Iogonek" unicode="&#x12e;" horiz-adv-x="649" d="M607 1434 L607 1184 L487 1184 L487 250 L607 250 L607 0 L44 0 L44 250 L164 250 L164 1184 L44 1184 L44 1434 L607 1434 Z M478 -400 Q454 -408 420.5 -413.5 Q387 -419 352 -419 Q267 -419 216 -374.5 Q165 -330 165 -245 Q165 -214 176 -180.5 Q187 -147 208 -114.5 Q229 -82 260 -53 Q291 -24 331 0 L486 0 Q408 -57 370.5 -111.5 Q333 -166 333 -208 Q333 -241 350 -257.5 Q367 -274 396 -274 Q415 -274 436 -271 Q457 -268 477 -262 L478 -400 Z " />
<glyph glyph-name="iogonek" unicode="&#x12f;" horiz-adv-x="582" d="M293 1186 Q213 1186 162 1233.5 Q111 1281 111 1350 Q111 1421 162 1466 Q213 1511 293 1511 Q374 1511 424.5 1466 Q475 1421 475 1350 Q475 1278 424.5 1232 Q374 1186 293 1186 Z M449 0 L133 0 L133 1024 L449 1024 L449 0 Z M441 -400 Q417 -408 383.5 -413.5 Q350 -419 315 -419 Q230 -419 179 -374.5 Q128 -330 128 -245 Q128 -214 139 -180.5 Q150 -147 171 -114.5 Q192 -82 223 -53 Q254 -24 294 0 L449 0 Q371 -57 333.5 -111.5 Q296 -166 296 -208 Q296 -241 313 -257.5 Q330 -274 359 -274 Q378 -274 399 -271 Q420 -268 440 -262 L441 -400 Z " />
<glyph glyph-name="Jcircumflex" unicode="&#x134;" horiz-adv-x="912" d="M762 569 Q762 281 628.5 128 Q495 -25 242 -25 Q129 -25 33 14 L33 317 Q116 254 219 254 Q440 254 440 582 L440 1434 L762 1434 L762 569 Z M959 1567 L752 1567 L594 1755 L447 1567 L240 1567 L475 1892 L723 1892 L959 1567 Z " />
<glyph glyph-name="jcircumflex" unicode="&#x135;" horiz-adv-x="582" d="M449 18 Q449 -209 338 -345 Q227 -481 18 -481 Q-51 -481 -133 -451 L-133 -203 Q-67 -240 -16 -240 Q133 -240 133 -6 L133 1024 L449 1024 L449 18 Z M649 1186 L442 1186 L284 1374 L137 1186 L-70 1186 L165 1511 L413 1511 L649 1186 Z " />
<glyph glyph-name="Kcommaaccent" unicode="&#x136;" horiz-adv-x="1329" d="M1356 0 L948 0 L530 623 Q518 641 492 702 L487 702 L487 0 L164 0 L164 1434 L487 1434 L487 756 L492 756 Q504 784 532 836 L928 1434 L1313 1434 L813 750 L1356 0 Z M886 -117 L718 -469 L524 -469 L614 -117 L886 -117 Z " />
<glyph glyph-name="kcommaaccent" unicode="&#x137;" horiz-adv-x="1145" d="M1159 0 L780 0 L453 508 L449 508 L449 0 L133 0 L133 1516 L449 1516 L449 551 L453 551 L758 1024 L1133 1024 L766 543 L1159 0 Z M765 -117 L597 -469 L403 -469 L493 -117 L765 -117 Z " />
<glyph glyph-name="kgreenlandic" unicode="&#x138;" horiz-adv-x="1145" d="M1159 0 L780 0 L453 508 L449 508 L449 0 L133 0 L133 1024 L449 1024 L449 551 L453 551 L758 1024 L1133 1024 L766 543 L1159 0 Z " />
<glyph glyph-name="Lcommaaccent" unicode="&#x13b;" horiz-adv-x="1047" d="M1018 0 L164 0 L164 1434 L487 1434 L487 262 L1018 262 L1018 0 Z M434 -451 L434 -313 Q469 -319 506 -319 Q629 -319 629 -246 Q629 -180 518 -180 Q505 -180 481 -182 L481 0 L653 0 L653 -82 Q840 -90 840 -248 Q840 -455 522 -455 Q476 -455 434 -451 Z " />
<glyph glyph-name="lcommaaccent" unicode="&#x13c;" horiz-adv-x="582" d="M449 0 L133 0 L133 1516 L449 1516 L449 0 Z M127 -451 L127 -313 Q162 -319 199 -319 Q322 -319 322 -246 Q322 -180 211 -180 Q198 -180 174 -182 L174 0 L346 0 L346 -82 Q533 -90 533 -248 Q533 -455 215 -455 Q169 -455 127 -451 Z " />
<glyph glyph-name="Ncommaaccent" unicode="&#x145;" horiz-adv-x="1618" d="M1454 0 L1128 0 L537 901 Q485 980 465 1020 L461 1020 Q469 944 469 788 L469 0 L164 0 L164 1434 L512 1434 L1081 561 Q1120 502 1153 444 L1157 444 Q1149 494 1149 641 L1149 1434 L1454 1434 L1454 0 Z M990 -117 L822 -469 L628 -469 L718 -117 L990 -117 Z " />
<glyph glyph-name="ncommaaccent" unicode="&#x146;" horiz-adv-x="1239" d="M1122 0 L807 0 L807 569 Q807 807 637 807 Q555 807 502 744 Q449 681 449 584 L449 0 L133 0 L133 1024 L449 1024 L449 862 L453 862 Q566 1049 782 1049 Q1122 1049 1122 627 L1122 0 Z M800 -117 L632 -469 L438 -469 L528 -117 L800 -117 Z " />
<glyph glyph-name="Eng" unicode="&#x14a;" horiz-adv-x="1618" d="M1454 80 Q1454 -420 1057 -420 Q938 -420 854 -389 L854 -141 Q920 -178 993 -178 Q1145 -178 1149 3 L537 901 Q491 969 465 1020 L461 1020 Q469 944 469 788 L469 0 L164 0 L164 1434 L512 1434 L1081 594 Q1138 510 1153 477 L1157 477 Q1149 527 1149 674 L1149 1434 L1454 1434 L1454 80 Z " />
<glyph glyph-name="eng" unicode="&#x14b;" horiz-adv-x="1239" d="M1122 63 Q1122 -422 713 -422 Q625 -422 541 -391 L541 -143 Q607 -180 657 -180 Q807 -180 807 53 L807 569 Q807 807 637 807 Q555 807 502 744 Q449 681 449 584 L449 0 L133 0 L133 1024 L449 1024 L449 862 L453 862 Q566 1049 782 1049 Q1122 1049 1122 627 L1122 63 Z " />
<glyph glyph-name="Omacron" unicode="&#x14c;" horiz-adv-x="1553" d="M770 -25 Q462 -25 268 175.5 Q74 376 74 698 Q74 1038 271 1248 Q468 1458 793 1458 Q1100 1458 1289.5 1257 Q1479 1056 1479 727 Q1479 389 1282.5 182 Q1086 -25 770 -25 Z M784 1180 Q614 1180 514 1052.5 Q414 925 414 715 Q414 502 514 378 Q614 254 776 254 Q943 254 1041 374.5 Q1139 495 1139 709 Q1139 932 1044 1056 Q949 1180 784 1180 Z M1069 1567 L483 1567 L483 1739 L1069 1739 L1069 1567 Z " />
<glyph glyph-name="omacron" unicode="&#x14d;" horiz-adv-x="1252" d="M621 -25 Q365 -25 218.5 118.5 Q72 262 72 508 Q72 762 224 905.5 Q376 1049 635 1049 Q890 1049 1035 905.5 Q1180 762 1180 526 Q1180 271 1030.5 123 Q881 -25 621 -25 Z M629 807 Q517 807 455 730 Q393 653 393 512 Q393 217 631 217 Q858 217 858 520 Q858 807 629 807 Z M919 1186 L333 1186 L333 1358 L919 1358 L919 1186 Z " />
<glyph glyph-name="Obreve" unicode="&#x14e;" horiz-adv-x="1553" d="M770 -25 Q462 -25 268 175.5 Q74 376 74 698 Q74 1038 271 1248 Q468 1458 793 1458 Q1100 1458 1289.5 1257 Q1479 1056 1479 727 Q1479 389 1282.5 182 Q1086 -25 770 -25 Z M784 1180 Q614 1180 514 1052.5 Q414 925 414 715 Q414 502 514 378 Q614 254 776 254 Q943 254 1041 374.5 Q1139 495 1139 709 Q1139 932 1044 1056 Q949 1180 784 1180 Z M1113 1874 Q1101 1733 1010.5 1650 Q920 1567 773 1567 Q627 1567 535 1652.5 Q443 1738 439 1874 L618 1874 Q635 1739 777 1739 Q914 1739 933 1874 L1113 1874 Z " />
<glyph glyph-name="obreve" unicode="&#x14f;" horiz-adv-x="1252" d="M621 -25 Q365 -25 218.5 118.5 Q72 262 72 508 Q72 762 224 905.5 Q376 1049 635 1049 Q890 1049 1035 905.5 Q1180 762 1180 526 Q1180 271 1030.5 123 Q881 -25 621 -25 Z M629 807 Q517 807 455 730 Q393 653 393 512 Q393 217 631 217 Q858 217 858 520 Q858 807 629 807 Z M963 1493 Q951 1352 860.5 1269 Q770 1186 623 1186 Q477 1186 385 1271.5 Q293 1357 289 1493 L468 1493 Q485 1358 627 1358 Q764 1358 783 1493 L963 1493 Z " />
<glyph glyph-name="Rcommaaccent" unicode="&#x156;" horiz-adv-x="1337" d="M1367 0 L996 0 L773 369 Q748 411 725 444 Q702 477 678.5 500.5 Q655 524 629.5 536.5 Q604 549 574 549 L487 549 L487 0 L164 0 L164 1434 L676 1434 Q1198 1434 1198 1044 Q1198 969 1175 905.5 Q1152 842 1110 791 Q1068 740 1008.5 703 Q949 666 876 645 L876 641 Q908 631 938 608.5 Q968 586 996 556 Q1024 526 1049.5 491.5 Q1075 457 1096 424 L1367 0 Z M487 1192 L487 793 L627 793 Q731 793 794 853 Q858 914 858 1004 Q858 1192 633 1192 L487 1192 Z M849 -117 L681 -469 L487 -469 L577 -117 L849 -117 Z " />
<glyph glyph-name="rcommaaccent" unicode="&#x157;" horiz-adv-x="815" d="M801 739 Q744 770 668 770 Q565 770 507 694.5 Q449 619 449 489 L449 0 L133 0 L133 1024 L449 1024 L449 834 L453 834 Q528 1042 723 1042 Q773 1042 801 1030 L801 739 Z M593 -117 L425 -469 L231 -469 L321 -117 L593 -117 Z " />
<glyph glyph-name="Scircumflex" unicode="&#x15c;" horiz-adv-x="1148" d="M98 55 L98 375 Q185 302 287 265.5 Q389 229 493 229 Q554 229 599.5 240 Q645 251 675.5 270.5 Q706 290 721 316.5 Q736 343 736 374 Q736 416 712 449 Q688 482 646.5 510 Q605 538 548 564 Q491 590 425 617 Q257 687 174.5 788 Q92 889 92 1032 Q92 1144 137 1224.5 Q182 1305 259.5 1357 Q337 1409 439 1433.5 Q541 1458 655 1458 Q767 1458 853.5 1444.5 Q940 1431 1013 1403 L1013 1104 Q977 1129 934.5 1148 Q892 1167 847 1179.5 Q802 1192 757.5 1198 Q713 1204 673 1204 Q618 1204 573 1193.5 Q528 1183 497 1164 Q466 1145 449 1118.5 Q432 1092 432 1059 Q432 1023 451 994.5 Q470 966 505 940.5 Q540 915 590 890.5 Q640 866 703 840 Q789 804 857.5 763.5 Q926 723 975 672 Q1024 621 1050 555.5 Q1076 490 1076 403 Q1076 283 1030.5 201.5 Q985 120 907 69.5 Q829 19 725.5 -3 Q622 -25 507 -25 Q389 -25 282.5 -5 Q176 15 98 55 Z M922 1567 L715 1567 L557 1755 L410 1567 L203 1567 L438 1892 L686 1892 L922 1567 Z " />
<glyph glyph-name="scircumflex" unicode="&#x15d;" horiz-adv-x="901" d="M66 27 L66 283 Q144 236 221.5 213 Q299 190 368 190 Q452 190 500.5 213 Q549 236 549 283 Q549 313 527 333 Q505 353 470.5 368 Q436 383 395 395 Q354 407 316 422 Q255 445 208.5 471.5 Q162 498 130.5 533 Q99 568 82.5 614 Q66 660 66 723 Q66 809 103.5 871 Q141 933 203.5 972.5 Q266 1012 346.5 1030.5 Q427 1049 514 1049 Q582 1049 652 1038.5 Q722 1028 790 1008 L790 764 Q730 799 661.5 816.5 Q593 834 527 834 Q496 834 468.5 828.5 Q441 823 420 812.5 Q399 802 387 785.5 Q375 769 375 748 Q375 720 393 700 Q411 680 440 665.5 Q469 651 504.5 639.5 Q540 628 575 616 Q638 594 689 568 Q740 542 776.5 507 Q813 472 832.5 425 Q852 378 852 313 Q852 222 812.5 157.5 Q773 93 707.5 52.5 Q642 12 556.5 -6.5 Q471 -25 379 -25 Q210 -25 66 27 Z M825 1186 L618 1186 L460 1374 L313 1186 L106 1186 L341 1511 L589 1511 L825 1186 Z " />
<glyph glyph-name="Tbar" unicode="&#x166;" horiz-adv-x="1200" d="M1171 1171 L762 1171 L762 805 L999 805 L999 539 L762 539 L762 0 L438 0 L438 539 L201 539 L201 805 L438 805 L438 1171 L31 1171 L31 1434 L1171 1434 L1171 1171 Z " />
<glyph glyph-name="tbar" unicode="&#x167;" horiz-adv-x="797" d="M752 12 Q682 -25 541 -25 Q207 -25 207 322 L207 442 L61 442 L61 647 L207 647 L207 791 L41 791 L41 1024 L207 1024 L207 1245 L522 1335 L522 1024 L752 1024 L752 791 L522 791 L522 647 L741 647 L741 442 L522 442 L522 377 Q522 217 649 217 Q699 217 752 246 L752 12 Z " />
<glyph glyph-name="Utilde" unicode="&#x168;" horiz-adv-x="1481" d="M1333 621 Q1333 -25 731 -25 Q147 -25 147 606 L147 1434 L471 1434 L471 602 Q471 254 743 254 Q1010 254 1010 590 L1010 1434 L1333 1434 L1333 621 Z M1100 1829 Q1100 1689 1044.5 1612.5 Q989 1536 893 1536 Q807 1536 725 1579 Q636 1626 602 1626 Q522 1626 522 1518 L381 1518 Q381 1657 436 1734 Q491 1811 590 1811 Q671 1811 758 1762 Q837 1718 878 1718 Q956 1718 956 1829 L1100 1829 Z " />
<glyph glyph-name="utilde" unicode="&#x169;" horiz-adv-x="1239" d="M1106 0 L791 0 L791 156 L786 156 Q669 -25 473 -25 Q117 -25 117 406 L117 1024 L432 1024 L432 434 Q432 217 604 217 Q689 217 740 276.5 Q791 336 791 438 L791 1024 L1106 1024 L1106 0 Z M979 1497 Q979 1357 923.5 1280.5 Q868 1204 772 1204 Q686 1204 604 1247 Q515 1294 481 1294 Q401 1294 401 1186 L260 1186 Q260 1325 315 1402 Q370 1479 469 1479 Q550 1479 637 1430 Q716 1386 757 1386 Q835 1386 835 1497 L979 1497 Z " />
<glyph glyph-name="Umacron" unicode="&#x16a;" horiz-adv-x="1481" d="M1333 621 Q1333 -25 731 -25 Q147 -25 147 606 L147 1434 L471 1434 L471 602 Q471 254 743 254 Q1010 254 1010 590 L1010 1434 L1333 1434 L1333 621 Z M1033 1567 L447 1567 L447 1739 L1033 1739 L1033 1567 Z " />
<glyph glyph-name="umacron" unicode="&#x16b;" horiz-adv-x="1239" d="M1106 0 L791 0 L791 156 L786 156 Q669 -25 473 -25 Q117 -25 117 406 L117 1024 L432 1024 L432 434 Q432 217 604 217 Q689 217 740 276.5 Q791 336 791 438 L791 1024 L1106 1024 L1106 0 Z M912 1186 L326 1186 L326 1358 L912 1358 L912 1186 Z " />
<glyph glyph-name="Ubreve" unicode="&#x16c;" horiz-adv-x="1481" d="M1333 621 Q1333 -25 731 -25 Q147 -25 147 606 L147 1434 L471 1434 L471 602 Q471 254 743 254 Q1010 254 1010 590 L1010 1434 L1333 1434 L1333 621 Z M1077 1874 Q1065 1733 974.5 1650 Q884 1567 737 1567 Q591 1567 499 1652.5 Q407 1738 403 1874 L582 1874 Q599 1739 741 1739 Q878 1739 897 1874 L1077 1874 Z " />
<glyph glyph-name="ubreve" unicode="&#x16d;" horiz-adv-x="1239" d="M1106 0 L791 0 L791 156 L786 156 Q669 -25 473 -25 Q117 -25 117 406 L117 1024 L432 1024 L432 434 Q432 217 604 217 Q689 217 740 276.5 Q791 336 791 438 L791 1024 L1106 1024 L1106 0 Z M956 1493 Q944 1352 853.5 1269 Q763 1186 616 1186 Q470 1186 378 1271.5 Q286 1357 282 1493 L461 1493 Q478 1358 620 1358 Q757 1358 776 1493 L956 1493 Z " />
<glyph glyph-name="Uogonek" unicode="&#x172;" horiz-adv-x="1481" d="M1333 621 Q1333 -25 731 -25 Q147 -25 147 606 L147 1434 L471 1434 L471 602 Q471 254 743 254 Q1010 254 1010 590 L1010 1434 L1333 1434 L1333 621 Z M924 -400 Q900 -408 866.5 -413.5 Q833 -419 798 -419 Q713 -419 662 -374.5 Q611 -330 611 -245 Q611 -214 622 -180.5 Q633 -147 654 -114.5 Q675 -82 706 -53 Q737 -24 777 0 L932 0 Q854 -57 816.5 -111.5 Q779 -166 779 -208 Q779 -241 796 -257.5 Q813 -274 842 -274 Q861 -274 882 -271 Q903 -268 923 -262 L924 -400 Z " />
<glyph glyph-name="uogonek" unicode="&#x173;" horiz-adv-x="1239" d="M1106 0 L791 0 L791 156 L786 156 Q669 -25 473 -25 Q117 -25 117 406 L117 1024 L432 1024 L432 434 Q432 217 604 217 Q689 217 740 276.5 Q791 336 791 438 L791 1024 L1106 1024 L1106 0 Z M940 -400 Q916 -408 882.5 -413.5 Q849 -419 814 -419 Q729 -419 678 -374.5 Q627 -330 627 -245 Q627 -214 638 -180.5 Q649 -147 670 -114.5 Q691 -82 722 -53 Q753 -24 793 0 L948 0 Q870 -57 832.5 -111.5 Q795 -166 795 -208 Q795 -241 812 -257.5 Q829 -274 858 -274 Q877 -274 898 -271 Q919 -268 939 -262 L940 -400 Z " />
<glyph glyph-name="Wcircumflex" unicode="&#x174;" horiz-adv-x="2058" d="M2040 1434 L1661 0 L1303 0 L1065 920 Q1046 992 1042 1081 L1038 1081 Q1029 983 1012 920 L768 0 L395 0 L18 1434 L371 1434 L573 479 Q586 418 592 315 L598 315 Q602 392 627 483 L887 1434 L1233 1434 L1468 471 Q1481 418 1491 317 L1495 317 Q1499 396 1516 477 L1714 1434 L2040 1434 Z M1389 1567 L1182 1567 L1024 1755 L877 1567 L670 1567 L905 1892 L1153 1892 L1389 1567 Z " />
<glyph glyph-name="wcircumflex" unicode="&#x175;" horiz-adv-x="1633" d="M1616 1024 L1321 0 L989 0 L838 600 Q823 660 821 731 L815 731 Q808 653 795 604 L633 0 L305 0 L16 1024 L338 1024 L479 356 Q489 309 494 242 L500 242 Q505 312 518 360 L694 1024 L995 1024 L1153 356 Q1159 331 1167 240 L1174 240 Q1179 298 1190 356 L1323 1024 L1616 1024 Z M1176 1186 L969 1186 L811 1374 L664 1186 L457 1186 L692 1511 L940 1511 L1176 1186 Z " />
<glyph glyph-name="Ycircumflex" unicode="&#x176;" horiz-adv-x="1243" d="M1245 1434 L778 510 L778 0 L455 0 L455 504 L0 1434 L369 1434 L600 899 Q606 884 633 782 L637 782 Q650 854 668 895 L903 1434 L1245 1434 Z M981 1567 L774 1567 L616 1755 L469 1567 L262 1567 L497 1892 L745 1892 L981 1567 Z " />
<glyph glyph-name="ycircumflex" unicode="&#x177;" horiz-adv-x="1102" d="M1108 1024 L692 -82 Q542 -481 240 -481 Q125 -481 51 -455 L51 -203 Q114 -240 188 -240 Q310 -240 358 -125 L412 2 L-4 1024 L346 1024 L537 401 Q555 343 565 264 L569 264 Q578 322 602 399 L795 1024 L1108 1024 Z M910 1186 L703 1186 L545 1374 L398 1186 L191 1186 L426 1511 L674 1511 L910 1186 Z " />
<glyph glyph-name="longs" unicode="&#x17f;" horiz-adv-x="613" d="M717 1274 Q656 1298 600 1298 Q449 1298 449 1133 L449 0 L133 0 L133 1151 Q133 1326 247 1433 Q361 1540 557 1540 Q653 1540 717 1520 L717 1274 Z " />
<glyph glyph-name="Aringacute" unicode="&#x1fa;" horiz-adv-x="1440" d="M1425 0 L1073 0 L971 319 L461 319 L360 0 L10 0 L522 1407 Q469 1461 469 1544 Q469 1650 542.5 1713 Q616 1776 723 1776 Q837 1776 907 1712.5 Q977 1649 977 1548 Q977 1468 924 1411 L1425 0 Z M719 1645 Q672 1645 644 1616.5 Q616 1588 616 1546 Q616 1448 719 1448 Q767 1448 796 1476.5 Q825 1505 825 1546 Q825 1589 795.5 1617 Q766 1645 719 1645 Z M893 584 L741 1049 Q728 1089 719 1169 L711 1169 Q704 1101 688 1053 L535 584 L893 584 Z M1037 2181 L724 1858 L496 1858 L756 2181 L1037 2181 Z " />
<glyph glyph-name="aringacute" unicode="&#x1fb;" horiz-adv-x="1102" d="M985 0 L686 0 L686 147 L682 147 Q579 -25 377 -25 Q228 -25 142.5 59.5 Q57 144 57 285 Q57 583 410 629 L688 666 Q688 834 506 834 Q323 834 158 725 L158 963 Q224 997 338.5 1023 Q453 1049 547 1049 Q985 1049 985 612 L985 0 Z M688 416 L688 485 L502 461 Q348 441 348 322 Q348 268 385.5 233.5 Q423 199 487 199 Q576 199 632 260.5 Q688 322 688 416 Z M573 1135 Q471 1135 404.5 1194.5 Q338 1254 338 1350 Q338 1451 407.5 1511 Q477 1571 578 1571 Q685 1571 751 1511.5 Q817 1452 817 1356 Q817 1258 745.5 1196.5 Q674 1135 573 1135 Z M573 1448 Q477 1448 477 1354 Q477 1260 573 1260 Q618 1260 647 1287.5 Q676 1315 676 1354 Q676 1395 647.5 1421.5 Q619 1448 573 1448 Z M891 1982 L578 1659 L350 1659 L610 1982 L891 1982 Z " />
<glyph glyph-name="AEacute" unicode="&#x1fc;" horiz-adv-x="1915" d="M1849 0 L991 0 L991 319 L520 319 L373 0 L-2 0 L723 1434 L1817 1434 L1817 1171 L1313 1171 L1313 852 L1782 852 L1782 590 L1313 590 L1313 262 L1849 262 L1849 0 Z M991 567 L991 1171 L913 1171 L631 567 L991 567 Z M1526 1890 L1213 1567 L985 1567 L1245 1890 L1526 1890 Z " />
<glyph glyph-name="aeacute" unicode="&#x1fd;" horiz-adv-x="1696" d="M1640 422 L973 422 Q993 199 1255 199 Q1415 199 1552 279 L1552 53 Q1396 -25 1174 -25 Q905 -25 776 154 L772 154 Q631 -25 410 -25 Q244 -25 150.5 57.5 Q57 140 57 287 Q57 433 153.5 521 Q250 609 430 623 L686 643 Q686 834 502 834 Q328 834 158 727 L158 963 Q345 1049 528 1049 Q762 1049 852 915 L856 915 Q988 1049 1182 1049 Q1396 1049 1518 916 Q1640 783 1640 551 L1640 422 Z M1348 616 Q1348 836 1171 836 Q1096 836 1039.5 774 Q983 712 973 616 L1348 616 Z M686 414 L686 459 L530 446 Q346 431 346 315 Q346 265 385 232 Q424 199 487 199 Q573 199 629.5 258.5 Q686 318 686 414 Z M1180 1509 L867 1186 L639 1186 L899 1509 L1180 1509 Z " />
<glyph glyph-name="Oslashacute" unicode="&#x1fe;" horiz-adv-x="1553" d="M348 109 L205 -61 L80 43 L229 219 Q74 411 74 698 Q74 1038 270.5 1248 Q467 1458 793 1458 Q1027 1458 1194 1339 L1323 1489 L1448 1386 L1313 1229 Q1479 1033 1479 727 Q1479 389 1282.5 182 Q1086 -25 770 -25 Q530 -25 348 109 Z M1016 1130 Q919 1206 784 1206 Q603 1206 497 1069.5 Q391 933 391 709 Q391 563 438 457 L1016 1130 Z M1110 995 L532 319 Q633 227 776 227 Q951 227 1057 355.5 Q1163 484 1163 707 Q1163 871 1110 995 Z M1149 1890 L836 1567 L608 1567 L868 1890 L1149 1890 Z " />
<glyph glyph-name="oslashacute" unicode="&#x1ff;" horiz-adv-x="1252" d="M1206 1010 L1067 864 Q1180 721 1180 526 Q1180 267 1032 122 Q884 -23 621 -23 Q423 -23 293 63 L158 -78 L39 29 L176 172 Q72 313 72 510 Q72 763 224.5 907 Q377 1051 637 1051 Q816 1051 948 969 L1087 1116 L1206 1010 Z M772 791 Q716 831 631 831 Q373 831 373 514 Q373 441 391 393 L772 791 Z M862 651 L469 242 Q530 197 629 197 Q881 197 881 520 Q881 594 862 651 Z M958 1509 L645 1186 L417 1186 L677 1509 L958 1509 Z " />
<glyph glyph-name="anoteleia" unicode="&#x387;" horiz-adv-x="556" d="M275 487 Q197 487 145 535 Q93 583 93 653 Q93 726 145.5 771.5 Q198 817 278 817 Q359 817 410.5 770.5 Q462 724 462 653 Q462 580 410.5 533.5 Q359 487 275 487 Z " />
<glyph glyph-name="Wgrave" unicode="&#x1e80;" horiz-adv-x="2058" d="M2040 1434 L1661 0 L1303 0 L1065 920 Q1046 992 1042 1081 L1038 1081 Q1029 983 1012 920 L768 0 L395 0 L18 1434 L371 1434 L573 479 Q586 418 592 315 L598 315 Q602 392 627 483 L887 1434 L1233 1434 L1468 471 Q1481 418 1491 317 L1495 317 Q1499 396 1516 477 L1714 1434 L2040 1434 Z M1243 1567 L1016 1567 L702 1890 L983 1890 L1243 1567 Z " />
<glyph glyph-name="wgrave" unicode="&#x1e81;" horiz-adv-x="1633" d="M1616 1024 L1321 0 L989 0 L838 600 Q823 660 821 731 L815 731 Q808 653 795 604 L633 0 L305 0 L16 1024 L338 1024 L479 356 Q489 309 494 242 L500 242 Q505 312 518 360 L694 1024 L995 1024 L1153 356 Q1159 331 1167 240 L1174 240 Q1179 298 1190 356 L1323 1024 L1616 1024 Z M1071 1186 L844 1186 L530 1509 L811 1509 L1071 1186 Z " />
<glyph glyph-name="Wacute" unicode="&#x1e82;" horiz-adv-x="2058" d="M2040 1434 L1661 0 L1303 0 L1065 920 Q1046 992 1042 1081 L1038 1081 Q1029 983 1012 920 L768 0 L395 0 L18 1434 L371 1434 L573 479 Q586 418 592 315 L598 315 Q602 392 627 483 L887 1434 L1233 1434 L1468 471 Q1481 418 1491 317 L1495 317 Q1499 396 1516 477 L1714 1434 L2040 1434 Z M1372 1890 L1059 1567 L831 1567 L1091 1890 L1372 1890 Z " />
<glyph glyph-name="wacute" unicode="&#x1e83;" horiz-adv-x="1633" d="M1616 1024 L1321 0 L989 0 L838 600 Q823 660 821 731 L815 731 Q808 653 795 604 L633 0 L305 0 L16 1024 L338 1024 L479 356 Q489 309 494 242 L500 242 Q505 312 518 360 L694 1024 L995 1024 L1153 356 Q1159 331 1167 240 L1174 240 Q1179 298 1190 356 L1323 1024 L1616 1024 Z M1147 1509 L834 1186 L606 1186 L866 1509 L1147 1509 Z " />
<glyph glyph-name="Wdieresis" unicode="&#x1e84;" horiz-adv-x="2058" d="M2040 1434 L1661 0 L1303 0 L1065 920 Q1046 992 1042 1081 L1038 1081 Q1029 983 1012 920 L768 0 L395 0 L18 1434 L371 1434 L573 479 Q586 418 592 315 L598 315 Q602 392 627 483 L887 1434 L1233 1434 L1468 471 Q1481 418 1491 317 L1495 317 Q1499 396 1516 477 L1714 1434 L2040 1434 Z M1279 1567 Q1212 1567 1169 1606 Q1126 1645 1126 1704 Q1126 1765 1169 1803 Q1212 1841 1279 1841 Q1346 1841 1389.5 1802.5 Q1433 1764 1433 1704 Q1433 1644 1390 1605.5 Q1347 1567 1279 1567 Z M821 1567 Q753 1567 710 1606.5 Q667 1646 667 1704 Q667 1764 711 1802.5 Q755 1841 821 1841 Q889 1841 931.5 1802.5 Q974 1764 974 1704 Q974 1643 931.5 1605 Q889 1567 821 1567 Z " />
<glyph glyph-name="wdieresis" unicode="&#x1e85;" horiz-adv-x="1633" d="M1616 1024 L1321 0 L989 0 L838 600 Q823 660 821 731 L815 731 Q808 653 795 604 L633 0 L305 0 L16 1024 L338 1024 L479 356 Q489 309 494 242 L500 242 Q505 312 518 360 L694 1024 L995 1024 L1153 356 Q1159 331 1167 240 L1174 240 Q1179 298 1190 356 L1323 1024 L1616 1024 Z M1078 1186 Q1011 1186 968 1225 Q925 1264 925 1323 Q925 1384 968 1422 Q1011 1460 1078 1460 Q1145 1460 1188.5 1421.5 Q1232 1383 1232 1323 Q1232 1263 1189 1224.5 Q1146 1186 1078 1186 Z M620 1186 Q552 1186 509 1225.5 Q466 1265 466 1323 Q466 1383 510 1421.5 Q554 1460 620 1460 Q688 1460 730.5 1421.5 Q773 1383 773 1323 Q773 1262 730.5 1224 Q688 1186 620 1186 Z " />
<glyph glyph-name="Ygrave" unicode="&#x1ef2;" horiz-adv-x="1243" d="M1245 1434 L778 510 L778 0 L455 0 L455 504 L0 1434 L369 1434 L600 899 Q606 884 633 782 L637 782 Q650 854 668 895 L903 1434 L1245 1434 Z M867 1567 L640 1567 L326 1890 L607 1890 L867 1567 Z " />
<glyph glyph-name="ygrave" unicode="&#x1ef3;" horiz-adv-x="1102" d="M1108 1024 L692 -82 Q542 -481 240 -481 Q125 -481 51 -455 L51 -203 Q114 -240 188 -240 Q310 -240 358 -125 L412 2 L-4 1024 L346 1024 L537 401 Q555 343 565 264 L569 264 Q578 322 602 399 L795 1024 L1108 1024 Z M817 1186 L590 1186 L276 1509 L557 1509 L817 1186 Z " />
<glyph glyph-name="quotereversed" unicode="&#x201b;" horiz-adv-x="594" d="M500 1024 L305 1024 L113 1468 L385 1468 L500 1024 Z " />
<glyph glyph-name="radicalex" unicode="&#x203e;" horiz-adv-x="850" d="M850 1397 L0 1397 L0 1516 L850 1516 L850 1397 Z " />
<glyph glyph-name="lira" unicode="&#x20a4;" horiz-adv-x="1178" d="M1114 0 L143 0 L143 227 Q246 254 291 312 Q336 370 336 475 L336 516 L164 516 L164 692 L336 692 L336 797 L164 797 L164 973 L336 973 L336 1016 Q336 1214 458 1336 Q580 1458 788 1458 Q915 1458 1022 1409 L1022 1151 Q924 1217 813 1217 Q629 1217 629 987 L629 973 L897 973 L897 797 L629 797 L629 692 L897 692 L897 516 L629 516 L629 506 Q629 327 477 242 L1114 242 L1114 0 Z " />
<glyph glyph-name="estimated" unicode="&#x212e;" horiz-adv-x="1229" d="M1145 530 L317 530 L317 160 Q438 39 612 39 Q871 39 1008 285 L1079 242 Q960 70 849 17.5 Q738 -35 614 -35 Q374 -35 229 126.5 Q84 288 84 530 Q84 781 231.5 938.5 Q379 1096 610 1096 Q826 1096 977.5 953.5 Q1129 811 1145 530 Z M911 604 L911 901 Q782 1024 608 1024 Q436 1024 315 901 L315 604 L911 604 Z " />
<glyph glyph-name="oneeighth" unicode="&#x215b;" horiz-adv-x="1977" d="M676 584 L113 584 L113 756 L289 756 L289 1233 L98 1192 L98 1372 L504 1454 L504 756 L676 756 L676 584 Z M1505 1434 L614 0 L370 0 L1261 1434 L1505 1434 Z M1375 444 Q1240 508 1240 637 Q1240 739 1322.5 805 Q1405 871 1534 871 Q1666 871 1745 809 Q1824 747 1824 649 Q1824 514 1676 446 Q1845 386 1845 231 Q1845 115 1757 48 Q1669 -19 1515 -19 Q1381 -19 1297.5 46.5 Q1214 112 1214 221 Q1214 370 1375 444 Z M1625 634 Q1625 718 1534 718 Q1494 718 1466.5 694.5 Q1439 671 1439 633 Q1439 569 1532 531 Q1625 570 1625 634 Z M1524 359 Q1414 315 1414 230 Q1414 189 1447.5 162 Q1481 135 1530 135 Q1646 135 1646 231 Q1646 317 1524 359 Z " />
<glyph glyph-name="threeeighths" unicode="&#x215c;" horiz-adv-x="1977" d="M131 616 L131 797 Q238 729 352 729 Q502 729 502 831 Q502 934 330 934 L213 934 L213 1100 L326 1100 Q475 1100 475 1196 Q475 1286 356 1286 Q249 1286 158 1221 L158 1397 Q257 1454 397 1454 Q531 1454 608.5 1393.5 Q686 1333 686 1233 Q686 1086 543 1038 L543 1034 Q715 993 715 836 Q715 713 617 638 Q519 563 360 563 Q227 563 131 616 Z M1506 1434 L615 0 L371 0 L1262 1434 L1506 1434 Z M1375 444 Q1240 508 1240 637 Q1240 739 1322.5 805 Q1405 871 1534 871 Q1666 871 1745 809 Q1824 747 1824 649 Q1824 514 1676 446 Q1845 386 1845 231 Q1845 115 1757 48 Q1669 -19 1515 -19 Q1381 -19 1297.5 46.5 Q1214 112 1214 221 Q1214 370 1375 444 Z M1625 634 Q1625 718 1534 718 Q1494 718 1466.5 694.5 Q1439 671 1439 633 Q1439 569 1532 531 Q1625 570 1625 634 Z M1524 359 Q1414 315 1414 230 Q1414 189 1447.5 162 Q1481 135 1530 135 Q1646 135 1646 231 Q1646 317 1524 359 Z " />
<glyph glyph-name="fiveeighths" unicode="&#x215d;" horiz-adv-x="1977" d="M134 602 L134 785 Q236 724 332 724 Q481 724 481 844 Q481 959 311 959 Q253 959 158 947 L158 1436 L655 1436 L655 1264 L341 1264 L341 1119 Q380 1122 402 1122 Q539 1122 617 1051 Q695 980 695 861 Q695 730 602.5 646.5 Q510 563 353 563 Q225 563 134 602 Z M1506 1434 L615 0 L371 0 L1262 1434 L1506 1434 Z M1375 444 Q1240 508 1240 637 Q1240 739 1322.5 805 Q1405 871 1534 871 Q1666 871 1745 809 Q1824 747 1824 649 Q1824 514 1676 446 Q1845 386 1845 231 Q1845 115 1757 48 Q1669 -19 1515 -19 Q1381 -19 1297.5 46.5 Q1214 112 1214 221 Q1214 370 1375 444 Z M1625 634 Q1625 718 1534 718 Q1494 718 1466.5 694.5 Q1439 671 1439 633 Q1439 569 1532 531 Q1625 570 1625 634 Z M1524 359 Q1414 315 1414 230 Q1414 189 1447.5 162 Q1481 135 1530 135 Q1646 135 1646 231 Q1646 317 1524 359 Z " />
<glyph glyph-name="seveneighths" unicode="&#x215e;" horiz-adv-x="1895" d="M708 1336 L401 584 L179 584 L485 1262 L89 1262 L89 1434 L708 1434 L708 1336 Z M1424 1434 L533 0 L289 0 L1180 1434 L1424 1434 Z M1293 444 Q1158 508 1158 637 Q1158 739 1240.5 805 Q1323 871 1452 871 Q1584 871 1663 809 Q1742 747 1742 649 Q1742 514 1594 446 Q1763 386 1763 231 Q1763 115 1675 48 Q1587 -19 1433 -19 Q1299 -19 1215.5 46.5 Q1132 112 1132 221 Q1132 370 1293 444 Z M1543 634 Q1543 718 1452 718 Q1412 718 1384.5 694.5 Q1357 671 1357 633 Q1357 569 1450 531 Q1543 570 1543 634 Z M1442 359 Q1332 315 1332 230 Q1332 189 1365.5 162 Q1399 135 1448 135 Q1564 135 1564 231 Q1564 317 1442 359 Z " />
<glyph glyph-name="uni037E" unicode="&#x37e;" horiz-adv-x="555" d="M281 707 Q202 707 150 755 Q98 803 98 872 Q98 945 150.5 990.5 Q203 1036 283 1036 Q364 1036 415.5 989.5 Q467 943 467 872 Q467 799 416 753 Q365 707 281 707 Z M432 252 L285 -254 L39 -254 L141 252 L432 252 Z " />
<glyph glyph-name="tonos" unicode="&#x384;" horiz-adv-x="649" d="M565 1508 L358 1168 L189 1168 L284 1508 L565 1508 Z " />
<glyph glyph-name="dieresistonos" unicode="&#x385;" horiz-adv-x="836" d="M646 1581 L444 1209 L291 1209 L375 1581 L646 1581 Z M723 1184 Q661 1184 620.5 1221 Q580 1258 580 1313 Q580 1370 620 1405.5 Q660 1441 723 1441 Q786 1441 826.5 1405 Q867 1369 867 1313 Q867 1257 827 1220.5 Q787 1184 723 1184 Z M113 1184 Q50 1184 9.5 1221.5 Q-31 1259 -31 1313 Q-31 1370 10 1405.5 Q51 1441 113 1441 Q176 1441 216.5 1405 Q257 1369 257 1313 Q257 1257 217 1220.5 Q177 1184 113 1184 Z " />
<glyph glyph-name="Alphatonos" unicode="&#x386;" horiz-adv-x="1496" d="M1482 0 L1130 0 L1028 319 L518 319 L417 0 L67 0 L589 1434 L972 1434 L1482 0 Z M954 567 L800 1049 Q783 1103 776 1178 L768 1178 Q763 1115 743 1053 L587 567 L954 567 Z M386 1434 L179 1094 L10 1094 L105 1434 L386 1434 Z " />
<glyph glyph-name="Epsilontonos" unicode="&#x388;" horiz-adv-x="1341" d="M1275 0 L415 0 L415 1434 L1242 1434 L1242 1171 L738 1171 L738 852 L1207 852 L1207 590 L738 590 L738 262 L1275 262 L1275 0 Z M327 1434 L120 1094 L-49 1094 L46 1434 L327 1434 Z " />
<glyph glyph-name="Etatonos" unicode="&#x389;" horiz-adv-x="1821" d="M1655 0 L1331 0 L1331 584 L737 584 L737 0 L414 0 L414 1434 L737 1434 L737 862 L1331 862 L1331 1434 L1655 1434 L1655 0 Z M326 1434 L119 1094 L-50 1094 L45 1434 L326 1434 Z " />
<glyph glyph-name="Iotatonos" unicode="&#x38a;" horiz-adv-x="981" d="M940 1434 L940 1184 L820 1184 L820 250 L940 250 L940 0 L377 0 L377 250 L497 250 L497 1184 L377 1184 L377 1434 L940 1434 Z M331 1434 L124 1094 L-45 1094 L50 1434 L331 1434 Z " />
<glyph glyph-name="Omicrontonos" unicode="&#x38c;" horiz-adv-x="1732" d="M948 -25 Q640 -25 446 175.5 Q252 376 252 698 Q252 1038 449 1248 Q646 1458 971 1458 Q1278 1458 1467.5 1257 Q1657 1056 1657 727 Q1657 389 1460.5 182 Q1264 -25 948 -25 Z M962 1180 Q792 1180 692 1052.5 Q592 925 592 715 Q592 502 692 378 Q792 254 954 254 Q1121 254 1219 374.5 Q1317 495 1317 709 Q1317 932 1222 1056 Q1127 1180 962 1180 Z M338 1434 L131 1094 L-38 1094 L57 1434 L338 1434 Z " />
<glyph glyph-name="Upsilontonos" unicode="&#x38e;" horiz-adv-x="1597" d="M1597 1434 L1130 510 L1130 0 L807 0 L807 504 L352 1434 L721 1434 L952 899 Q958 884 985 782 L989 782 Q1002 854 1020 895 L1255 1434 L1597 1434 Z M304 1434 L97 1094 L-72 1094 L23 1434 L304 1434 Z " />
<glyph glyph-name="Omegatonos" unicode="&#x38f;" horiz-adv-x="1769" d="M1338 262 L1684 262 L1684 0 L1084 0 L1084 260 Q1346 486 1346 786 Q1346 965 1244.5 1072.5 Q1143 1180 989 1180 Q830 1180 727.5 1072.5 Q625 965 625 774 Q625 635 680.5 514 Q736 393 883 260 L883 0 L283 0 L283 262 L623 262 Q285 458 285 829 Q285 1114 480 1286 Q675 1458 983 1458 Q1300 1458 1493 1285 Q1686 1112 1686 834 Q1686 456 1338 262 Z M327 1434 L120 1094 L-49 1094 L46 1434 L327 1434 Z " />
<glyph glyph-name="iotadieresistonos" unicode="&#x390;" horiz-adv-x="672" d="M653 14 Q582 -19 468 -19 Q154 -19 154 316 L154 1024 L470 1024 L470 363 Q470 233 558 233 Q603 233 653 256 L653 14 Z M544 1581 L342 1209 L189 1209 L273 1581 L544 1581 Z M621 1184 Q559 1184 518.5 1221 Q478 1258 478 1313 Q478 1370 518 1405.5 Q558 1441 621 1441 Q684 1441 724.5 1405 Q765 1369 765 1313 Q765 1257 725 1220.5 Q685 1184 621 1184 Z M11 1184 Q-52 1184 -92.5 1221.5 Q-133 1259 -133 1313 Q-133 1370 -92 1405.5 Q-51 1441 11 1441 Q74 1441 114.5 1405 Q155 1369 155 1313 Q155 1257 115 1220.5 Q75 1184 11 1184 Z " />
<glyph glyph-name="Alpha" unicode="&#x391;" horiz-adv-x="1440" d="M1425 0 L1073 0 L971 319 L461 319 L360 0 L10 0 L532 1434 L915 1434 L1425 0 Z M897 567 L743 1049 Q726 1103 719 1178 L711 1178 Q706 1115 686 1053 L530 567 L897 567 Z " />
<glyph glyph-name="Beta" unicode="&#x392;" horiz-adv-x="1313" d="M164 0 L164 1434 L686 1434 Q926 1434 1055 1346 Q1184 1258 1184 1098 Q1184 982 1105.5 895 Q1027 808 905 774 L905 770 Q1058 751 1149.5 657 Q1241 563 1241 428 Q1241 231 1100 115.5 Q959 0 715 0 L164 0 Z M487 1196 L487 856 L629 856 Q729 856 786.5 904.5 Q844 953 844 1038 Q844 1196 608 1196 L487 1196 Z M487 616 L487 238 L662 238 Q774 238 837.5 290 Q901 342 901 432 Q901 518 838.5 567 Q776 616 664 616 L487 616 Z " />
<glyph glyph-name="Epsilon" unicode="&#x395;" horiz-adv-x="1090" d="M1024 0 L164 0 L164 1434 L991 1434 L991 1171 L487 1171 L487 852 L956 852 L956 590 L487 590 L487 262 L1024 262 L1024 0 Z " />
<glyph glyph-name="Zeta" unicode="&#x396;" horiz-adv-x="1243" d="M1196 0 L41 0 L41 186 L776 1171 L94 1171 L94 1434 L1194 1434 L1194 1253 L475 262 L1196 262 L1196 0 Z " />
<glyph glyph-name="Eta" unicode="&#x397;" horiz-adv-x="1569" d="M1405 0 L1081 0 L1081 584 L487 584 L487 0 L164 0 L164 1434 L487 1434 L487 862 L1081 862 L1081 1434 L1405 1434 L1405 0 Z " />
<glyph glyph-name="Iota" unicode="&#x399;" horiz-adv-x="649" d="M607 1434 L607 1184 L487 1184 L487 250 L607 250 L607 0 L44 0 L44 250 L164 250 L164 1184 L44 1184 L44 1434 L607 1434 Z " />
<glyph glyph-name="Kappa" unicode="&#x39a;" horiz-adv-x="1329" d="M1356 0 L948 0 L530 623 Q518 641 492 702 L487 702 L487 0 L164 0 L164 1434 L487 1434 L487 756 L492 756 Q504 784 532 836 L928 1434 L1313 1434 L813 750 L1356 0 Z " />
<glyph glyph-name="Lambda" unicode="&#x39b;" horiz-adv-x="1419" d="M1401 0 L1049 0 L736 1039 Q718 1099 709 1174 L702 1174 Q695 1116 673 1043 L358 0 L11 0 L518 1434 L911 1434 L1401 0 Z " />
<glyph glyph-name="Mu" unicode="&#x39c;" horiz-adv-x="1960" d="M1798 0 L1479 0 L1479 858 Q1479 997 1491 1165 L1483 1165 Q1458 1033 1438 975 L1102 0 L838 0 L496 965 Q482 1004 451 1165 L442 1165 Q455 953 455 793 L455 0 L164 0 L164 1434 L637 1434 L930 584 Q965 482 981 379 L987 379 Q1014 498 1044 586 L1337 1434 L1798 1434 L1798 0 Z " />
<glyph glyph-name="Nu" unicode="&#x39d;" horiz-adv-x="1618" d="M1454 0 L1128 0 L537 901 Q485 980 465 1020 L461 1020 Q469 944 469 788 L469 0 L164 0 L164 1434 L512 1434 L1081 561 Q1120 502 1153 444 L1157 444 Q1149 494 1149 641 L1149 1434 L1454 1434 L1454 0 Z " />
<glyph glyph-name="Xi" unicode="&#x39e;" horiz-adv-x="1134" d="M1050 1166 L83 1166 L83 1434 L1050 1434 L1050 1166 Z M905 589 L228 589 L228 853 L905 853 L905 589 Z M1074 0 L60 0 L60 270 L1074 270 L1074 0 Z " />
<glyph glyph-name="Omicron" unicode="&#x39f;" horiz-adv-x="1553" d="M770 -25 Q462 -25 268 175.5 Q74 376 74 698 Q74 1038 271 1248 Q468 1458 793 1458 Q1100 1458 1289.5 1257 Q1479 1056 1479 727 Q1479 389 1282.5 182 Q1086 -25 770 -25 Z M784 1180 Q614 1180 514 1052.5 Q414 925 414 715 Q414 502 514 378 Q614 254 776 254 Q943 254 1041 374.5 Q1139 495 1139 709 Q1139 932 1044 1056 Q949 1180 784 1180 Z " />
<glyph glyph-name="Pi" unicode="&#x3a0;" horiz-adv-x="1567" d="M1404 0 L1081 0 L1081 1152 L487 1152 L487 0 L164 0 L164 1434 L1404 1434 L1404 0 Z " />
<glyph glyph-name="Rho" unicode="&#x3a1;" horiz-adv-x="1258" d="M487 494 L487 0 L164 0 L164 1434 L670 1434 Q1212 1434 1212 977 Q1212 761 1056.5 627.5 Q901 494 641 494 L487 494 Z M487 1186 L487 739 L614 739 Q872 739 872 965 Q872 1186 614 1186 L487 1186 Z " />
<glyph glyph-name="Sigma" unicode="&#x3a3;" horiz-adv-x="1165" d="M1125 0 L42 0 L42 172 L504 726 L67 1249 L67 1434 L1063 1434 L1063 1169 L523 1169 L876 740 L492 260 L1125 260 L1125 0 Z " />
<glyph glyph-name="Tau" unicode="&#x3a4;" horiz-adv-x="1200" d="M1171 1171 L762 1171 L762 0 L438 0 L438 1171 L31 1171 L31 1434 L1171 1434 L1171 1171 Z " />
<glyph glyph-name="Upsilon" unicode="&#x3a5;" horiz-adv-x="1243" d="M1245 1434 L778 510 L778 0 L455 0 L455 504 L0 1434 L369 1434 L600 899 Q606 884 633 782 L637 782 Q650 854 668 895 L903 1434 L1245 1434 Z " />
<glyph glyph-name="Chi" unicode="&#x3a7;" horiz-adv-x="1342" d="M1335 0 L952 0 L705 467 Q691 493 676 563 L672 563 Q665 530 639 463 L391 0 L6 0 L463 717 L45 1434 L438 1434 L643 1004 Q667 953 686 883 L690 883 Q702 925 735 1008 L963 1434 L1323 1434 L893 723 L1335 0 Z " />
<glyph glyph-name="Psi" unicode="&#x3a8;" horiz-adv-x="1692" d="M1558 895 Q1558 655 1405.5 506 Q1253 357 1009 354 L986 354 L986 0 L706 0 L706 354 L682 354 Q448 354 290.5 501.5 Q133 649 133 894 L133 1434 L418 1434 L418 917 Q418 624 681 623 L706 623 L706 1434 L986 1434 L986 623 L1010 623 Q1273 623 1273 917 L1273 1434 L1558 1434 L1558 895 Z " />
<glyph glyph-name="Omega" unicode="&#x3a9;" horiz-adv-x="1568" d="M1137 262 L1483 262 L1483 0 L883 0 L883 260 Q1145 486 1145 786 Q1145 965 1043.5 1072.5 Q942 1180 788 1180 Q629 1180 526.5 1072.5 Q424 965 424 774 Q424 635 479.5 514 Q535 393 682 260 L682 0 L82 0 L82 262 L422 262 Q84 458 84 829 Q84 1114 279 1286 Q474 1458 782 1458 Q1099 1458 1292 1285 Q1485 1112 1485 834 Q1485 456 1137 262 Z " />
<glyph glyph-name="Iotadieresis" unicode="&#x3aa;" horiz-adv-x="649" d="M607 1434 L607 1184 L487 1184 L487 250 L607 250 L607 0 L44 0 L44 250 L164 250 L164 1184 L44 1184 L44 1434 L607 1434 Z M558 1534 Q491 1534 448 1573 Q405 1612 405 1671 Q405 1732 448 1770 Q491 1808 558 1808 Q625 1808 668.5 1769.5 Q712 1731 712 1671 Q712 1611 669 1572.5 Q626 1534 558 1534 Z M100 1534 Q32 1534 -11 1573.5 Q-54 1613 -54 1671 Q-54 1731 -10 1769.5 Q34 1808 100 1808 Q168 1808 210.5 1769.5 Q253 1731 253 1671 Q253 1610 210.5 1572 Q168 1534 100 1534 Z " />
<glyph glyph-name="Upsilondieresis" unicode="&#x3ab;" horiz-adv-x="1243" d="M1245 1434 L778 510 L778 0 L455 0 L455 504 L0 1434 L369 1434 L600 899 Q606 884 633 782 L637 782 Q650 854 668 895 L903 1434 L1245 1434 Z M847 1533 Q780 1533 737 1572 Q694 1611 694 1670 Q694 1731 737 1769 Q780 1807 847 1807 Q914 1807 957.5 1768.5 Q1001 1730 1001 1670 Q1001 1610 958 1571.5 Q915 1533 847 1533 Z M389 1533 Q321 1533 278 1572.5 Q235 1612 235 1670 Q235 1730 279 1768.5 Q323 1807 389 1807 Q457 1807 499.5 1768.5 Q542 1730 542 1670 Q542 1609 499.5 1571 Q457 1533 389 1533 Z " />
<glyph glyph-name="alphatonos" unicode="&#x3ac;" horiz-adv-x="1304" d="M863 214 Q740 -25 492 -25 Q297 -25 185 116 Q73 257 73 483 Q73 728 203 888.5 Q333 1049 552 1049 Q799 1049 886 838 L891 838 L947 1024 L1266 1024 L1045 505 Q1083 363 1123.5 300.5 Q1164 238 1217 238 Q1264 238 1296 254 L1292 12 Q1226 -15 1141 -15 Q1031 -15 966.5 38.5 Q902 92 869 214 L863 214 Z M795 526 Q737 809 592 809 Q497 809 443 721 Q389 633 389 502 Q389 377 432.5 298.5 Q476 220 559 220 Q701 220 780 479 L795 526 Z M881 1508 L674 1168 L505 1168 L600 1508 L881 1508 Z " />
<glyph glyph-name="epsilontonos" unicode="&#x3ad;" horiz-adv-x="948" d="M883 254 L883 21 Q728 -25 517 -25 Q304 -25 185.5 53 Q67 131 67 272 Q67 470 297 525 L297 530 Q215 551 159.5 614 Q104 677 104 761 Q104 898 216.5 973.5 Q329 1049 537 1049 Q704 1049 839 1008 L839 776 Q694 836 580 836 Q426 836 426 736 Q426 619 631 619 Q699 619 748 626 L748 418 Q694 424 602 424 Q388 424 388 304 Q388 188 587 188 Q730 188 883 254 Z M773 1508 L566 1168 L397 1168 L492 1508 L773 1508 Z " />
<glyph glyph-name="etatonos" unicode="&#x3ae;" horiz-adv-x="1252" d="M1122 -474 L803 -474 L803 541 Q803 779 636 779 Q553 779 501 718 Q449 657 449 561 L449 0 L133 0 L133 676 Q133 938 92 1024 L416 1024 Q447 961 447 860 L452 860 Q565 1049 782 1049 Q1122 1049 1122 627 L1122 -474 Z M892 1508 L685 1168 L516 1168 L611 1508 L892 1508 Z " />
<glyph glyph-name="iotatonos" unicode="&#x3af;" horiz-adv-x="672" d="M653 14 Q582 -19 468 -19 Q154 -19 154 316 L154 1024 L470 1024 L470 363 Q470 233 558 233 Q603 233 653 256 L653 14 Z M577 1508 L370 1168 L201 1168 L296 1508 L577 1508 Z " />
<glyph glyph-name="upsilondieresistonos" unicode="&#x3b0;" horiz-adv-x="1271" d="M156 667 Q156 743 135.5 770 Q115 797 76 797 Q52 797 21 788 L20 1016 Q85 1043 195 1043 Q339 1043 405.5 975.5 Q472 908 472 728 L472 482 Q472 227 674 227 Q769 227 815 285.5 Q861 344 861 470 Q861 755 742 1024 L1071 1024 Q1179 777 1179 474 Q1179 238 1043 106.5 Q907 -25 665 -25 Q425 -25 290.5 98 Q156 221 156 444 L156 667 Z M829 1581 L627 1209 L474 1209 L558 1581 L829 1581 Z M906 1184 Q844 1184 803.5 1221 Q763 1258 763 1313 Q763 1370 803 1405.5 Q843 1441 906 1441 Q969 1441 1009.5 1405 Q1050 1369 1050 1313 Q1050 1257 1010 1220.5 Q970 1184 906 1184 Z M296 1184 Q233 1184 192.5 1221.5 Q152 1259 152 1313 Q152 1370 193 1405.5 Q234 1441 296 1441 Q359 1441 399.5 1405 Q440 1369 440 1313 Q440 1257 400 1220.5 Q360 1184 296 1184 Z " />
<glyph glyph-name="beta" unicode="&#x3b2;" horiz-adv-x="1274" d="M449 25 L449 -474 L133 -474 L133 1048 Q133 1269 267 1402.5 Q401 1536 632 1536 Q857 1536 985.5 1430.5 Q1114 1325 1114 1148 Q1114 1028 1044.5 937 Q975 846 859 809 L859 805 Q1020 773 1112 668.5 Q1204 564 1204 412 Q1204 217 1069 96.5 Q934 -24 711 -24 Q576 -24 449 25 Z M563 670 L563 891 Q667 898 730.5 959 Q794 1020 794 1118 Q794 1200 750 1247 Q706 1294 631 1294 Q449 1294 449 1058 L449 284 Q556 218 667 218 Q882 218 882 422 Q882 658 563 670 Z " />
<glyph glyph-name="gamma" unicode="&#x3b3;" horiz-adv-x="1161" d="M689 -74 Q689 -395 685 -481 L363 -481 Q382 -276 382 20 Q349 203 218.5 517 Q88 831 -28 1024 L338 1024 Q550 608 617 277 L621 277 Q795 589 795 879 Q795 943 783 1024 L1092 1024 Q1099 958 1099 917 Q1099 694 1017.5 475 Q936 256 689 -74 Z " />
<glyph glyph-name="zeta" unicode="&#x3b6;" horiz-adv-x="953" d="M860 -309 L521 -309 Q637 -229 637 -137 Q637 -86 584 -50.5 Q531 -15 396 22 Q66 101 66 456 Q66 818 588 1283 L588 1287 L204 1287 L204 1516 L894 1516 L894 1285 Q389 815 389 495 Q389 394 443 331 Q497 268 629 230 Q807 177 878 100 Q949 23 949 -89 Q949 -212 860 -309 Z " />
<glyph glyph-name="eta" unicode="&#x3b7;" horiz-adv-x="1252" d="M1122 -474 L803 -474 L803 541 Q803 779 636 779 Q553 779 501 718 Q449 657 449 561 L449 0 L133 0 L133 676 Q133 938 92 1024 L416 1024 Q447 961 447 860 L452 860 Q565 1049 782 1049 Q1122 1049 1122 627 L1122 -474 Z " />
<glyph glyph-name="theta" unicode="&#x3b8;" horiz-adv-x="1253" d="M620 -25 Q363 -25 217.5 180.5 Q72 386 72 755 Q72 1124 221.5 1330.5 Q371 1537 636 1537 Q896 1537 1038 1333 Q1180 1129 1180 776 Q1180 399 1033 187 Q886 -25 620 -25 Z M854 878 Q832 1293 627 1293 Q423 1293 397 878 L854 878 Z M854 650 L396 650 Q417 219 629 219 Q834 219 854 650 Z " />
<glyph glyph-name="iota" unicode="&#x3b9;" horiz-adv-x="672" d="M653 14 Q582 -19 468 -19 Q154 -19 154 316 L154 1024 L470 1024 L470 363 Q470 233 558 233 Q603 233 653 256 L653 14 Z " />
<glyph glyph-name="kappa" unicode="&#x3ba;" horiz-adv-x="1168" d="M1168 0 L800 0 L539 421 L449 328 L449 0 L133 0 L133 1024 L449 1024 L449 602 L638 839 Q797 1039 944 1039 Q1036 1039 1081 1026 L1081 769 Q1045 782 992 782 Q924 782 834 687 L761 610 L1168 0 Z " />
<glyph glyph-name="lambda" unicode="&#x3bb;" horiz-adv-x="1124" d="M1103 0 L771 0 L573 708 L344 0 L5 0 L450 1016 L412 1122 Q366 1249 260 1249 Q191 1249 119 1212 L119 1483 Q199 1510 317 1510 Q463 1510 558.5 1429.5 Q654 1349 722 1144 L1103 0 Z " />
<glyph glyph-name="mu" unicode="&#x3bc;" horiz-adv-x="1284" d="M811 162 Q750 -23 578 -23 Q500 -23 455 19 L452 19 L449 -395 L133 -395 L133 1024 L449 1024 L449 435 Q449 228 619 228 Q803 228 803 482 L803 1024 L1122 1024 L1121 405 Q1121 321 1140.5 279.5 Q1160 238 1210 238 Q1231 238 1266 248 L1265 8 Q1179 -16 1081 -16 Q855 -16 815 162 L811 162 Z " />
<glyph glyph-name="nu" unicode="&#x3bd;" horiz-adv-x="1134" d="M670 0 L385 0 L-24 1024 L312 1024 L575 254 Q749 474 749 745 Q749 824 730 909 Q711 994 689 1024 L1005 1024 Q1044 954 1044 782 Q1044 425 670 0 Z " />
<glyph glyph-name="xi" unicode="&#x3be;" horiz-adv-x="978" d="M875 -309 L535 -309 Q652 -234 652 -145 Q652 -107 630 -81 Q608 -55 570.5 -40 Q533 -25 444 -6 Q64 72 64 394 Q64 536 159 649 Q254 762 415 810 Q317 850 264 908.5 Q211 967 211 1032 Q211 1189 463 1282 L463 1287 L155 1287 L155 1516 L868 1516 L868 1294 Q693 1259 594.5 1192 Q496 1125 496 1035 Q496 978 544 936 Q592 894 671 878 Q692 878 844 886 L844 634 Q792 638 701 638 Q565 638 476 583 Q387 528 387 429 Q387 277 610 230 Q806 189 885 117 Q964 45 964 -75 Q964 -202 875 -309 Z " />
<glyph glyph-name="omicron" unicode="&#x3bf;" horiz-adv-x="1252" d="M621 -25 Q365 -25 218.5 118.5 Q72 262 72 508 Q72 762 224 905.5 Q376 1049 635 1049 Q890 1049 1035 905.5 Q1180 762 1180 526 Q1180 271 1030.5 123 Q881 -25 621 -25 Z M629 807 Q517 807 455 730 Q393 653 393 512 Q393 217 631 217 Q858 217 858 520 Q858 807 629 807 Z " />
<glyph glyph-name="rho" unicode="&#x3c1;" horiz-adv-x="1266" d="M450 70 L446 70 L446 -395 L129 -395 L129 508 Q129 765 264 907 Q399 1049 656 1049 Q904 1049 1049 906.5 Q1194 764 1194 520 Q1194 272 1067.5 123.5 Q941 -25 728 -25 Q559 -25 450 70 Z M446 307 Q529 217 644 217 Q872 217 872 513 Q872 641 809.5 724 Q747 807 648 807 Q446 807 446 541 L446 307 Z " />
<glyph glyph-name="sigma1" unicode="&#x3c2;" horiz-adv-x="999" d="M866 -309 L534 -309 Q651 -228 651 -137 Q651 -38 450 5 Q270 44 170.5 156.5 Q71 269 71 438 Q71 714 239.5 881.5 Q408 1049 650 1049 Q811 1049 911 999 L911 731 Q812 807 690 807 Q564 807 479 710 Q394 613 394 466 Q394 374 446 318.5 Q498 263 640 228 Q955 151 955 -88 Q955 -216 866 -309 Z " />
<glyph glyph-name="upsilon" unicode="&#x3c5;" horiz-adv-x="1271" d="M156 667 Q156 743 135.5 770 Q115 797 76 797 Q52 797 21 788 L20 1016 Q85 1043 195 1043 Q339 1043 405.5 975.5 Q472 908 472 728 L472 482 Q472 227 674 227 Q769 227 815 285.5 Q861 344 861 470 Q861 755 742 1024 L1071 1024 Q1179 777 1179 474 Q1179 238 1043 106.5 Q907 -25 665 -25 Q425 -25 290.5 98 Q156 221 156 444 L156 667 Z " />
<glyph glyph-name="chi" unicode="&#x3c7;" horiz-adv-x="1135" d="M1135 -458 Q1086 -479 990 -479 Q876 -479 796.5 -406.5 Q717 -334 642 -157 L546 71 L307 -463 L-27 -463 L411 338 L283 634 Q211 800 138 800 Q90 800 38 774 L38 1029 Q85 1049 191 1049 Q300 1049 370.5 995.5 Q441 942 493 815 L581 598 L759 1024 L1096 1024 L721 334 L888 -42 Q942 -163 974.5 -195.5 Q1007 -228 1048 -228 Q1094 -228 1135 -206 L1135 -458 Z " />
<glyph glyph-name="psi" unicode="&#x3c8;" horiz-adv-x="1620" d="M1498 559 Q1498 290 1355.5 133 Q1213 -24 978 -24 L952 -24 L952 -481 L667 -481 L667 -24 L641 -24 Q406 -24 263.5 133 Q121 290 121 559 L121 1024 L417 1024 L417 559 Q417 398 481.5 309 Q546 220 652 220 L667 220 L667 1331 L952 1331 L952 220 L967 220 Q1073 220 1137.5 309 Q1202 398 1202 559 L1202 1024 L1498 1024 L1498 559 Z " />
<glyph glyph-name="omega" unicode="&#x3c9;" horiz-adv-x="1703" d="M852 152 L848 152 Q751 -24 533 -24 Q327 -24 209.5 112.5 Q92 249 92 483 Q92 738 221 1024 L542 1024 Q389 728 389 481 Q389 228 548 228 Q704 228 704 469 L704 750 L1000 750 L1000 469 Q1000 228 1154 228 Q1313 228 1313 481 Q1313 728 1160 1024 L1481 1024 Q1611 736 1611 482 Q1611 246 1492 111 Q1373 -24 1167 -24 Q946 -24 852 152 Z " />
<glyph glyph-name="iotadieresis" unicode="&#x3ca;" horiz-adv-x="672" d="M653 14 Q582 -19 468 -19 Q154 -19 154 316 L154 1024 L470 1024 L470 363 Q470 233 558 233 Q603 233 653 256 L653 14 Z M556 1173 Q489 1173 446 1212 Q403 1251 403 1310 Q403 1371 446 1409 Q489 1447 556 1447 Q623 1447 666.5 1408.5 Q710 1370 710 1310 Q710 1250 667 1211.5 Q624 1173 556 1173 Z M98 1173 Q30 1173 -13 1212.5 Q-56 1252 -56 1310 Q-56 1370 -12 1408.5 Q32 1447 98 1447 Q166 1447 208.5 1408.5 Q251 1370 251 1310 Q251 1249 208.5 1211 Q166 1173 98 1173 Z " />
<glyph glyph-name="upsilondieresis" unicode="&#x3cb;" horiz-adv-x="1271" d="M156 667 Q156 743 135.5 770 Q115 797 76 797 Q52 797 21 788 L20 1016 Q85 1043 195 1043 Q339 1043 405.5 975.5 Q472 908 472 728 L472 482 Q472 227 674 227 Q769 227 815 285.5 Q861 344 861 470 Q861 755 742 1024 L1071 1024 Q1179 777 1179 474 Q1179 238 1043 106.5 Q907 -25 665 -25 Q425 -25 290.5 98 Q156 221 156 444 L156 667 Z M837 1173 Q770 1173 727 1212 Q684 1251 684 1310 Q684 1371 727 1409 Q770 1447 837 1447 Q904 1447 947.5 1408.5 Q991 1370 991 1310 Q991 1250 948 1211.5 Q905 1173 837 1173 Z M379 1173 Q311 1173 268 1212.5 Q225 1252 225 1310 Q225 1370 269 1408.5 Q313 1447 379 1447 Q447 1447 489.5 1408.5 Q532 1370 532 1310 Q532 1249 489.5 1211 Q447 1173 379 1173 Z " />
<glyph glyph-name="omicrontonos" unicode="&#x3cc;" horiz-adv-x="1252" d="M621 -25 Q365 -25 218.5 118.5 Q72 262 72 508 Q72 762 224 905.5 Q376 1049 635 1049 Q890 1049 1035 905.5 Q1180 762 1180 526 Q1180 271 1030.5 123 Q881 -25 621 -25 Z M629 807 Q517 807 455 730 Q393 653 393 512 Q393 217 631 217 Q858 217 858 520 Q858 807 629 807 Z M871 1508 L664 1168 L495 1168 L590 1508 L871 1508 Z " />
<glyph glyph-name="upsilontonos" unicode="&#x3cd;" horiz-adv-x="1271" d="M156 667 Q156 743 135.5 770 Q115 797 76 797 Q52 797 21 788 L20 1016 Q85 1043 195 1043 Q339 1043 405.5 975.5 Q472 908 472 728 L472 482 Q472 227 674 227 Q769 227 815 285.5 Q861 344 861 470 Q861 755 742 1024 L1071 1024 Q1179 777 1179 474 Q1179 238 1043 106.5 Q907 -25 665 -25 Q425 -25 290.5 98 Q156 221 156 444 L156 667 Z M849 1508 L642 1168 L473 1168 L568 1508 L849 1508 Z " />
<glyph glyph-name="omegatonos" unicode="&#x3ce;" horiz-adv-x="1703" d="M852 152 L848 152 Q751 -24 533 -24 Q327 -24 209.5 112.5 Q92 249 92 483 Q92 738 221 1024 L542 1024 Q389 728 389 481 Q389 228 548 228 Q704 228 704 469 L704 750 L1000 750 L1000 469 Q1000 228 1154 228 Q1313 228 1313 481 Q1313 728 1160 1024 L1481 1024 Q1611 736 1611 482 Q1611 246 1492 111 Q1373 -24 1167 -24 Q946 -24 852 152 Z M1089 1508 L882 1168 L713 1168 L808 1508 L1089 1508 Z " />
<glyph glyph-name="uni0401" unicode="&#x401;" horiz-adv-x="1090" d="M1024 0 L164 0 L164 1434 L991 1434 L991 1171 L487 1171 L487 852 L956 852 L956 590 L487 590 L487 262 L1024 262 L1024 0 Z M837 1534 Q770 1534 727 1573 Q684 1612 684 1671 Q684 1732 727 1770 Q770 1808 837 1808 Q904 1808 947.5 1769.5 Q991 1731 991 1671 Q991 1611 948 1572.5 Q905 1534 837 1534 Z M379 1534 Q311 1534 268 1573.5 Q225 1613 225 1671 Q225 1731 269 1769.5 Q313 1808 379 1808 Q447 1808 489.5 1769.5 Q532 1731 532 1671 Q532 1610 489.5 1572 Q447 1534 379 1534 Z " />
<glyph glyph-name="uni0402" unicode="&#x402;" horiz-adv-x="1545" d="M872 14 L872 250 Q935 221 1006 221 Q1075 221 1117 271.5 Q1159 322 1159 408 Q1159 627 911 627 L733 627 L733 0 L410 0 L410 1169 L31 1169 L31 1434 L1171 1434 L1171 1169 L733 1169 L733 864 L965 864 Q1200 864 1335 742.5 Q1470 621 1470 410 Q1470 210 1364 98 Q1258 -14 1065 -14 Q942 -14 872 14 Z " />
<glyph glyph-name="uni0403" unicode="&#x403;" horiz-adv-x="1048" d="M1018 1167 L487 1167 L487 0 L164 0 L164 1434 L1018 1434 L1018 1167 Z M924 1890 L611 1567 L383 1567 L643 1890 L924 1890 Z " />
<glyph glyph-name="uni0404" unicode="&#x404;" horiz-adv-x="1277" d="M1190 51 Q1033 -25 780 -25 Q447 -25 260.5 169 Q74 363 74 686 Q74 1043 274 1250.5 Q474 1458 815 1458 Q1033 1458 1190 1405 L1190 1108 Q1039 1194 838 1194 Q664 1194 557 1101.5 Q450 1009 426 840 L979 840 L979 584 L428 584 Q449 420 554.5 330 Q660 240 834 240 Q1033 240 1190 332 L1190 51 Z " />
<glyph glyph-name="uni0405" unicode="&#x405;" horiz-adv-x="1148" d="M98 55 L98 375 Q185 302 287 265.5 Q389 229 493 229 Q554 229 599.5 240 Q645 251 675.5 270.5 Q706 290 721 316.5 Q736 343 736 374 Q736 416 712 449 Q688 482 646.5 510 Q605 538 548 564 Q491 590 425 617 Q257 687 174.5 788 Q92 889 92 1032 Q92 1144 137 1224.5 Q182 1305 259.5 1357 Q337 1409 439 1433.5 Q541 1458 655 1458 Q767 1458 853.5 1444.5 Q940 1431 1013 1403 L1013 1104 Q977 1129 934.5 1148 Q892 1167 847 1179.5 Q802 1192 757.5 1198 Q713 1204 673 1204 Q618 1204 573 1193.5 Q528 1183 497 1164 Q466 1145 449 1118.5 Q432 1092 432 1059 Q432 1023 451 994.5 Q470 966 505 940.5 Q540 915 590 890.5 Q640 866 703 840 Q789 804 857.5 763.5 Q926 723 975 672 Q1024 621 1050 555.5 Q1076 490 1076 403 Q1076 283 1030.5 201.5 Q985 120 907 69.5 Q829 19 725.5 -3 Q622 -25 507 -25 Q389 -25 282.5 -5 Q176 15 98 55 Z " />
<glyph glyph-name="uni0407" unicode="&#x407;" horiz-adv-x="649" d="M607 1434 L607 1184 L487 1184 L487 250 L607 250 L607 0 L44 0 L44 250 L164 250 L164 1184 L44 1184 L44 1434 L607 1434 Z M559 1534 Q492 1534 449 1573 Q406 1612 406 1671 Q406 1732 449 1770 Q492 1808 559 1808 Q626 1808 669.5 1769.5 Q713 1731 713 1671 Q713 1611 670 1572.5 Q627 1534 559 1534 Z M101 1534 Q33 1534 -10 1573.5 Q-53 1613 -53 1671 Q-53 1731 -9 1769.5 Q35 1808 101 1808 Q169 1808 211.5 1769.5 Q254 1731 254 1671 Q254 1610 211.5 1572 Q169 1534 101 1534 Z " />
<glyph glyph-name="uni0409" unicode="&#x409;" horiz-adv-x="2118" d="M1008 0 L1008 1165 L721 1165 Q689 932 649 716 Q609 500 573 355.5 Q537 211 503 148 Q469 85 425 49.5 Q381 14 326 -3 Q271 -20 203 -20 Q103 -20 23 10 L23 274 Q79 246 129 246 Q157 246 179.5 258.5 Q202 271 225 307.5 Q248 344 290.5 504 Q333 664 376.5 901.5 Q420 1139 459 1434 L1331 1434 L1331 885 L1542 885 Q2060 885 2060 467 Q2060 246 1920 123 Q1780 0 1526 0 L1008 0 Z M1331 641 L1331 246 L1477 246 Q1720 246 1720 444 Q1720 641 1483 641 L1331 641 Z " />
<glyph glyph-name="uni040A" unicode="&#x40a;" horiz-adv-x="2142" d="M1034 0 L1034 606 L487 606 L487 0 L164 0 L164 1434 L487 1434 L487 881 L1034 881 L1034 1434 L1356 1434 L1356 893 L1569 893 Q2085 893 2085 471 Q2085 247 1945.5 123.5 Q1806 0 1550 0 L1034 0 Z M1356 641 L1356 248 L1503 248 Q1745 248 1745 449 Q1745 641 1509 641 L1356 641 Z " />
<glyph glyph-name="uni040B" unicode="&#x40b;" horiz-adv-x="1637" d="M1542 0 L1221 0 L1221 360 Q1221 588 979 588 L762 588 L762 0 L438 0 L438 1169 L31 1169 L31 1434 L1171 1434 L1171 1169 L762 1169 L762 860 L1036 860 Q1284 860 1413 738 Q1542 616 1542 385 L1542 0 Z " />
<glyph glyph-name="uni040C" unicode="&#x40c;" horiz-adv-x="1329" d="M1356 0 L948 0 L530 623 Q518 641 492 702 L487 702 L487 0 L164 0 L164 1434 L487 1434 L487 756 L492 756 Q504 784 532 836 L928 1434 L1313 1434 L813 750 L1356 0 Z M1047 1890 L734 1567 L506 1567 L766 1890 L1047 1890 Z " />
<glyph glyph-name="uni040E" unicode="&#x40e;" horiz-adv-x="1259" d="M1268 1434 L819 451 Q693 175 581 75 Q469 -25 297 -25 Q183 -25 111 8 L111 303 Q193 250 281 250 Q402 250 494 446 L23 1434 L391 1434 L629 860 Q650 808 662 743 L664 743 Q675 797 698 856 L928 1434 L1268 1434 Z M1083 1913 Q1065 1754 946 1660 Q827 1566 651 1566 Q472 1566 353 1660 Q234 1754 225 1913 L455 1913 Q460 1836 518 1786.5 Q576 1737 655 1737 Q733 1737 790 1787 Q847 1837 853 1913 L1083 1913 Z " />
<glyph glyph-name="uni040F" unicode="&#x40f;" horiz-adv-x="1566" d="M1405 0 L923 0 L923 -391 L639 -391 L639 0 L164 0 L164 1434 L487 1434 L487 276 L1081 276 L1081 1434 L1405 1434 L1405 0 Z " />
<glyph glyph-name="uni0410" unicode="&#x410;" horiz-adv-x="1440" d="M1425 0 L1073 0 L971 319 L461 319 L360 0 L10 0 L532 1434 L915 1434 L1425 0 Z M897 567 L743 1049 Q726 1103 719 1178 L711 1178 Q706 1115 686 1053 L530 567 L897 567 Z " />
<glyph glyph-name="uni0411" unicode="&#x411;" horiz-adv-x="1315" d="M164 0 L164 1434 L1087 1434 L1087 1169 L487 1169 L487 856 L764 856 Q994 856 1119.5 749.5 Q1245 643 1245 455 Q1245 239 1111.5 119.5 Q978 0 733 0 L164 0 Z M487 621 L487 236 L676 236 Q903 236 903 434 Q903 621 686 621 L487 621 Z " />
<glyph glyph-name="uni0412" unicode="&#x412;" horiz-adv-x="1313" d="M164 0 L164 1434 L686 1434 Q926 1434 1055 1346 Q1184 1258 1184 1098 Q1184 982 1105.5 895 Q1027 808 905 774 L905 770 Q1058 751 1149.5 657 Q1241 563 1241 428 Q1241 231 1100 115.5 Q959 0 715 0 L164 0 Z M487 1196 L487 856 L629 856 Q729 856 786.5 904.5 Q844 953 844 1038 Q844 1196 608 1196 L487 1196 Z M487 616 L487 238 L662 238 Q774 238 837.5 290 Q901 342 901 432 Q901 518 838.5 567 Q776 616 664 616 L487 616 Z " />
<glyph glyph-name="uni0413" unicode="&#x413;" horiz-adv-x="1048" d="M1018 1167 L487 1167 L487 0 L164 0 L164 1434 L1018 1434 L1018 1167 Z " />
<glyph glyph-name="uni0414" unicode="&#x414;" horiz-adv-x="1587" d="M1513 -391 L1229 -391 L1229 0 L319 0 L319 -391 L39 -391 L39 264 L172 264 Q450 767 479 1434 L1309 1434 L1309 264 L1513 264 L1513 -391 Z M985 264 L985 1165 L741 1165 Q730 966 665 717 Q600 468 504 264 L985 264 Z " />
<glyph glyph-name="uni0415" unicode="&#x415;" horiz-adv-x="1090" d="M1024 0 L164 0 L164 1434 L991 1434 L991 1171 L487 1171 L487 852 L956 852 L956 590 L487 590 L487 262 L1024 262 L1024 0 Z " />
<glyph glyph-name="uni0416" unicode="&#x416;" horiz-adv-x="2033" d="M2042 0 L1640 0 L1217 618 Q1200 642 1178 690 L1174 690 L1174 0 L858 0 L858 690 L854 690 Q844 667 815 618 L391 0 L-10 0 L537 748 L31 1434 L416 1434 L815 834 Q840 796 854 768 L858 768 L858 1434 L1174 1434 L1174 768 L1178 768 Q1192 797 1217 834 L1616 1434 L2001 1434 L1495 748 L2042 0 Z " />
<glyph glyph-name="uni0417" unicode="&#x417;" horiz-adv-x="1144" d="M72 53 L72 336 Q243 221 461 221 Q731 221 731 416 Q731 614 434 614 L250 614 L250 856 L426 856 Q690 856 690 1042 Q690 1212 465 1212 Q304 1212 121 1110 L121 1374 Q305 1458 528 1458 Q763 1458 892.5 1360.5 Q1022 1263 1022 1096 Q1022 965 948.5 873.5 Q875 782 739 750 L739 745 Q892 725 978.5 634.5 Q1065 544 1065 410 Q1065 203 915 89 Q765 -25 483 -25 Q215 -25 72 53 Z " />
<glyph glyph-name="uni0418" unicode="&#x418;" horiz-adv-x="1619" d="M1454 0 L1149 0 L1149 788 Q1149 924 1159 1020 L1153 1020 Q1132 979 1081 901 L489 0 L164 0 L164 1434 L469 1434 L469 641 Q469 494 461 444 L465 444 Q470 456 539 561 L1108 1434 L1454 1434 L1454 0 Z " />
<glyph glyph-name="uni0419" unicode="&#x419;" horiz-adv-x="1619" d="M1454 0 L1149 0 L1149 788 Q1149 924 1159 1020 L1153 1020 Q1132 979 1081 901 L489 0 L164 0 L164 1434 L469 1434 L469 641 Q469 494 461 444 L465 444 Q470 456 539 561 L1108 1434 L1454 1434 L1454 0 Z M1251 1913 Q1233 1754 1114 1660 Q995 1566 819 1566 Q640 1566 521 1660 Q402 1754 393 1913 L623 1913 Q628 1836 686 1786.5 Q744 1737 823 1737 Q901 1737 958 1787 Q1015 1837 1021 1913 L1251 1913 Z " />
<glyph glyph-name="uni041A" unicode="&#x41a;" horiz-adv-x="1329" d="M1356 0 L948 0 L530 623 Q518 641 492 702 L487 702 L487 0 L164 0 L164 1434 L487 1434 L487 756 L492 756 Q504 784 532 836 L928 1434 L1313 1434 L813 750 L1356 0 Z " />
<glyph glyph-name="uni041B" unicode="&#x41b;" horiz-adv-x="1495" d="M1331 0 L1008 0 L1008 1165 L721 1165 Q605 341 504 160.5 Q403 -20 197 -20 Q110 -20 23 8 L23 266 Q81 246 123 246 Q164 246 195.5 272 Q227 298 265 410 Q303 522 356.5 796.5 Q410 1071 459 1434 L1331 1434 L1331 0 Z " />
<glyph glyph-name="uni041C" unicode="&#x41c;" horiz-adv-x="1960" d="M1798 0 L1479 0 L1479 858 Q1479 997 1491 1165 L1483 1165 Q1458 1033 1438 975 L1102 0 L838 0 L496 965 Q482 1004 451 1165 L442 1165 Q455 953 455 793 L455 0 L164 0 L164 1434 L637 1434 L930 584 Q965 482 981 379 L987 379 Q1014 498 1044 586 L1337 1434 L1798 1434 L1798 0 Z " />
<glyph glyph-name="uni041D" unicode="&#x41d;" horiz-adv-x="1569" d="M1405 0 L1081 0 L1081 584 L487 584 L487 0 L164 0 L164 1434 L487 1434 L487 862 L1081 862 L1081 1434 L1405 1434 L1405 0 Z " />
<glyph glyph-name="uni041E" unicode="&#x41e;" horiz-adv-x="1553" d="M770 -25 Q462 -25 268 175.5 Q74 376 74 698 Q74 1038 271 1248 Q468 1458 793 1458 Q1100 1458 1289.5 1257 Q1479 1056 1479 727 Q1479 389 1282.5 182 Q1086 -25 770 -25 Z M784 1180 Q614 1180 514 1052.5 Q414 925 414 715 Q414 502 514 378 Q614 254 776 254 Q943 254 1041 374.5 Q1139 495 1139 709 Q1139 932 1044 1056 Q949 1180 784 1180 Z " />
<glyph glyph-name="uni041F" unicode="&#x41f;" horiz-adv-x="1567" d="M1404 0 L1081 0 L1081 1152 L487 1152 L487 0 L164 0 L164 1434 L1404 1434 L1404 0 Z " />
<glyph glyph-name="uni0420" unicode="&#x420;" horiz-adv-x="1258" d="M487 494 L487 0 L164 0 L164 1434 L670 1434 Q1212 1434 1212 977 Q1212 761 1056.5 627.5 Q901 494 641 494 L487 494 Z M487 1186 L487 739 L614 739 Q872 739 872 965 Q872 1186 614 1186 L487 1186 Z " />
<glyph glyph-name="uni0421" unicode="&#x421;" horiz-adv-x="1278" d="M1192 51 Q1035 -25 782 -25 Q452 -25 263 169 Q74 363 74 686 Q74 1030 286.5 1244 Q499 1458 838 1458 Q1048 1458 1192 1405 L1192 1094 Q1048 1180 864 1180 Q662 1180 538 1053 Q414 926 414 709 Q414 501 531 377.5 Q648 254 846 254 Q1035 254 1192 346 L1192 51 Z " />
<glyph glyph-name="uni0422" unicode="&#x422;" horiz-adv-x="1200" d="M1171 1171 L762 1171 L762 0 L438 0 L438 1171 L31 1171 L31 1434 L1171 1434 L1171 1171 Z " />
<glyph glyph-name="uni0423" unicode="&#x423;" horiz-adv-x="1259" d="M1268 1434 L819 451 Q693 175 581 75 Q469 -25 297 -25 Q183 -25 111 8 L111 303 Q193 250 281 250 Q402 250 494 446 L23 1434 L391 1434 L629 860 Q650 808 662 743 L664 743 Q675 797 698 856 L928 1434 L1268 1434 Z " />
<glyph glyph-name="uni0424" unicode="&#x424;" horiz-adv-x="1718" d="M1016 156 L1016 -8 L702 -8 L702 156 L668 156 Q393 156 231.5 318.5 Q70 481 70 739 Q70 991 228.5 1144.5 Q387 1298 664 1298 L702 1298 L702 1462 L1016 1462 L1016 1298 L1053 1298 Q1332 1298 1490.5 1145 Q1649 992 1649 739 Q1649 481 1487 318.5 Q1325 156 1049 156 L1016 156 Z M1016 1057 L1016 401 L1030 401 Q1164 401 1240.5 491.5 Q1317 582 1317 731 Q1317 880 1240.5 968.5 Q1164 1057 1032 1057 L1016 1057 Z M702 401 L702 1057 L684 1057 Q554 1057 477.5 968 Q401 879 401 731 Q401 581 476.5 491 Q552 401 686 401 L702 401 Z " />
<glyph glyph-name="uni0425" unicode="&#x425;" horiz-adv-x="1342" d="M1335 0 L952 0 L705 467 Q691 493 676 563 L672 563 Q665 530 639 463 L391 0 L6 0 L463 717 L45 1434 L438 1434 L643 1004 Q667 953 686 883 L690 883 Q702 925 735 1008 L963 1434 L1323 1434 L893 723 L1335 0 Z " />
<glyph glyph-name="uni0426" unicode="&#x426;" horiz-adv-x="1682" d="M1610 -391 L1326 -391 L1326 0 L164 0 L164 1434 L487 1434 L487 276 L1081 276 L1081 1434 L1405 1434 L1405 276 L1610 276 L1610 -391 Z " />
<glyph glyph-name="uni0427" unicode="&#x427;" horiz-adv-x="1487" d="M1315 0 L991 0 L991 569 Q790 459 584 459 Q139 459 139 887 L139 1434 L461 1434 L461 915 Q461 729 666 729 Q828 729 991 827 L991 1434 L1315 1434 L1315 0 Z " />
<glyph glyph-name="uni0428" unicode="&#x428;" horiz-adv-x="2071" d="M1907 0 L164 0 L164 1434 L487 1434 L487 276 L874 276 L874 1434 L1196 1434 L1196 276 L1583 276 L1583 1434 L1907 1434 L1907 0 Z " />
<glyph glyph-name="uni0429" unicode="&#x429;" horiz-adv-x="2184" d="M2111 -391 L1847 -391 L1847 0 L164 0 L164 1434 L487 1434 L487 276 L874 276 L874 1434 L1196 1434 L1196 276 L1583 276 L1583 1434 L1907 1434 L1907 276 L2111 276 L2111 -391 Z " />
<glyph glyph-name="uni042A" unicode="&#x42a;" horiz-adv-x="1551" d="M438 0 L438 1169 L31 1169 L31 1434 L762 1434 L762 897 L973 897 Q1491 897 1491 475 Q1491 250 1351 125 Q1211 0 956 0 L438 0 Z M762 653 L762 246 L907 246 Q1151 246 1151 453 Q1151 653 913 653 L762 653 Z " />
<glyph glyph-name="uni042B" unicode="&#x42b;" horiz-adv-x="1840" d="M1675 0 L1354 0 L1354 1434 L1675 1434 L1675 0 Z M164 0 L164 1434 L487 1434 L487 897 L698 897 Q1217 897 1217 475 Q1217 250 1077 125 Q937 0 682 0 L164 0 Z M487 653 L487 246 L633 246 Q877 246 877 453 Q877 653 639 653 L487 653 Z " />
<glyph glyph-name="uni042C" unicode="&#x42c;" horiz-adv-x="1276" d="M164 0 L164 1434 L487 1434 L487 897 L698 897 Q1217 897 1217 475 Q1217 250 1077 125 Q937 0 682 0 L164 0 Z M487 653 L487 246 L633 246 Q877 246 877 453 Q877 653 639 653 L487 653 Z " />
<glyph glyph-name="uni042D" unicode="&#x42d;" horiz-adv-x="1277" d="M88 51 L88 332 Q245 240 442 240 Q803 240 850 584 L297 584 L297 840 L852 840 Q790 1194 444 1194 Q247 1194 88 1110 L88 1401 Q255 1458 477 1458 Q818 1458 1010 1261.5 Q1202 1065 1202 713 Q1202 380 1011 177.5 Q820 -25 489 -25 Q246 -25 88 51 Z " />
<glyph glyph-name="uni042E" unicode="&#x42e;" horiz-adv-x="2179" d="M764 594 L487 594 L487 0 L164 0 L164 1434 L487 1434 L487 864 L770 864 Q815 1139 995 1298.5 Q1175 1458 1444 1458 Q1742 1458 1923.5 1258 Q2105 1058 2105 727 Q2105 385 1917 180 Q1729 -25 1421 -25 Q1155 -25 975.5 143 Q796 311 764 594 Z M1440 1180 Q1277 1180 1187.5 1058 Q1098 936 1098 719 Q1098 493 1183.5 373.5 Q1269 254 1427 254 Q1586 254 1674.5 372 Q1763 490 1763 709 Q1763 934 1678.5 1057 Q1594 1180 1440 1180 Z " />
<glyph glyph-name="uni042F" unicode="&#x42f;" horiz-adv-x="1311" d="M1147 0 L823 0 L823 557 L737 557 Q617 557 541 375 L385 0 L12 0 L213 428 Q298 609 436 653 L436 657 Q119 732 119 1024 Q119 1217 259 1325.5 Q399 1434 653 1434 L1147 1434 L1147 0 Z M823 799 L823 1188 L688 1188 Q461 1188 461 999 Q461 909 522.5 854 Q584 799 688 799 L823 799 Z " />
<glyph glyph-name="uni0430" unicode="&#x430;" horiz-adv-x="1102" d="M985 0 L686 0 L686 147 L682 147 Q579 -25 377 -25 Q228 -25 142.5 59.5 Q57 144 57 285 Q57 583 410 629 L688 666 Q688 834 506 834 Q323 834 158 725 L158 963 Q224 997 338.5 1023 Q453 1049 547 1049 Q985 1049 985 612 L985 0 Z M688 416 L688 485 L502 461 Q348 441 348 322 Q348 268 385.5 233.5 Q423 199 487 199 Q576 199 632 260.5 Q688 322 688 416 Z " />
<glyph glyph-name="uni0431" unicode="&#x431;" horiz-adv-x="1247" d="M1040 1540 L1040 1290 Q992 1253 912 1241 Q687 1206 643 1196 Q552 1175 510.5 1139 Q469 1103 442.5 1034 Q416 965 406 866 L410 866 Q524 997 715 997 Q933 997 1054.5 867.5 Q1176 738 1176 510 Q1176 266 1027 120.5 Q878 -25 623 -25 Q356 -25 217 145 Q78 315 78 637 Q78 791 101 915.5 Q124 1040 170 1135.5 Q216 1231 283.5 1295 Q351 1359 421.5 1388.5 Q492 1418 560 1432.5 Q628 1447 901 1489 Q991 1512 1040 1540 Z M401 645 Q399 621 399 551 Q399 398 460.5 307.5 Q522 217 631 217 Q730 217 792 293 Q854 369 854 496 Q854 625 791.5 697.5 Q729 770 623 770 Q554 770 492.5 734 Q431 698 401 645 Z " />
<glyph glyph-name="uni0432" unicode="&#x432;" horiz-adv-x="1187" d="M133 0 L133 1024 L705 1024 Q1071 1024 1071 774 Q1071 685 1013.5 623.5 Q956 562 864 543 Q977 529 1041.5 464.5 Q1106 400 1106 307 Q1106 168 1007 84 Q908 0 735 0 L133 0 Z M449 831 L449 616 L604 616 Q748 616 748 729 Q748 831 612 831 L449 831 Z M449 430 L449 197 L631 197 Q782 197 782 319 Q782 430 627 430 L449 430 Z " />
<glyph glyph-name="uni0433" unicode="&#x433;" horiz-adv-x="840" d="M801 784 L449 784 L449 0 L133 0 L133 1024 L801 1024 L801 784 Z " />
<glyph glyph-name="uni0434" unicode="&#x434;" horiz-adv-x="1269" d="M1219 -373 L961 -373 L961 0 L272 0 L272 -373 L18 -373 L18 223 L109 223 Q326 563 338 1024 L1057 1024 L1057 223 L1219 223 L1219 -373 Z M741 223 L741 803 L584 803 Q561 479 416 223 L741 223 Z " />
<glyph glyph-name="uni0435" unicode="&#x435;" horiz-adv-x="1108" d="M1053 422 L385 422 Q401 199 666 199 Q835 199 963 279 L963 51 Q821 -25 594 -25 Q346 -25 209 112.5 Q72 250 72 496 Q72 751 220 900 Q368 1049 584 1049 Q808 1049 930.5 916 Q1053 783 1053 555 L1053 422 Z M760 616 Q760 836 582 836 Q506 836 450.5 773 Q395 710 383 616 L760 616 Z " />
<glyph glyph-name="uni0436" unicode="&#x436;" horiz-adv-x="1736" d="M1731 0 L1358 0 L1028 512 L1024 512 L1024 0 L713 0 L713 512 L709 512 L381 0 L8 0 L397 537 L18 1024 L389 1024 L709 539 L713 539 L713 1024 L1024 1024 L1024 539 L1028 539 L1348 1024 L1718 1024 L1339 537 L1731 0 Z " />
<glyph glyph-name="uni0437" unicode="&#x437;" horiz-adv-x="984" d="M80 27 L80 256 Q228 188 375 188 Q588 188 588 305 Q588 426 356 426 L213 426 L213 621 L358 621 Q557 621 557 737 Q557 840 379 840 Q245 840 111 780 L111 997 Q291 1049 436 1049 Q883 1049 883 772 Q883 580 645 535 L645 530 Q771 519 842 454 Q913 389 913 289 Q913 -20 412 -20 Q221 -20 80 27 Z " />
<glyph glyph-name="uni0438" unicode="&#x438;" horiz-adv-x="1285" d="M1151 0 L864 0 L864 670 Q825 591 780 524 L432 0 L133 0 L133 1024 L422 1024 L422 375 Q454 442 492 500 L840 1024 L1151 1024 L1151 0 Z " />
<glyph glyph-name="uni0439" unicode="&#x439;" horiz-adv-x="1285" d="M1151 0 L864 0 L864 670 Q825 591 780 524 L432 0 L133 0 L133 1024 L422 1024 L422 375 Q454 442 492 500 L840 1024 L1151 1024 L1151 0 Z M1077 1513 Q1059 1354 940 1260 Q821 1166 645 1166 Q466 1166 347 1260 Q228 1354 219 1513 L449 1513 Q454 1436 512 1386.5 Q570 1337 649 1337 Q727 1337 784 1387 Q841 1437 847 1513 L1077 1513 Z " />
<glyph glyph-name="uni043A" unicode="&#x43a;" horiz-adv-x="1145" d="M1155 0 L776 0 L453 500 L449 500 L449 0 L133 0 L133 1024 L449 1024 L449 543 L453 543 L768 1024 L1143 1024 L766 537 L1155 0 Z " />
<glyph glyph-name="uni043B" unicode="&#x43b;" horiz-adv-x="1235" d="M1102 0 L784 0 L784 801 L610 801 Q555 336 445.5 162 Q336 -12 139 -12 Q71 -12 16 8 L16 223 Q51 207 90 207 Q184 207 246 382 Q308 557 358 1024 L1102 1024 L1102 0 Z " />
<glyph glyph-name="uni043C" unicode="&#x43c;" horiz-adv-x="1591" d="M1458 0 L1163 0 L1163 797 Q1153 741 1110 608 L911 0 L633 0 L434 608 Q385 758 381 795 L381 0 L133 0 L133 1024 L549 1024 L743 440 Q788 305 793 258 Q800 303 844 438 L1036 1024 L1458 1024 L1458 0 Z " />
<glyph glyph-name="uni043D" unicode="&#x43d;" horiz-adv-x="1253" d="M1120 0 L803 0 L803 428 L449 428 L449 0 L133 0 L133 1024 L449 1024 L449 645 L803 645 L803 1024 L1120 1024 L1120 0 Z " />
<glyph glyph-name="uni043E" unicode="&#x43e;" horiz-adv-x="1252" d="M621 -25 Q365 -25 218.5 118.5 Q72 262 72 508 Q72 762 224 905.5 Q376 1049 635 1049 Q890 1049 1035 905.5 Q1180 762 1180 526 Q1180 271 1030.5 123 Q881 -25 621 -25 Z M629 807 Q517 807 455 730 Q393 653 393 512 Q393 217 631 217 Q858 217 858 520 Q858 807 629 807 Z " />
<glyph glyph-name="uni043F" unicode="&#x43f;" horiz-adv-x="1253" d="M1120 0 L803 0 L803 801 L449 801 L449 0 L133 0 L133 1024 L1120 1024 L1120 0 Z " />
<glyph glyph-name="uni0440" unicode="&#x440;" horiz-adv-x="1270" d="M453 119 L449 119 L449 -471 L133 -471 L133 1024 L449 1024 L449 870 L453 870 Q570 1049 782 1049 Q981 1049 1089.5 912.5 Q1198 776 1198 541 Q1198 285 1071.5 130 Q945 -25 735 -25 Q550 -25 453 119 Z M444 539 L444 457 Q444 351 500 284 Q556 217 647 217 Q755 217 814.5 300.5 Q874 384 874 537 Q874 807 664 807 Q567 807 505.5 733.5 Q444 660 444 539 Z " />
<glyph glyph-name="uni0441" unicode="&#x441;" horiz-adv-x="983" d="M909 37 Q802 -25 600 -25 Q364 -25 218 118 Q72 261 72 487 Q72 748 228.5 898.5 Q385 1049 647 1049 Q828 1049 909 1001 L909 733 Q810 807 688 807 Q552 807 472.5 727.5 Q393 648 393 508 Q393 372 469 294.5 Q545 217 678 217 Q796 217 909 291 L909 37 Z " />
<glyph glyph-name="uni0442" unicode="&#x442;" horiz-adv-x="931" d="M899 784 L625 784 L625 0 L307 0 L307 784 L31 784 L31 1024 L899 1024 L899 784 Z " />
<glyph glyph-name="uni0443" unicode="&#x443;" horiz-adv-x="1102" d="M1108 1024 L692 -82 Q542 -481 240 -481 Q125 -481 51 -455 L51 -203 Q114 -240 188 -240 Q310 -240 358 -125 L412 2 L-4 1024 L346 1024 L537 401 Q555 343 565 264 L569 264 Q578 322 602 399 L795 1024 L1108 1024 Z " />
<glyph glyph-name="uni0444" unicode="&#x444;" horiz-adv-x="1606" d="M950 -12 L950 -475 L655 -475 L655 -12 L606 -12 Q356 -12 212 130 Q68 272 68 508 Q68 751 211.5 893.5 Q355 1036 608 1036 L655 1036 L655 1466 L950 1466 L950 1036 L995 1036 Q1250 1036 1394 894 Q1538 752 1538 508 Q1538 271 1394 129.5 Q1250 -12 999 -12 L950 -12 Z M950 813 L950 211 L963 211 Q1082 211 1149.5 291.5 Q1217 372 1217 508 Q1217 651 1150.5 732 Q1084 813 967 813 L950 813 Z M655 211 L655 813 L639 813 Q522 813 455.5 732 Q389 651 389 508 Q389 372 456.5 291.5 Q524 211 643 211 L655 211 Z " />
<glyph glyph-name="uni0445" unicode="&#x445;" horiz-adv-x="1131" d="M1122 1024 L784 528 L1120 0 L756 0 L608 276 Q590 309 565 369 L561 369 Q546 327 520 279 L371 0 L8 0 L354 510 L29 1024 L395 1024 L541 737 Q570 680 582 641 L586 641 Q602 688 629 739 L778 1024 L1122 1024 Z " />
<glyph glyph-name="uni0446" unicode="&#x446;" horiz-adv-x="1334" d="M1284 -373 L1027 -373 L1027 0 L133 0 L133 1024 L449 1024 L449 223 L803 223 L803 1024 L1120 1024 L1120 223 L1284 223 L1284 -373 Z " />
<glyph glyph-name="uni0447" unicode="&#x447;" horiz-adv-x="1230" d="M1096 0 L780 0 L780 354 Q619 264 469 264 Q121 264 121 616 L121 1024 L424 1024 L424 666 Q424 508 565 508 Q665 508 780 569 L780 1024 L1096 1024 L1096 0 Z " />
<glyph glyph-name="uni0448" unicode="&#x448;" horiz-adv-x="1765" d="M1632 0 L133 0 L133 1024 L449 1024 L449 223 L723 223 L723 1024 L1040 1024 L1040 223 L1315 223 L1315 1024 L1632 1024 L1632 0 Z " />
<glyph glyph-name="uni0449" unicode="&#x449;" horiz-adv-x="1846" d="M1796 -373 L1539 -373 L1539 0 L133 0 L133 1024 L449 1024 L449 223 L723 223 L723 1024 L1040 1024 L1040 223 L1315 223 L1315 1024 L1632 1024 L1632 223 L1796 223 L1796 -373 Z " />
<glyph glyph-name="uni044A" unicode="&#x44a;" horiz-adv-x="1328" d="M315 0 L315 784 L27 784 L27 1024 L633 1024 L633 666 L901 666 Q1076 666 1173 581.5 Q1270 497 1270 344 Q1270 188 1173.5 94 Q1077 0 907 0 L315 0 Z M633 467 L633 201 L786 201 Q946 201 946 338 Q946 467 791 467 L633 467 Z " />
<glyph glyph-name="uni044B" unicode="&#x44b;" horiz-adv-x="1669" d="M1536 0 L1219 0 L1219 1024 L1536 1024 L1536 0 Z M133 0 L133 1024 L449 1024 L449 666 L719 666 Q893 666 990 581.5 Q1087 497 1087 344 Q1087 187 991 93.5 Q895 0 725 0 L133 0 Z M449 467 L449 201 L602 201 Q762 201 762 338 Q762 467 606 467 L449 467 Z " />
<glyph glyph-name="uni044C" unicode="&#x44c;" horiz-adv-x="1145" d="M133 0 L133 1024 L449 1024 L449 666 L719 666 Q893 666 990 581.5 Q1087 497 1087 344 Q1087 187 991 93.5 Q895 0 725 0 L133 0 Z M449 467 L449 201 L602 201 Q762 201 762 338 Q762 467 606 467 L449 467 Z " />
<glyph glyph-name="uni044D" unicode="&#x44d;" horiz-adv-x="981" d="M76 43 L76 268 Q185 195 322 195 Q560 195 592 414 L211 414 L211 600 L594 600 Q563 827 315 827 Q182 827 84 758 L84 993 Q206 1049 362 1049 Q629 1049 769 909.5 Q909 770 909 506 Q909 270 765 122.5 Q621 -25 375 -25 Q210 -25 76 43 Z " />
<glyph glyph-name="uni044E" unicode="&#x44e;" horiz-adv-x="1810" d="M659 418 L449 418 L449 0 L133 0 L133 1024 L449 1024 L449 643 L668 643 Q706 836 847.5 942.5 Q989 1049 1202 1049 Q1455 1049 1596 907 Q1737 765 1737 526 Q1737 269 1591.5 122 Q1446 -25 1188 -25 Q960 -25 822.5 90.5 Q685 206 659 418 Z M1194 807 Q977 807 977 516 Q977 217 1198 217 Q1415 217 1415 520 Q1415 807 1194 807 Z " />
<glyph glyph-name="uni044F" unicode="&#x44f;" horiz-adv-x="1164" d="M1032 0 L719 0 L719 383 L647 383 Q564 383 496 236 L387 0 L35 0 L184 291 Q252 423 375 459 Q119 503 119 725 Q119 1024 557 1024 L1032 1024 L1032 0 Z M719 571 L719 823 L600 823 Q436 823 436 698 Q436 571 600 571 L719 571 Z " />
<glyph glyph-name="uni0451" unicode="&#x451;" horiz-adv-x="1108" d="M1053 422 L385 422 Q401 199 666 199 Q835 199 963 279 L963 51 Q821 -25 594 -25 Q346 -25 209 112.5 Q72 250 72 496 Q72 751 220 900 Q368 1049 584 1049 Q808 1049 930.5 916 Q1053 783 1053 555 L1053 422 Z M760 616 Q760 836 582 836 Q506 836 450.5 773 Q395 710 383 616 L760 616 Z M825 1186 Q758 1186 715 1225 Q672 1264 672 1323 Q672 1384 715 1422 Q758 1460 825 1460 Q892 1460 935.5 1421.5 Q979 1383 979 1323 Q979 1263 936 1224.5 Q893 1186 825 1186 Z M367 1186 Q299 1186 256 1225.5 Q213 1265 213 1323 Q213 1383 257 1421.5 Q301 1460 367 1460 Q435 1460 477.5 1421.5 Q520 1383 520 1323 Q520 1262 477.5 1224 Q435 1186 367 1186 Z " />
<glyph glyph-name="uni0452" unicode="&#x452;" horiz-adv-x="1267" d="M535 -420 L535 -176 Q591 -213 645 -213 Q758 -213 806 -90.5 Q854 32 854 354 Q854 778 674 778 Q597 778 541 715.5 Q485 653 485 559 L485 0 L170 0 L170 1179 L27 1179 L27 1338 L170 1338 L170 1516 L485 1516 L485 1338 L815 1338 L815 1179 L485 1179 L485 850 L489 850 Q594 1026 795 1026 Q1171 1026 1171 362 Q1171 -91 1051 -270 Q931 -449 666 -449 Q600 -449 535 -420 Z " />
<glyph glyph-name="uni0453" unicode="&#x453;" horiz-adv-x="840" d="M801 784 L449 784 L449 0 L133 0 L133 1024 L801 1024 L801 784 Z M790 1509 L477 1186 L249 1186 L509 1509 L790 1509 Z " />
<glyph glyph-name="uni0454" unicode="&#x454;" horiz-adv-x="983" d="M903 43 Q770 -25 602 -25 Q360 -25 216 117.5 Q72 260 72 494 Q72 758 222 903.5 Q372 1049 635 1049 Q782 1049 897 999 L897 758 Q804 827 666 827 Q422 827 387 600 L770 600 L770 414 L389 414 Q421 195 657 195 Q791 195 903 270 L903 43 Z " />
</font>
</svg>
