<?xml version="1.0" encoding="UTF-8"?>
<svg xmlns="http://www.w3.org/2000/svg" xmlns:xlink="http://www.w3.org/1999/xlink" version="1.2" >
<font id="Museo Sans Cyrl 300">
<font-face  font-family="Museo Sans Cyrl" units-per-em="1000" ascent="750" descent="-250" font-style="normal" font-weight="300" font-stretch="normal" cap-height="700" x-height="500" underline-position="-75" underline-thickness="50" />
<missing-glyph  horiz-adv-x="510" d="M5 0 L505 0 L505 700 L5 700 L5 0 Z M255 395 L85 650 L425 650 L255 395 Z M285 350 L455 605 L455 95 L285 350 Z M55 95 L55 605 L225 350 L55 95 Z M85 50 L255 305 L425 50 L85 50 Z " />
<glyph glyph-name="NULL" d="" />
<glyph glyph-name="CR" unicode="&#xd;" horiz-adv-x="250" d="" />
<glyph glyph-name="space" unicode="&#x20;" horiz-adv-x="250" d="" />
<glyph glyph-name="exclam" unicode="&#x21;" horiz-adv-x="262" d="M98 184 L162 184 L165 703 L95 703 L98 184 Z M92 0 L170 0 L170 79 L92 79 L92 0 Z " />
<glyph glyph-name="quotedbl" unicode="&#x22;" horiz-adv-x="338" d="M200 545 L259 545 L259 713 L200 713 L200 545 Z M79 545 L138 545 L138 713 L79 713 L79 545 Z " />
<glyph glyph-name="numbersign" unicode="&#x23;" horiz-adv-x="726" d="M155 0 L216 0 L250 195 L423 195 L389 0 L450 0 L484 195 L624 195 L634 251 L494 251 L529 447 L669 447 L678 503 L538 503 L573 703 L512 703 L477 503 L304 503 L339 703 L278 703 L243 503 L102 503 L92 447 L234 447 L199 251 L57 251 L47 195 L189 195 L155 0 Z M260 251 L294 447 L468 447 L433 251 L260 251 Z " />
<glyph glyph-name="dollar" unicode="&#x24;" horiz-adv-x="568" d="M66 78 C116 25 191 -5 261 -10 L261 -103 L317 -103 L317 -10 C433 1 502 81 502 178 C502 405 148 366 148 528 C148 590 206 649 296 649 C352 649 412 624 450 589 L484 647 C437 690 378 710 317 713 L317 807 L261 807 L261 712 C150 698 77 618 77 526 C77 312 431 347 431 176 C431 100 368 54 291 54 C223 54 151 86 107 131 L66 78 Z " />
<glyph glyph-name="percent" unicode="&#x25;" horiz-adv-x="728" d="M195 437 C272 437 336 499 336 576 C336 652 272 715 195 715 C117 715 55 652 55 576 C55 499 117 437 195 437 L195 437 Z M61 0 L133 0 L668 703 L596 703 L61 0 Z M195 493 C149 493 114 530 114 576 C114 621 149 659 195 659 C241 659 276 621 276 576 C276 530 241 493 195 493 L195 493 Z M393 126 C393 50 455 -12 533 -12 C611 -12 674 50 674 126 C674 203 611 266 533 266 C455 266 393 203 393 126 L393 126 Z M452 127 C452 172 487 210 533 210 C579 210 615 172 615 127 C615 81 579 44 533 44 C487 44 452 81 452 127 L452 127 Z " />
<glyph glyph-name="ampersand" unicode="&#x26;" horiz-adv-x="665" d="M60 194 C60 77 157 -12 297 -12 C439 -12 530 73 530 241 L530 344 L626 344 L626 406 L530 406 L530 505 L461 505 L461 406 L313 406 C182 406 162 486 162 533 C162 609 224 654 304 654 C322 654 346 651 362 647 L381 704 C355 711 328 715 301 715 C173 715 91 645 91 537 C91 453 134 404 188 381 L188 379 C106 354 60 275 60 194 L60 194 Z M132 198 C132 286 192 344 313 344 L461 344 L461 243 C461 108 396 53 297 53 C194 53 132 118 132 198 L132 198 Z " />
<glyph glyph-name="quotesingle" unicode="&#x27;" horiz-adv-x="217" d="M79 545 L138 545 L138 713 L79 713 L79 545 Z " />
<glyph glyph-name="parenleft" unicode="&#x28;" horiz-adv-x="278" d="M170 -95 L234 -95 C158 40 121 187 121 336 C121 477 161 608 234 730 L170 730 C99 613 58 481 58 337 C58 179 101 25 170 -95 L170 -95 Z " />
<glyph glyph-name="parenright" unicode="&#x29;" horiz-adv-x="278" d="M44 -95 L107 -95 C177 25 220 179 220 337 C220 481 179 613 107 730 L44 730 C116 608 157 477 157 336 C157 187 119 40 44 -95 L44 -95 Z " />
<glyph glyph-name="asterisk" unicode="&#x2a;" horiz-adv-x="496" d="M161 337 L247 463 L249 463 L334 336 L387 375 L293 495 L293 497 L441 540 L420 601 L275 549 L281 703 L214 703 L220 549 L75 602 L56 539 L203 497 L203 495 L108 375 L161 337 Z " />
<glyph glyph-name="plus" unicode="&#x2b;" horiz-adv-x="568" d="M23 255 L254 255 L254 0 L315 0 L315 255 L545 255 L545 313 L315 313 L315 568 L254 568 L254 313 L23 313 L23 255 Z " />
<glyph glyph-name="comma" unicode="&#x2c;" horiz-adv-x="262" d="M44 -97 L103 -97 L179 82 L101 82 L44 -97 Z " />
<glyph glyph-name="hyphen" unicode="&#x2d;" horiz-adv-x="432" d="M74 253 L358 253 L358 315 L74 315 L74 253 Z " />
<glyph glyph-name="period" unicode="&#x2e;" horiz-adv-x="230" d="M74 0 L156 0 L156 83 L74 83 L74 0 Z " />
<glyph glyph-name="slash" unicode="&#x2f;" horiz-adv-x="402" d="M42 -42 L106 -42 L360 742 L296 742 L42 -42 Z " />
<glyph glyph-name="zero" unicode="0" horiz-adv-x="617" d="M308 -12 C491 -12 551 149 551 352 C551 554 491 715 308 715 C126 715 66 554 66 352 C66 149 126 -12 308 -12 L308 -12 Z M308 53 C175 53 138 183 138 352 C138 519 175 649 308 649 C442 649 479 519 479 352 C479 183 442 53 308 53 L308 53 Z " />
<glyph glyph-name="one" unicode="1" horiz-adv-x="472" d="M57 0 L438 0 L438 62 L283 62 L283 703 L219 703 L60 545 L104 501 L179 575 C207 603 214 617 214 617 L216 617 C216 617 215 598 215 578 L215 62 L57 62 L57 0 Z " />
<glyph glyph-name="two" unicode="2" horiz-adv-x="564" d="M62 0 L502 0 L502 62 L134 62 C136 249 491 282 491 518 C491 628 410 715 277 715 C182 715 103 659 64 588 L115 553 C149 608 207 649 273 649 C361 649 419 591 419 514 C419 324 58 292 58 45 C58 31 60 16 62 0 L62 0 Z " />
<glyph glyph-name="three" unicode="3" horiz-adv-x="562" d="M49 84 C107 24 190 -12 272 -12 C405 -12 503 88 503 208 C503 360 372 411 284 415 L493 657 L493 703 L82 703 L82 641 L346 641 C383 641 403 644 403 644 L403 642 C403 642 385 625 366 603 L190 397 L207 356 L256 356 C347 356 432 305 432 206 C432 116 356 55 272 55 C199 55 131 94 92 137 L49 84 Z " />
<glyph glyph-name="four" unicode="4" horiz-adv-x="601" d="M38 195 L389 195 L389 0 L458 0 L458 195 L558 195 L558 255 L458 255 L458 703 L383 703 L38 240 L38 195 Z M121 255 L121 257 L356 563 C374 588 391 617 391 617 L393 617 C393 617 389 580 389 550 L389 255 L121 255 Z " />
<glyph glyph-name="five" unicode="5" horiz-adv-x="555" d="M54 87 C101 24 179 -12 260 -12 C397 -12 504 89 504 219 C504 345 403 448 262 448 C221 448 175 433 156 421 L154 421 C154 421 157 436 160 461 L181 641 L460 641 L460 703 L120 703 L82 362 L126 346 C161 370 211 385 254 385 C355 385 432 315 432 219 C432 123 354 55 257 55 C178 55 126 97 99 136 L54 87 Z " />
<glyph glyph-name="six" unicode="6" horiz-adv-x="589" d="M62 317 C62 129 163 -12 316 -12 C439 -12 536 78 536 220 C536 357 446 450 318 450 C245 450 174 418 140 368 L138 368 C150 504 225 649 370 649 C406 649 448 640 474 625 L500 686 C460 706 415 715 370 715 C153 715 62 494 62 317 L62 317 Z M320 53 C199 53 137 188 137 260 C137 336 221 388 307 388 C403 388 466 323 466 222 C466 125 408 53 320 53 L320 53 Z " />
<glyph glyph-name="seven" unicode="7" horiz-adv-x="527" d="M103 0 L175 0 L501 655 L501 703 L44 703 L44 641 L373 641 C408 641 425 643 425 643 L425 641 C425 641 406 614 387 576 L103 0 Z " />
<glyph glyph-name="eight" unicode="8" horiz-adv-x="595" d="M59 198 C59 70 171 -12 297 -12 C434 -12 530 81 530 191 C530 264 487 308 430 341 C451 361 521 438 521 533 C521 641 436 715 306 715 C164 715 93 629 93 535 C93 470 129 427 178 395 C151 378 59 312 59 198 L59 198 Z M373 369 C276 414 163 443 163 536 C163 599 215 651 305 651 C390 651 451 605 451 528 C451 448 390 386 373 369 L373 369 Z M131 203 C131 294 210 348 234 363 C336 314 459 286 459 190 C459 109 379 52 296 52 C213 52 131 112 131 203 L131 203 Z " />
<glyph glyph-name="nine" unicode="9" horiz-adv-x="589" d="M89 17 C130 -3 175 -12 218 -12 C436 -12 527 209 527 385 C527 575 426 715 274 715 C151 715 53 626 53 481 C53 347 143 253 272 253 C344 253 415 285 450 335 L452 335 C439 198 365 53 218 53 C178 53 138 66 116 78 L89 17 Z M282 315 C186 315 123 381 123 481 C123 578 179 649 275 649 C380 649 453 529 453 435 C453 378 377 315 282 315 L282 315 Z " />
<glyph glyph-name="colon" unicode="&#x3a;" horiz-adv-x="227" d="M74 423 L152 423 L152 503 L74 503 L74 423 Z M74 0 L152 0 L152 80 L74 80 L74 0 Z " />
<glyph glyph-name="semicolon" unicode="&#x3b;" horiz-adv-x="281" d="M116 423 L193 423 L193 503 L116 503 L116 423 Z M66 -97 L124 -97 L190 82 L115 82 L66 -97 Z " />
<glyph glyph-name="less" unicode="&#x3c;" horiz-adv-x="568" d="M45 259 L497 57 L497 124 L129 283 L129 285 L497 444 L497 511 L45 309 L45 259 Z " />
<glyph glyph-name="equal" unicode="&#x3d;" horiz-adv-x="568" d="M51 342 L517 342 L517 400 L51 400 L51 342 Z M51 168 L517 168 L517 226 L51 226 L51 168 Z " />
<glyph glyph-name="greater" unicode="&#x3e;" horiz-adv-x="568" d="M71 57 L522 259 L522 309 L71 511 L71 444 L438 285 L438 283 L71 124 L71 57 Z " />
<glyph glyph-name="question" unicode="&#x3f;" horiz-adv-x="450" d="M157 184 L224 184 L224 227 C224 359 403 373 403 539 C403 643 317 716 203 716 C141 716 78 691 42 659 L80 609 C113 634 158 651 200 651 C277 651 331 600 331 536 C331 403 157 388 157 229 L157 184 Z M151 0 L230 0 L230 79 L151 79 L151 0 Z " />
<glyph glyph-name="at" unicode="&#x40;" horiz-adv-x="778" d="M60 242 C60 38 217 -124 425 -124 L425 -64 C254 -64 129 72 129 242 C129 410 256 551 420 551 C538 551 590 495 592 433 L462 433 C346 433 263 344 263 241 C263 137 347 49 462 49 L731 49 L731 105 L660 105 L660 420 C660 517 597 610 415 610 C219 610 60 446 60 242 L60 242 Z M333 242 C333 317 391 380 470 380 L592 380 L592 105 L468 105 C391 105 333 166 333 242 L333 242 Z " />
<glyph glyph-name="A" unicode="A" horiz-adv-x="632" d="M21 0 L94 0 L174 224 L457 224 L538 0 L611 0 L353 703 L279 703 L21 0 Z M195 284 L288 539 C300 572 315 631 315 631 L317 631 C317 631 332 572 344 539 L436 284 L195 284 Z " />
<glyph glyph-name="B" unicode="B" horiz-adv-x="616" d="M101 0 L349 0 C467 0 560 72 560 197 C560 281 514 351 442 371 L442 373 C496 400 531 453 531 526 C531 636 451 703 341 703 L101 703 L101 0 Z M170 398 L170 641 L339 641 C414 641 460 593 460 521 C460 448 412 398 341 398 L170 398 Z M170 62 L170 338 L349 338 C431 338 488 283 488 199 C488 115 435 62 350 62 L170 62 Z " />
<glyph glyph-name="C" unicode="C" horiz-adv-x="718" d="M55 356 C55 151 197 -12 411 -12 C535 -12 621 39 680 97 L640 146 C580 87 496 53 413 53 C239 53 127 190 127 357 C127 522 239 650 410 650 C486 650 570 621 625 573 L662 624 C595 688 497 715 408 715 C202 715 55 560 55 356 L55 356 Z " />
<glyph glyph-name="D" unicode="D" horiz-adv-x="738" d="M101 0 L327 0 C539 0 680 129 680 352 C680 574 539 703 327 703 L101 703 L101 0 Z M170 62 L170 641 L320 641 C493 641 608 539 608 352 C608 163 493 62 320 62 L170 62 Z " />
<glyph glyph-name="E" unicode="E" horiz-adv-x="560" d="M101 0 L515 0 L515 62 L170 62 L170 323 L437 323 L437 385 L170 385 L170 641 L496 641 L496 703 L101 703 L101 0 Z " />
<glyph glyph-name="F" unicode="F" horiz-adv-x="506" d="M101 0 L170 0 L170 315 L428 315 L428 377 L170 377 L170 641 L470 641 L470 703 L101 703 L101 0 Z " />
<glyph glyph-name="G" unicode="G" horiz-adv-x="758" d="M55 352 C55 143 207 -12 400 -12 C493 -12 579 28 629 83 L631 83 C631 83 630 68 630 53 L630 0 L693 0 L693 336 L508 336 L508 274 L628 274 L628 155 C573 93 491 53 407 53 C246 53 127 180 127 353 C127 519 242 650 413 650 C488 650 573 621 622 580 L660 633 C591 689 498 715 410 715 C208 715 55 555 55 352 L55 352 Z " />
<glyph glyph-name="H" unicode="H" horiz-adv-x="747" d="M101 0 L170 0 L170 321 L577 321 L577 0 L647 0 L647 703 L577 703 L577 383 L170 383 L170 703 L101 703 L101 0 Z " />
<glyph glyph-name="I" unicode="I" horiz-adv-x="271" d="M101 0 L170 0 L170 703 L101 703 L101 0 Z " />
<glyph glyph-name="J" unicode="J" horiz-adv-x="520" d="M32 197 C32 46 132 -12 229 -12 C326 -12 426 45 426 197 L426 703 L185 703 L185 641 L357 641 L357 197 C357 90 293 53 228 53 C139 53 101 122 101 199 L101 225 L32 225 L32 197 Z " />
<glyph glyph-name="K" unicode="K" horiz-adv-x="591" d="M101 0 L170 0 L170 336 L288 336 L490 0 L571 0 L346 369 L346 371 L557 703 L478 703 L288 398 L170 398 L170 703 L101 703 L101 0 Z " />
<glyph glyph-name="L" unicode="L" horiz-adv-x="517" d="M101 0 L496 0 L496 62 L170 62 L170 703 L101 703 L101 0 Z " />
<glyph glyph-name="M" unicode="M" horiz-adv-x="842" d="M74 0 L143 0 L182 492 C185 530 184 592 184 592 L186 592 C186 592 208 527 224 492 L389 131 L453 131 L619 492 C635 528 656 590 656 590 L658 590 C658 590 657 530 660 492 L699 0 L768 0 L712 703 L641 703 L456 290 C440 254 422 204 422 204 L420 204 C420 204 402 254 386 290 L201 703 L130 703 L74 0 Z " />
<glyph glyph-name="N" unicode="N" horiz-adv-x="751" d="M101 0 L170 0 L170 506 C170 543 164 601 164 601 L166 601 C166 601 200 541 224 506 L583 0 L650 0 L650 703 L581 703 L581 197 C581 160 587 102 587 102 L585 102 C585 102 551 162 527 197 L168 703 L101 703 L101 0 Z " />
<glyph glyph-name="O" unicode="O" horiz-adv-x="825" d="M54 357 C54 150 207 -12 412 -12 C618 -12 770 150 770 357 C770 558 618 715 412 715 C207 715 54 558 54 357 L54 357 Z M126 357 C126 523 248 650 412 650 C577 650 698 523 698 357 C698 185 577 53 412 53 C248 53 126 185 126 357 L126 357 Z " />
<glyph glyph-name="P" unicode="P" horiz-adv-x="597" d="M101 0 L170 0 L170 276 L344 276 C469 276 561 360 561 491 C561 621 469 703 344 703 L101 703 L101 0 Z M170 338 L170 641 L336 641 C429 641 490 586 490 491 C490 395 429 338 335 338 L170 338 Z " />
<glyph glyph-name="Q" unicode="Q" horiz-adv-x="825" d="M55 356 C55 151 206 -12 412 -12 C501 -12 580 18 643 71 L728 -17 L770 27 L683 114 C739 177 771 263 771 356 C771 558 620 715 412 715 C208 715 55 558 55 356 L55 356 Z M127 356 C127 524 251 650 412 650 C575 650 699 524 699 356 C699 283 675 213 634 162 L549 249 L507 206 L594 118 C545 76 479 53 412 53 C251 53 127 186 127 356 L127 356 Z " />
<glyph glyph-name="R" unicode="R" horiz-adv-x="617" d="M101 0 L170 0 L170 296 L347 296 L505 0 L585 0 L432 283 C421 302 413 311 413 311 L413 313 C493 335 547 412 547 507 C547 592 506 653 443 683 C414 696 381 703 314 703 L101 703 L101 0 Z M170 358 L170 641 L310 641 C360 641 382 637 402 628 C449 607 476 561 476 505 C476 417 422 358 337 358 L170 358 Z " />
<glyph glyph-name="S" unicode="S" horiz-adv-x="534" d="M47 78 C105 20 187 -12 268 -12 C404 -12 483 73 483 181 C483 407 133 362 133 531 C133 605 200 649 280 649 C336 649 397 625 435 589 L469 647 C421 692 349 715 283 715 C159 715 62 642 62 527 C62 309 412 351 412 174 C412 101 353 54 270 54 C200 54 132 88 88 131 L47 78 Z " />
<glyph glyph-name="T" unicode="T" horiz-adv-x="607" d="M269 0 L338 0 L338 641 L591 641 L591 703 L17 703 L17 641 L269 641 L269 0 Z " />
<glyph glyph-name="U" unicode="U" horiz-adv-x="723" d="M93 245 C93 89 203 -12 362 -12 C521 -12 631 89 631 245 L631 703 L561 703 L561 248 C561 125 482 53 361 53 C241 53 162 125 162 246 L162 703 L93 703 L93 245 Z " />
<glyph glyph-name="V" unicode="V" horiz-adv-x="632" d="M279 0 L353 0 L613 703 L539 703 L344 169 C331 133 317 79 317 79 L315 79 C315 79 300 133 288 169 L93 703 L19 703 L279 0 Z " />
<glyph glyph-name="W" unicode="W" horiz-adv-x="927" d="M217 0 L300 0 L436 495 C449 540 461 600 461 600 L464 600 C464 600 476 540 489 495 L625 0 L707 0 L895 703 L823 703 L680 157 C671 121 665 82 665 82 L663 82 C663 82 656 120 646 157 L496 703 L430 703 L280 157 C269 120 262 82 262 82 L260 82 C260 82 253 121 244 157 L108 703 L35 703 L217 0 Z " />
<glyph glyph-name="X" unicode="X" horiz-adv-x="576" d="M19 0 L98 0 L242 242 C264 279 285 321 285 321 L287 321 C287 321 310 280 331 243 L478 0 L557 0 L332 367 L538 703 L457 703 L333 495 C311 459 290 414 290 414 L288 414 C288 414 263 459 242 495 L119 703 L38 703 L243 367 L19 0 Z " />
<glyph glyph-name="Y" unicode="Y" horiz-adv-x="579" d="M255 0 L324 0 L324 302 L561 703 L482 703 L333 448 C312 411 290 364 290 364 L288 364 C288 364 266 411 245 448 L96 703 L17 703 L255 302 L255 0 Z " />
<glyph glyph-name="Z" unicode="Z" horiz-adv-x="579" d="M35 0 L537 0 L537 62 L173 62 C138 62 121 60 121 60 L121 62 C121 62 145 88 170 126 L534 654 L534 703 L55 703 L55 641 L396 641 C431 641 448 643 448 643 L448 641 C448 641 424 615 399 577 L35 49 L35 0 Z " />
<glyph glyph-name="bracketleft" unicode="&#x5b;" horiz-adv-x="282" d="M92 -95 L228 -95 L228 -39 L155 -39 L155 674 L228 674 L228 730 L92 730 L92 -95 Z " />
<glyph glyph-name="backslash" unicode="&#x5c;" horiz-adv-x="402" d="M296 -42 L360 -42 L106 742 L42 742 L296 -42 Z " />
<glyph glyph-name="bracketright" unicode="&#x5d;" horiz-adv-x="282" d="M54 -39 L54 -95 L190 -95 L190 730 L54 730 L54 674 L127 674 L127 -39 L54 -39 Z " />
<glyph glyph-name="asciicircum" unicode="&#x5e;" horiz-adv-x="606" d="M73 250 L139 250 L295 620 L451 250 L517 250 L318 703 L272 703 L73 250 Z " />
<glyph glyph-name="underscore" unicode="&#x5f;" horiz-adv-x="589" d="M37 0 L37 -58 L553 -58 L553 0 L37 0 Z " />
<glyph glyph-name="grave" unicode="&#x60;" horiz-adv-x="504" d="M264 752 L326 752 L257 871 L178 871 L264 752 Z " />
<glyph glyph-name="a" unicode="a" horiz-adv-x="517" d="M37 135 C37 38 122 -12 207 -12 C288 -12 351 40 377 101 L379 101 C379 101 376 84 376 59 L376 0 L441 0 L441 322 C441 448 374 515 253 515 C186 515 115 492 75 458 L106 406 C147 436 198 454 249 454 C320 454 373 421 373 324 L373 310 L343 310 C247 310 37 300 37 135 L37 135 Z M106 141 C106 253 266 256 344 256 L373 256 L373 233 C373 145 316 45 219 45 C144 45 106 94 106 141 L106 141 Z " />
<glyph glyph-name="b" unicode="b" horiz-adv-x="589" d="M81 0 L146 0 L146 50 C146 74 143 91 143 91 L145 91 C177 28 241 -12 312 -12 C445 -12 539 92 539 252 C539 407 456 515 320 515 C243 515 178 475 148 413 L146 413 C146 413 149 431 149 455 L149 703 L81 703 L81 0 Z M147 250 C147 393 226 453 310 453 C404 453 470 374 470 251 C470 123 396 49 307 49 C200 49 147 149 147 250 L147 250 Z " />
<glyph glyph-name="c" unicode="c" horiz-adv-x="542" d="M47 251 C47 95 162 -12 311 -12 C388 -12 463 19 507 68 L476 119 C436 75 373 50 315 50 C203 50 117 133 117 251 C117 371 203 454 313 454 C369 454 425 428 460 392 L495 443 C450 492 377 515 311 515 C163 515 47 406 47 251 L47 251 Z " />
<glyph glyph-name="d" unicode="d" horiz-adv-x="589" d="M49 252 C49 96 134 -12 268 -12 C355 -12 415 36 443 93 L445 93 C445 93 442 79 442 57 L442 0 L508 0 L508 703 L440 703 L440 454 C440 433 443 416 443 416 L441 416 C410 477 346 515 276 515 C143 515 49 411 49 252 L49 252 Z M119 252 C119 380 193 453 282 453 C389 453 441 354 441 253 C441 109 363 49 279 49 C185 49 119 128 119 252 L119 252 Z " />
<glyph glyph-name="e" unicode="e" horiz-adv-x="553" d="M47 251 C47 96 161 -12 311 -12 C377 -12 450 15 497 58 L466 110 C425 73 368 50 313 50 C209 50 121 121 118 249 L504 249 C505 260 506 272 506 283 C506 408 435 515 296 515 C160 515 47 416 47 251 L47 251 Z M121 303 C137 404 210 459 294 459 C369 459 433 408 437 303 L121 303 Z " />
<glyph glyph-name="f" unicode="f" horiz-adv-x="322" d="M100 0 L169 0 L169 442 L297 442 L297 499 L169 499 L169 521 C169 633 242 647 281 647 C292 647 301 646 305 645 L305 705 C295 707 286 708 274 708 C218 708 100 687 100 522 L100 499 L37 499 L37 442 L100 442 L100 0 Z " />
<glyph glyph-name="g" unicode="g" horiz-adv-x="582" d="M120 -114 L95 -169 C144 -195 202 -210 259 -210 C383 -210 501 -148 501 12 L501 503 L435 503 L435 444 C435 433 437 427 437 427 L435 427 C404 489 335 515 268 515 C133 515 50 412 50 261 C50 110 139 3 274 3 C352 3 404 39 434 96 L436 96 C436 96 432 78 432 59 L432 9 C432 -103 355 -148 257 -148 C210 -148 159 -134 120 -114 L120 -114 Z M119 262 C119 382 177 454 275 454 C364 454 434 408 434 261 C434 113 364 64 284 64 C185 64 119 141 119 262 L119 262 Z " />
<glyph glyph-name="h" unicode="h" horiz-adv-x="594" d="M81 0 L149 0 L149 243 C149 364 234 451 340 451 C437 451 450 381 450 302 L450 0 L518 0 L518 320 C518 444 474 515 349 515 C235 515 167 433 148 386 L146 386 C146 386 149 404 149 427 L149 703 L81 703 L81 0 Z " />
<glyph glyph-name="i" unicode="i" horiz-adv-x="230" d="M78 618 L152 618 L152 703 L78 703 L78 618 Z M81 0 L149 0 L149 503 L81 503 L81 0 Z " />
<glyph glyph-name="j" unicode="j" horiz-adv-x="230" d="M78 618 L152 618 L152 703 L78 703 L78 618 Z M81 -16 C81 -131 5 -145 -33 -145 C-43 -145 -51 -144 -55 -143 L-55 -203 C-45 -205 -36 -206 -26 -206 C31 -206 149 -186 149 -18 L149 503 L81 503 L81 -16 Z " />
<glyph glyph-name="k" unicode="k" horiz-adv-x="496" d="M81 0 L149 0 L149 251 L231 251 L398 0 L480 0 L287 282 L287 284 L462 503 L380 503 L230 311 L149 311 L149 703 L81 703 L81 0 Z " />
<glyph glyph-name="l" unicode="l" horiz-adv-x="246" d="M81 119 C81 9 156 -4 197 -4 C208 -4 216 -3 222 -2 L222 59 C216 58 210 58 206 58 C180 58 149 68 149 134 L149 703 L81 703 L81 119 Z " />
<glyph glyph-name="m" unicode="m" horiz-adv-x="916" d="M81 0 L149 0 L149 243 C149 345 219 452 321 452 C416 452 427 379 427 303 L427 0 L495 0 L495 243 C495 347 563 452 664 452 C755 452 772 386 772 303 L772 0 L840 0 L840 320 C840 444 795 515 673 515 C589 515 516 453 488 389 L486 389 C472 471 424 515 331 515 C252 515 171 452 146 384 L144 384 C144 384 148 402 148 424 L148 503 L81 503 L81 0 Z " />
<glyph glyph-name="n" unicode="n" horiz-adv-x="594" d="M81 0 L149 0 L149 246 C149 363 233 451 340 451 C437 451 450 381 450 302 L450 0 L518 0 L518 320 C518 444 474 515 349 515 C231 515 165 430 146 384 L144 384 C144 384 148 402 148 424 L148 503 L81 503 L81 0 Z " />
<glyph glyph-name="o" unicode="o" horiz-adv-x="624" d="M47 254 C47 102 165 -12 312 -12 C459 -12 578 102 578 254 C578 403 459 515 312 515 C165 515 47 403 47 254 L47 254 Z M117 254 C117 368 204 454 312 454 C420 454 508 368 508 254 C508 136 420 50 312 50 C204 50 117 136 117 254 L117 254 Z " />
<glyph glyph-name="p" unicode="p" horiz-adv-x="589" d="M81 -200 L149 -200 L149 44 C149 70 146 88 146 88 L148 88 C181 25 243 -12 314 -12 C445 -12 539 92 539 252 C539 407 456 515 320 515 C242 515 176 476 145 411 L143 411 C143 411 146 428 146 450 L146 503 L81 503 L81 -200 Z M147 250 C147 393 226 453 310 453 C404 453 470 374 470 251 C470 123 396 49 307 49 C204 49 147 149 147 250 L147 250 Z " />
<glyph glyph-name="q" unicode="q" horiz-adv-x="589" d="M49 252 C49 96 134 -12 268 -12 C361 -12 416 41 441 90 L443 90 C443 90 440 72 440 46 L440 -200 L508 -200 L508 503 L442 503 L442 452 C442 430 445 414 445 414 L443 414 C411 477 347 515 276 515 C143 515 49 411 49 252 L49 252 Z M119 252 C119 380 193 453 282 453 C389 453 441 354 441 253 C441 109 363 49 279 49 C185 49 119 128 119 252 L119 252 Z " />
<glyph glyph-name="r" unicode="r" horiz-adv-x="357" d="M81 0 L149 0 L149 213 C149 313 196 440 309 440 C319 440 331 439 334 438 L334 505 C326 507 316 508 307 508 C229 508 171 446 146 370 L144 370 C144 370 148 388 148 410 L148 503 L81 503 L81 0 Z " />
<glyph glyph-name="s" unicode="s" horiz-adv-x="438" d="M37 61 C85 11 157 -12 224 -12 C323 -12 394 47 394 130 C394 296 125 262 125 377 C125 432 173 455 226 455 C271 455 323 438 352 409 L384 460 C343 499 284 515 229 515 C137 515 58 467 58 375 C58 210 326 241 326 129 C326 76 281 48 225 48 C170 48 111 70 73 109 L37 61 Z " />
<glyph glyph-name="t" unicode="t" horiz-adv-x="325" d="M99 183 C99 15 217 -4 275 -4 C288 -4 298 -3 304 -2 L304 59 C295 57 288 57 281 57 C242 57 167 73 167 190 L167 442 L294 442 L294 499 L167 499 L167 642 L100 642 L100 499 L33 499 L33 442 L99 442 L99 183 Z " />
<glyph glyph-name="u" unicode="u" horiz-adv-x="588" d="M75 183 C75 52 125 -12 244 -12 C355 -12 423 70 442 119 L444 119 C444 119 440 101 440 79 L440 0 L507 0 L507 503 L439 503 L439 262 C439 153 368 52 253 52 C156 52 144 122 144 201 L144 503 L75 503 L75 183 Z " />
<glyph glyph-name="v" unicode="v" horiz-adv-x="511" d="M219 0 L293 0 L485 503 L413 503 L274 134 C265 109 256 73 256 73 L254 73 C254 73 246 109 237 134 L98 503 L25 503 L219 0 Z " />
<glyph glyph-name="w" unicode="w" horiz-adv-x="825" d="M199 0 L274 0 L396 358 C404 383 412 413 412 413 L414 413 C414 413 421 383 429 358 L552 0 L627 0 L796 503 L724 503 L603 129 C594 103 588 75 588 75 L586 75 C586 75 578 104 570 129 L447 501 L379 501 L256 129 C248 104 240 75 240 75 L238 75 C238 75 231 104 223 129 L102 503 L29 503 L199 0 Z " />
<glyph glyph-name="x" unicode="x" horiz-adv-x="479" d="M20 0 L99 0 L222 189 C231 203 239 217 239 217 L241 217 C241 217 249 202 258 189 L380 0 L460 0 L283 262 L445 503 L366 503 L258 334 C250 321 241 305 241 305 L239 305 C239 305 230 321 222 334 L114 503 L34 503 L196 262 L20 0 Z " />
<glyph glyph-name="y" unicode="y" horiz-adv-x="526" d="M45 -126 L19 -180 C19 -180 56 -210 108 -210 C175 -210 226 -169 252 -105 L500 503 L427 503 L282 136 C272 111 265 83 265 83 L263 83 C263 83 254 111 244 136 L97 503 L22 503 L231 5 L201 -67 C181 -113 149 -149 105 -149 C73 -149 45 -126 45 -126 L45 -126 Z " />
<glyph glyph-name="z" unicode="z" horiz-adv-x="498" d="M37 0 L460 0 L460 60 L178 60 C145 60 128 58 128 58 L128 60 C128 60 150 81 169 106 L450 458 L450 503 L49 503 L49 443 L308 443 C341 443 358 445 358 445 L358 443 C358 443 337 421 318 397 L37 44 L37 0 Z " />
<glyph glyph-name="braceleft" unicode="&#x7b;" horiz-adv-x="340" d="M129 83 C129 -83 238 -97 278 -97 C287 -97 293 -96 293 -96 L293 -40 L284 -40 C259 -40 192 -31 192 85 L192 195 C192 261 159 304 112 322 L112 324 C163 346 192 395 192 451 L192 549 C192 665 259 674 284 674 L293 674 L293 730 L278 730 C238 730 129 716 129 551 L129 469 C129 407 98 365 44 354 L44 292 C101 281 129 236 129 178 L129 83 Z " />
<glyph glyph-name="bar" unicode="&#x7c;" horiz-adv-x="244" d="M90 -157 L153 -157 L153 788 L90 788 L90 -157 Z " />
<glyph glyph-name="braceright" unicode="&#x7d;" horiz-adv-x="340" d="M47 -40 L47 -96 C47 -96 52 -97 62 -97 C102 -97 211 -83 211 83 L211 178 C211 235 240 283 296 292 L296 354 C239 364 211 411 211 469 L211 551 C211 716 102 730 62 730 L47 730 L47 674 L56 674 C80 674 148 665 148 549 L148 451 C148 388 184 341 228 324 L228 322 C176 303 148 255 148 195 L148 85 C148 -31 80 -40 56 -40 L47 -40 Z " />
<glyph glyph-name="asciitilde" unicode="&#x7e;" horiz-adv-x="602" d="M74 209 L133 209 C133 246 144 309 203 309 C289 309 293 205 403 205 C478 205 529 251 529 360 L471 360 C471 323 460 260 400 260 C315 260 310 364 200 364 C125 364 74 319 74 209 L74 209 Z " />
<glyph glyph-name="uni00A0" unicode="&#xa0;" horiz-adv-x="250" d="" />
<glyph glyph-name="exclamdown" unicode="&#xa1;" horiz-adv-x="240" d="M151 318 L87 318 L84 -201 L154 -201 L151 318 Z M157 502 L79 502 L79 423 L157 423 L157 502 Z " />
<glyph glyph-name="cent" unicode="&#xa2;" horiz-adv-x="568" d="M267 -13 L323 -13 L323 72 C413 80 474 143 509 220 L446 244 C417 181 370 137 297 137 C181 137 127 230 127 352 C127 472 181 566 297 566 C370 566 417 522 446 459 L509 483 C473 564 410 621 323 631 L323 715 L267 715 L267 631 C130 616 57 497 57 352 C57 206 130 87 267 72 L267 -13 Z " />
<glyph glyph-name="sterling" unicode="&#xa3;" horiz-adv-x="568" d="M49 0 L521 0 L521 62 L182 62 L182 326 L373 326 L373 381 L182 381 L182 526 C182 593 231 650 319 650 C358 650 404 632 432 608 L475 658 C433 693 376 715 318 715 C198 715 112 635 112 530 L112 381 L68 381 L68 326 L112 326 L112 62 L49 62 L49 0 Z " />
<glyph glyph-name="currency" unicode="&#xa4;" horiz-adv-x="597" d="M129 0 L198 0 L198 180 L451 180 L451 235 L198 235 L198 310 L341 310 C466 310 559 383 559 505 C559 628 472 703 343 703 L129 703 L129 369 L57 369 L57 310 L129 310 L129 235 L57 235 L57 180 L129 180 L129 0 Z M198 369 L198 644 L334 644 C428 644 487 594 487 508 C487 422 428 369 334 369 L198 369 Z " />
<glyph glyph-name="yen" unicode="&#xa5;" horiz-adv-x="568" d="M86 211 L249 211 L249 0 L319 0 L319 211 L480 211 L480 262 L319 262 L319 302 L347 350 L480 350 L480 401 L375 401 L551 703 L472 703 L328 453 C306 413 285 364 285 364 L283 364 C283 364 261 413 240 453 L96 703 L17 703 L193 401 L86 401 L86 350 L221 350 L249 302 L249 262 L86 262 L86 211 Z " />
<glyph glyph-name="section" unicode="&#xa7;" horiz-adv-x="415" d="M142 85 L202 85 L136 518 C133 528 132 538 132 548 C132 616 181 655 242 655 C270 655 301 643 323 626 L358 673 C328 699 282 715 242 715 C138 715 70 646 70 554 C70 543 71 531 73 519 L142 85 Z M57 -20 C89 -47 131 -62 173 -62 C276 -62 345 6 345 99 C345 110 344 121 342 134 L274 568 L214 568 L279 139 C282 128 283 117 283 107 C283 38 234 -2 174 -2 C144 -2 111 12 92 28 L57 -20 Z " />
<glyph glyph-name="dieresis" unicode="&#xa8;" horiz-adv-x="504" d="M297 785 L359 785 L359 871 L297 871 L297 785 Z M146 785 L207 785 L207 871 L146 871 L146 785 Z " />
<glyph glyph-name="copyright" unicode="&#xa9;" horiz-adv-x="829" d="M60 352 C60 149 218 -12 413 -12 C612 -12 770 149 770 352 C770 554 612 715 413 715 C218 715 60 554 60 352 L60 352 Z M118 352 C118 525 247 661 413 661 C582 661 712 525 712 352 C712 177 582 42 413 42 C247 42 118 177 118 352 L118 352 Z M217 350 C217 245 290 146 423 146 C492 146 556 189 586 239 L540 270 C515 230 472 201 425 201 C327 201 276 274 276 351 C276 428 328 501 425 501 C473 501 517 469 540 432 L586 463 C552 519 490 556 423 556 C291 556 217 456 217 350 L217 350 Z " />
<glyph glyph-name="ordfeminine" unicode="&#xaa;" horiz-adv-x="425" d="M190 382 C234 382 269 409 284 437 L286 437 L286 388 L339 388 L339 590 C339 670 297 713 219 713 C180 713 134 700 104 676 L129 638 C153 654 184 666 214 666 C254 666 284 647 284 592 L284 588 L272 588 C217 588 80 585 80 477 C80 413 137 382 190 382 L190 382 Z M198 429 C157 429 137 454 137 481 C137 542 230 544 271 544 L284 544 L284 535 C284 486 252 429 198 429 L198 429 Z M79 264 L342 264 L342 310 L79 310 L79 264 Z " />
<glyph glyph-name="guillemotleft" unicode="&#xab;" horiz-adv-x="526" d="M230 282 L394 77 L468 77 L304 282 L468 488 L394 488 L230 282 Z M214 77 L288 77 L124 282 L288 488 L214 488 L50 282 L214 77 Z " />
<glyph glyph-name="logicalnot" unicode="&#xac;" horiz-adv-x="627" d="M81 342 L487 342 L487 158 L548 158 L548 400 L81 400 L81 342 Z " />
<glyph glyph-name="uni00AD" unicode="&#xad;" horiz-adv-x="432" d="M74 253 L358 253 L358 315 L74 315 L74 253 Z " />
<glyph glyph-name="registered" unicode="&#xae;" horiz-adv-x="829" d="M60 352 C60 149 218 -12 413 -12 C612 -12 770 149 770 352 C770 554 612 715 413 715 C218 715 60 554 60 352 L60 352 Z M118 352 C118 525 247 661 413 661 C582 661 712 525 712 352 C712 177 582 42 413 42 C247 42 118 177 118 352 L118 352 Z M294 157 L351 157 L351 315 L426 315 L503 157 L566 157 L490 304 C481 321 477 326 477 326 L477 328 C514 337 551 373 551 431 C551 501 503 547 433 547 L294 547 L294 157 Z M351 359 L351 500 L424 500 C466 500 493 475 493 431 C493 387 466 359 424 359 L351 359 Z " />
<glyph glyph-name="macron" unicode="&#xaf;" horiz-adv-x="504" d="M129 785 L375 785 L375 840 L129 840 L129 785 Z " />
<glyph glyph-name="degree" unicode="&#xb0;" horiz-adv-x="398" d="M199 436 C276 436 340 498 340 575 C340 651 276 714 199 714 C121 714 59 651 59 575 C59 498 121 436 199 436 L199 436 Z M199 492 C153 492 118 529 118 575 C118 620 153 658 199 658 C245 658 280 620 280 575 C280 529 245 492 199 492 L199 492 Z " />
<glyph glyph-name="plusminus" unicode="&#xb1;" horiz-adv-x="568" d="M23 255 L254 255 L254 0 L315 0 L315 255 L545 255 L545 313 L315 313 L315 568 L254 568 L254 313 L23 313 L23 255 Z M41 -104 L41 -162 L527 -162 L527 -104 L41 -104 Z " />
<glyph glyph-name="twosuperior" unicode="&#xb2;" horiz-adv-x="381" d="M51 423 L329 423 L329 473 L107 473 C112 587 321 594 321 742 C321 813 269 869 184 869 C132 869 82 839 58 803 L93 768 C115 794 146 817 183 817 C231 817 265 782 265 740 C265 628 48 620 48 454 C48 445 49 434 51 423 L51 423 Z " />
<glyph glyph-name="threesuperior" unicode="&#xb3;" horiz-adv-x="381" d="M181 413 C265 413 330 477 330 554 C330 642 262 677 205 683 L324 822 L324 859 L62 859 L62 808 L215 808 C234 808 252 811 252 811 L252 809 C252 809 238 796 227 784 L128 668 L142 638 L175 638 C223 638 273 608 273 554 C273 502 226 465 180 465 C131 465 91 491 73 517 L38 479 C71 434 129 413 181 413 L181 413 Z " />
<glyph glyph-name="acute" unicode="&#xb4;" horiz-adv-x="504" d="M178 752 L239 752 L326 871 L247 871 L178 752 Z " />
<glyph glyph-name="&amp;#xb5;" unicode="&#xb5;" horiz-adv-x="589" d="M145 30 L147 30 C172 -2 219 -12 256 -12 C405 -12 454 115 454 115 L456 115 C456 115 454 97 454 77 L454 0 L520 0 L520 503 L452 503 L452 262 C452 153 382 52 266 52 C170 52 157 122 157 201 L157 503 L89 503 L89 -200 L152 -200 L152 -46 C152 -21 145 30 145 30 L145 30 Z " />
<glyph glyph-name="&amp;#x3bc;" unicode="&#x3bc;" horiz-adv-x="589" d="M145 30 L147 30 C172 -2 219 -12 256 -12 C405 -12 454 115 454 115 L456 115 C456 115 454 97 454 77 L454 0 L520 0 L520 503 L452 503 L452 262 C452 153 382 52 266 52 C170 52 157 122 157 201 L157 503 L89 503 L89 -200 L152 -200 L152 -46 C152 -21 145 30 145 30 L145 30 Z " />
<glyph glyph-name="paragraph" unicode="&#xb6;" horiz-adv-x="568" d="M279 -50 L336 -50 L336 641 L517 641 L517 703 L278 703 C149 703 40 602 40 473 C40 343 150 241 279 241 L279 -50 Z M398 -50 L456 -50 L456 581 L398 581 L398 -50 Z " />
<glyph glyph-name="periodcentered" unicode="&#xb7;" horiz-adv-x="229" d="M74 247 L154 247 L154 330 L74 330 L74 247 Z " />
<glyph glyph-name="cedilla" unicode="&#xb8;" horiz-adv-x="504" d="M200 -91 C200 -91 207 -90 215 -90 C250 -90 272 -102 272 -124 C272 -151 247 -158 221 -158 C208 -158 189 -156 179 -152 L179 -200 C195 -204 212 -205 229 -205 C278 -205 325 -184 325 -126 C325 -86 296 -61 255 -55 L266 5 L266 13 L226 20 L200 -91 Z " />
<glyph glyph-name="onesuperior" unicode="&#xb9;" horiz-adv-x="381" d="M78 423 L320 423 L320 473 L228 473 L228 859 L176 859 L77 760 L112 723 L152 762 C169 778 173 786 173 786 L174 786 C174 786 173 775 173 762 L173 473 L78 473 L78 423 Z " />
<glyph glyph-name="ordmasculine" unicode="&#xba;" horiz-adv-x="486" d="M242 383 C334 383 409 455 409 550 C409 643 334 714 242 714 C150 714 75 643 75 550 C75 455 150 383 242 383 L242 383 Z M242 434 C180 434 130 483 130 550 C130 616 180 664 242 664 C304 664 354 616 354 550 C354 483 304 434 242 434 L242 434 Z M92 264 L395 264 L395 310 L92 310 L92 264 Z " />
<glyph glyph-name="guillemotright" unicode="&#xbb;" horiz-adv-x="526" d="M237 77 L311 77 L475 282 L311 488 L237 488 L401 282 L237 77 Z M58 77 L132 77 L296 282 L132 488 L58 488 L222 282 L58 77 Z " />
<glyph glyph-name="onequarter" unicode="&#xbc;" horiz-adv-x="931" d="M768 0 L823 0 L823 114 L888 114 L888 164 L823 164 L823 436 L769 436 L557 152 L557 114 L768 114 L768 0 Z M625 164 L625 166 L737 313 C754 335 770 362 770 362 L772 362 C772 362 768 327 768 300 L768 164 L625 164 Z M314 0 L649 703 L591 703 L255 0 L314 0 Z M62 268 L304 268 L304 318 L212 318 L212 704 L160 704 L61 605 L96 568 L136 607 C153 623 157 631 157 631 L158 631 C158 631 157 620 157 607 L157 318 L62 318 L62 268 Z " />
<glyph glyph-name="onehalf" unicode="&#xbd;" horiz-adv-x="920" d="M588 0 L866 0 L866 50 L644 50 C649 164 858 171 858 319 C858 390 806 446 721 446 C669 446 619 416 595 380 L630 345 C652 371 683 394 720 394 C768 394 802 359 802 317 C802 205 585 197 585 31 C585 22 586 11 588 0 L588 0 Z M314 0 L649 703 L591 703 L255 0 L314 0 Z M62 268 L304 268 L304 318 L212 318 L212 704 L160 704 L61 605 L96 568 L136 607 C153 623 157 631 157 631 L158 631 C158 631 157 620 157 607 L157 318 L62 318 L62 268 Z " />
<glyph glyph-name="threequarters" unicode="&#xbe;" horiz-adv-x="951" d="M788 0 L843 0 L843 114 L908 114 L908 164 L843 164 L843 436 L789 436 L577 152 L577 114 L788 114 L788 0 Z M645 164 L645 166 L757 313 C774 335 790 362 790 362 L792 362 C792 362 788 327 788 300 L788 164 L645 164 Z M190 258 C274 258 339 322 339 399 C339 487 271 522 214 528 L333 667 L333 704 L71 704 L71 653 L224 653 C243 653 261 656 261 656 L261 654 C261 654 247 641 236 629 L137 513 L151 483 L184 483 C232 483 282 453 282 399 C282 347 235 310 189 310 C140 310 100 336 82 362 L47 324 C80 279 138 258 190 258 L190 258 Z M333 0 L668 703 L610 703 L274 0 L333 0 Z " />
<glyph glyph-name="questiondown" unicode="&#xbf;" horiz-adv-x="440" d="M287 318 L220 318 L220 275 C220 143 41 129 41 -37 C41 -141 127 -214 241 -214 C303 -214 366 -189 402 -157 L364 -107 C331 -132 286 -149 244 -149 C167 -149 113 -98 113 -34 C113 99 287 114 287 273 L287 318 Z M293 502 L214 502 L214 423 L293 423 L293 502 Z " />
<glyph glyph-name="Agrave" unicode="&#xc0;" horiz-adv-x="632" d="M21 0 L94 0 L174 224 L457 224 L538 0 L611 0 L353 703 L279 703 L21 0 Z M195 284 L288 539 C300 572 315 631 315 631 L317 631 C317 631 332 572 344 539 L436 284 L195 284 Z M285 752 L347 752 L278 871 L199 871 L285 752 Z " />
<glyph glyph-name="Aacute" unicode="&#xc1;" horiz-adv-x="632" d="M21 0 L94 0 L174 224 L457 224 L538 0 L611 0 L353 703 L279 703 L21 0 Z M195 284 L288 539 C300 572 315 631 315 631 L317 631 C317 631 332 572 344 539 L436 284 L195 284 Z M283 752 L344 752 L431 871 L352 871 L283 752 Z " />
<glyph glyph-name="Acircumflex" unicode="&#xc2;" horiz-adv-x="632" d="M21 0 L94 0 L174 224 L457 224 L538 0 L611 0 L353 703 L279 703 L21 0 Z M195 284 L288 539 C300 572 315 631 315 631 L317 631 C317 631 332 572 344 539 L436 284 L195 284 Z M195 752 L261 752 L315 832 L317 832 L371 752 L437 752 L353 871 L278 871 L195 752 Z " />
<glyph glyph-name="Atilde" unicode="&#xc3;" horiz-adv-x="632" d="M21 0 L94 0 L174 224 L457 224 L538 0 L611 0 L353 703 L279 703 L21 0 Z M195 284 L288 539 C300 572 315 631 315 631 L317 631 C317 631 332 572 344 539 L436 284 L195 284 Z M160 755 L215 755 C215 781 221 823 254 823 C299 823 313 752 380 752 C441 752 472 792 472 868 L418 868 C418 843 411 800 378 800 C333 800 319 871 252 871 C191 871 160 832 160 755 L160 755 Z " />
<glyph glyph-name="Adieresis" unicode="&#xc4;" horiz-adv-x="632" d="M21 0 L94 0 L174 224 L457 224 L538 0 L611 0 L353 703 L279 703 L21 0 Z M195 284 L288 539 C300 572 315 631 315 631 L317 631 C317 631 332 572 344 539 L436 284 L195 284 Z M361 785 L423 785 L423 871 L361 871 L361 785 Z M210 785 L271 785 L271 871 L210 871 L210 785 Z " />
<glyph glyph-name="Aring" unicode="&#xc5;" horiz-adv-x="632" d="M21 0 L94 0 L174 224 L457 224 L538 0 L611 0 L353 703 L279 703 L21 0 Z M195 284 L288 539 C300 572 315 631 315 631 L317 631 C317 631 332 572 344 539 L436 284 L195 284 Z M316 742 C356 742 391 770 391 812 C391 854 356 883 316 883 C274 883 240 854 240 812 C240 770 274 742 316 742 L316 742 Z M316 779 C296 779 283 793 283 812 C283 832 296 846 316 846 C335 846 348 832 348 812 C348 793 335 779 316 779 L316 779 Z " />
<glyph glyph-name="AE" unicode="&#xc6;" horiz-adv-x="850" d="M17 0 L90 0 L220 324 L391 324 L391 0 L805 0 L805 62 L460 62 L460 323 L727 323 L727 385 L460 385 L460 641 L787 641 L787 703 L306 703 L17 0 Z M245 384 L350 641 L391 641 L391 384 L245 384 Z " />
<glyph glyph-name="Ccedilla" unicode="&#xc7;" horiz-adv-x="719" d="M359 -91 C359 -91 366 -90 374 -90 C409 -90 431 -102 431 -124 C431 -151 406 -158 380 -158 C367 -158 348 -156 338 -152 L338 -200 C354 -204 371 -205 388 -205 C437 -205 484 -184 484 -126 C484 -86 455 -61 414 -55 L422 -12 C540 -9 623 41 680 97 L640 146 C580 87 496 53 413 53 C239 53 127 190 127 357 C127 522 239 650 410 650 C486 650 570 621 625 573 L662 624 C595 688 497 715 408 715 C202 715 55 560 55 356 C55 161 182 5 378 -11 L359 -91 Z " />
<glyph glyph-name="Egrave" unicode="&#xc8;" horiz-adv-x="560" d="M101 0 L515 0 L515 62 L170 62 L170 323 L437 323 L437 385 L170 385 L170 641 L496 641 L496 703 L101 703 L101 0 Z M279 752 L341 752 L272 871 L193 871 L279 752 Z " />
<glyph glyph-name="Eacute" unicode="&#xc9;" horiz-adv-x="560" d="M277 752 L338 752 L425 871 L346 871 L277 752 Z M101 0 L515 0 L515 62 L170 62 L170 323 L437 323 L437 385 L170 385 L170 641 L496 641 L496 703 L101 703 L101 0 Z " />
<glyph glyph-name="Ecircumflex" unicode="&#xca;" horiz-adv-x="560" d="M189 752 L255 752 L309 832 L311 832 L365 752 L431 752 L347 871 L272 871 L189 752 Z M101 0 L515 0 L515 62 L170 62 L170 323 L437 323 L437 385 L170 385 L170 641 L496 641 L496 703 L101 703 L101 0 Z " />
<glyph glyph-name="Edieresis" unicode="&#xcb;" horiz-adv-x="560" d="M355 785 L417 785 L417 871 L355 871 L355 785 Z M204 785 L265 785 L265 871 L204 871 L204 785 Z M101 0 L515 0 L515 62 L170 62 L170 323 L437 323 L437 385 L170 385 L170 641 L496 641 L496 703 L101 703 L101 0 Z " />
<glyph glyph-name="Igrave" unicode="&#xcc;" horiz-adv-x="271" d="M101 0 L170 0 L170 703 L101 703 L101 0 Z M106 752 L168 752 L99 871 L20 871 L106 752 Z " />
<glyph glyph-name="Iacute" unicode="&#xcd;" horiz-adv-x="271" d="M101 0 L170 0 L170 703 L101 703 L101 0 Z M104 752 L165 752 L252 871 L173 871 L104 752 Z " />
<glyph glyph-name="Icircumflex" unicode="&#xce;" horiz-adv-x="271" d="M101 0 L170 0 L170 703 L101 703 L101 0 Z M16 752 L82 752 L136 832 L138 832 L192 752 L258 752 L174 871 L99 871 L16 752 Z " />
<glyph glyph-name="Idieresis" unicode="&#xcf;" horiz-adv-x="271" d="M101 0 L170 0 L170 703 L101 703 L101 0 Z M182 785 L244 785 L244 871 L182 871 L182 785 Z M31 785 L92 785 L92 871 L31 871 L31 785 Z " />
<glyph glyph-name="Eth" unicode="&#xd0;" horiz-adv-x="744" d="M107 0 L333 0 C545 0 686 129 686 352 C686 574 545 703 333 703 L107 703 L107 383 L47 383 L47 323 L107 323 L107 0 Z M176 62 L176 323 L343 323 L343 383 L176 383 L176 641 L326 641 C499 641 614 539 614 352 C614 163 499 62 326 62 L176 62 Z " />
<glyph glyph-name="Ntilde" unicode="&#xd1;" horiz-adv-x="751" d="M101 0 L170 0 L170 506 C170 543 164 601 164 601 L166 601 C166 601 200 541 224 506 L583 0 L650 0 L650 703 L581 703 L581 197 C581 160 587 102 587 102 L585 102 C585 102 551 162 527 197 L168 703 L101 703 L101 0 Z M219 755 L274 755 C274 781 280 823 313 823 C358 823 372 752 439 752 C500 752 531 792 531 868 L477 868 C477 843 470 800 437 800 C392 800 378 871 311 871 C250 871 219 832 219 755 L219 755 Z " />
<glyph glyph-name="Ograve" unicode="&#xd2;" horiz-adv-x="825" d="M54 357 C54 150 207 -12 412 -12 C618 -12 770 150 770 357 C770 558 618 715 412 715 C207 715 54 558 54 357 L54 357 Z M126 357 C126 523 248 650 412 650 C577 650 698 523 698 357 C698 185 577 53 412 53 C248 53 126 185 126 357 L126 357 Z M381 752 L443 752 L374 871 L295 871 L381 752 Z " />
<glyph glyph-name="Oacute" unicode="&#xd3;" horiz-adv-x="825" d="M379 752 L440 752 L527 871 L448 871 L379 752 Z M54 357 C54 150 207 -12 412 -12 C618 -12 770 150 770 357 C770 558 618 715 412 715 C207 715 54 558 54 357 L54 357 Z M126 357 C126 523 248 650 412 650 C577 650 698 523 698 357 C698 185 577 53 412 53 C248 53 126 185 126 357 L126 357 Z " />
<glyph glyph-name="Ocircumflex" unicode="&#xd4;" horiz-adv-x="825" d="M291 752 L357 752 L411 832 L413 832 L467 752 L533 752 L449 871 L374 871 L291 752 Z M54 357 C54 150 207 -12 412 -12 C618 -12 770 150 770 357 C770 558 618 715 412 715 C207 715 54 558 54 357 L54 357 Z M126 357 C126 523 248 650 412 650 C577 650 698 523 698 357 C698 185 577 53 412 53 C248 53 126 185 126 357 L126 357 Z " />
<glyph glyph-name="Otilde" unicode="&#xd5;" horiz-adv-x="825" d="M54 357 C54 150 207 -12 412 -12 C618 -12 770 150 770 357 C770 558 618 715 412 715 C207 715 54 558 54 357 L54 357 Z M126 357 C126 523 248 650 412 650 C577 650 698 523 698 357 C698 185 577 53 412 53 C248 53 126 185 126 357 L126 357 Z M256 755 L311 755 C311 781 317 823 350 823 C395 823 409 752 476 752 C537 752 568 792 568 868 L514 868 C514 843 507 800 474 800 C429 800 415 871 348 871 C287 871 256 832 256 755 L256 755 Z " />
<glyph glyph-name="Odieresis" unicode="&#xd6;" horiz-adv-x="825" d="M457 785 L519 785 L519 871 L457 871 L457 785 Z M306 785 L367 785 L367 871 L306 871 L306 785 Z M54 357 C54 150 207 -12 412 -12 C618 -12 770 150 770 357 C770 558 618 715 412 715 C207 715 54 558 54 357 L54 357 Z M126 357 C126 523 248 650 412 650 C577 650 698 523 698 357 C698 185 577 53 412 53 C248 53 126 185 126 357 L126 357 Z " />
<glyph glyph-name="multiply" unicode="&#xd7;" horiz-adv-x="568" d="M28 41 L70 0 L284 240 L497 0 L540 41 L323 284 L540 527 L497 568 L284 328 L70 568 L28 527 L244 284 L28 41 Z " />
<glyph glyph-name="Oslash" unicode="&#xd8;" horiz-adv-x="824" d="M131 5 L172 -24 L221 44 C277 8 341 -12 412 -12 C612 -12 770 150 770 356 C770 470 721 567 643 632 L690 698 L649 728 L601 661 C546 695 482 715 412 715 C213 715 54 559 54 356 C54 242 103 141 180 74 L131 5 Z M221 131 C165 183 126 264 126 356 C126 524 254 650 412 650 C468 650 519 635 562 607 L221 131 Z M259 98 L602 577 C661 524 698 446 698 355 C698 184 571 53 412 53 C356 53 303 69 259 98 L259 98 Z " />
<glyph glyph-name="Ugrave" unicode="&#xd9;" horiz-adv-x="723" d="M93 245 C93 89 203 -12 362 -12 C521 -12 631 89 631 245 L631 703 L561 703 L561 248 C561 125 482 53 361 53 C241 53 162 125 162 246 L162 703 L93 703 L93 245 Z M330 752 L392 752 L323 871 L244 871 L330 752 Z " />
<glyph glyph-name="Uacute" unicode="&#xda;" horiz-adv-x="723" d="M328 752 L389 752 L476 871 L397 871 L328 752 Z M93 245 C93 89 203 -12 362 -12 C521 -12 631 89 631 245 L631 703 L561 703 L561 248 C561 125 482 53 361 53 C241 53 162 125 162 246 L162 703 L93 703 L93 245 Z " />
<glyph glyph-name="Ucircumflex" unicode="&#xdb;" horiz-adv-x="723" d="M240 752 L306 752 L360 832 L362 832 L416 752 L482 752 L398 871 L323 871 L240 752 Z M93 245 C93 89 203 -12 362 -12 C521 -12 631 89 631 245 L631 703 L561 703 L561 248 C561 125 482 53 361 53 C241 53 162 125 162 246 L162 703 L93 703 L93 245 Z " />
<glyph glyph-name="Udieresis" unicode="&#xdc;" horiz-adv-x="723" d="M406 785 L468 785 L468 871 L406 871 L406 785 Z M255 785 L316 785 L316 871 L255 871 L255 785 Z M93 245 C93 89 203 -12 362 -12 C521 -12 631 89 631 245 L631 703 L561 703 L561 248 C561 125 482 53 361 53 C241 53 162 125 162 246 L162 703 L93 703 L93 245 Z " />
<glyph glyph-name="Yacute" unicode="&#xdd;" horiz-adv-x="579" d="M255 0 L324 0 L324 302 L561 703 L482 703 L333 448 C312 411 290 364 290 364 L288 364 C288 364 266 411 245 448 L96 703 L17 703 L255 302 L255 0 Z M256 752 L317 752 L404 871 L325 871 L256 752 Z " />
<glyph glyph-name="Thorn" unicode="&#xde;" horiz-adv-x="600" d="M101 0 L170 0 L170 151 L342 151 C469 151 561 235 561 365 C561 496 469 578 344 578 L170 578 L170 703 L101 703 L101 0 Z M170 213 L170 516 L336 516 C429 516 490 461 490 365 C490 270 429 213 335 213 L170 213 Z " />
<glyph glyph-name="germandbls" unicode="&#xdf;" horiz-adv-x="574" d="M81 0 L149 0 L149 526 C149 610 215 654 280 654 C352 654 388 607 388 565 C388 484 276 454 276 367 C276 261 472 232 472 138 C472 80 426 55 375 55 C327 55 271 67 232 90 L232 25 C276 1 330 -7 380 -7 C464 -7 542 40 542 136 C542 263 346 301 346 369 C346 432 457 463 457 566 C457 645 390 715 283 715 C182 715 81 651 81 531 L81 0 Z " />
<glyph glyph-name="agrave" unicode="&#xe0;" horiz-adv-x="517" d="M37 135 C37 38 122 -12 207 -12 C288 -12 351 40 377 101 L379 101 C379 101 376 84 376 59 L376 0 L441 0 L441 322 C441 448 374 515 253 515 C186 515 115 492 75 458 L106 406 C147 436 198 454 249 454 C320 454 373 421 373 324 L373 310 L343 310 C247 310 37 300 37 135 L37 135 Z M106 141 C106 253 266 256 344 256 L373 256 L373 233 C373 145 316 45 219 45 C144 45 106 94 106 141 L106 141 Z M225 585 L287 585 L218 704 L139 704 L225 585 Z " />
<glyph glyph-name="aacute" unicode="&#xe1;" horiz-adv-x="517" d="M37 135 C37 38 122 -12 207 -12 C288 -12 351 40 377 101 L379 101 C379 101 376 84 376 59 L376 0 L441 0 L441 322 C441 448 374 515 253 515 C186 515 115 492 75 458 L106 406 C147 436 198 454 249 454 C320 454 373 421 373 324 L373 310 L343 310 C247 310 37 300 37 135 L37 135 Z M106 141 C106 253 266 256 344 256 L373 256 L373 233 C373 145 316 45 219 45 C144 45 106 94 106 141 L106 141 Z M221 585 L282 585 L369 704 L290 704 L221 585 Z " />
<glyph glyph-name="acircumflex" unicode="&#xe2;" horiz-adv-x="517" d="M37 135 C37 38 122 -12 207 -12 C288 -12 351 40 377 101 L379 101 C379 101 376 84 376 59 L376 0 L441 0 L441 322 C441 448 374 515 253 515 C186 515 115 492 75 458 L106 406 C147 436 198 454 249 454 C320 454 373 421 373 324 L373 310 L343 310 C247 310 37 300 37 135 L37 135 Z M106 141 C106 253 266 256 344 256 L373 256 L373 233 C373 145 316 45 219 45 C144 45 106 94 106 141 L106 141 Z M133 585 L199 585 L253 665 L255 665 L309 585 L375 585 L291 704 L216 704 L133 585 Z " />
<glyph glyph-name="atilde" unicode="&#xe3;" horiz-adv-x="517" d="M37 135 C37 38 122 -12 207 -12 C288 -12 351 40 377 101 L379 101 C379 101 376 84 376 59 L376 0 L441 0 L441 322 C441 448 374 515 253 515 C186 515 115 492 75 458 L106 406 C147 436 198 454 249 454 C320 454 373 421 373 324 L373 310 L343 310 C247 310 37 300 37 135 L37 135 Z M106 141 C106 253 266 256 344 256 L373 256 L373 233 C373 145 316 45 219 45 C144 45 106 94 106 141 L106 141 Z M98 588 L153 588 C153 614 159 656 192 656 C237 656 251 585 318 585 C379 585 410 625 410 701 L356 701 C356 676 349 633 316 633 C271 633 257 704 190 704 C129 704 98 665 98 588 L98 588 Z " />
<glyph glyph-name="adieresis" unicode="&#xe4;" horiz-adv-x="517" d="M37 135 C37 38 122 -12 207 -12 C288 -12 351 40 377 101 L379 101 C379 101 376 84 376 59 L376 0 L441 0 L441 322 C441 448 374 515 253 515 C186 515 115 492 75 458 L106 406 C147 436 198 454 249 454 C320 454 373 421 373 324 L373 310 L343 310 C247 310 37 300 37 135 L37 135 Z M106 141 C106 253 266 256 344 256 L373 256 L373 233 C373 145 316 45 219 45 C144 45 106 94 106 141 L106 141 Z M299 618 L361 618 L361 704 L299 704 L299 618 Z M148 618 L209 618 L209 704 L148 704 L148 618 Z " />
<glyph glyph-name="aring" unicode="&#xe5;" horiz-adv-x="517" d="M37 135 C37 38 122 -12 207 -12 C288 -12 351 40 377 101 L379 101 C379 101 376 84 376 59 L376 0 L441 0 L441 322 C441 448 374 515 253 515 C186 515 115 492 75 458 L106 406 C147 436 198 454 249 454 C320 454 373 421 373 324 L373 310 L343 310 C247 310 37 300 37 135 L37 135 Z M106 141 C106 253 266 256 344 256 L373 256 L373 233 C373 145 316 45 219 45 C144 45 106 94 106 141 L106 141 Z M254 575 C294 575 329 603 329 645 C329 687 294 716 254 716 C212 716 178 687 178 645 C178 603 212 575 254 575 L254 575 Z M254 612 C234 612 221 626 221 645 C221 665 234 679 254 679 C273 679 286 665 286 645 C286 626 273 612 254 612 L254 612 Z " />
<glyph glyph-name="ae" unicode="&#xe6;" horiz-adv-x="866" d="M38 137 C38 40 119 -12 211 -12 C345 -12 393 102 401 128 L403 128 C440 41 521 -12 624 -12 C691 -12 766 16 810 58 L779 110 C739 72 681 50 627 50 C522 50 442 120 439 252 L817 252 C818 263 820 275 820 286 C820 411 746 515 611 515 C529 515 462 480 421 411 L419 411 C398 474 349 515 249 515 C185 515 115 493 74 457 L106 406 C146 436 195 454 245 454 C321 454 373 421 373 324 L373 306 L340 306 C228 306 38 301 38 137 L38 137 Z M443 306 C459 406 524 457 608 457 C679 457 746 410 750 306 L443 306 Z M108 141 C108 243 230 252 315 252 L374 252 L374 234 C374 146 317 45 220 45 C146 45 108 92 108 141 L108 141 Z " />
<glyph glyph-name="ccedilla" unicode="&#xe7;" horiz-adv-x="544" d="M257 -91 C257 -91 264 -90 272 -90 C307 -90 329 -102 329 -124 C329 -151 304 -158 278 -158 C265 -158 246 -156 236 -152 L236 -200 C252 -204 269 -205 286 -205 C335 -205 382 -184 382 -126 C382 -86 353 -61 312 -55 L320 -12 C394 -9 464 21 507 68 L476 119 C436 75 373 50 315 50 C203 50 117 133 117 251 C117 371 203 454 313 454 C369 454 425 428 460 392 L495 443 C450 492 377 515 311 515 C163 515 47 406 47 251 C47 107 144 5 276 -10 L257 -91 Z " />
<glyph glyph-name="egrave" unicode="&#xe8;" horiz-adv-x="553" d="M47 251 C47 96 161 -12 311 -12 C377 -12 450 15 497 58 L466 110 C425 73 368 50 313 50 C209 50 121 121 118 249 L504 249 C505 260 506 272 506 283 C506 408 435 515 296 515 C160 515 47 416 47 251 L47 251 Z M121 303 C137 404 210 459 294 459 C369 459 433 408 437 303 L121 303 Z M266 585 L328 585 L259 704 L180 704 L266 585 Z " />
<glyph glyph-name="eacute" unicode="&#xe9;" horiz-adv-x="553" d="M263 585 L324 585 L411 704 L332 704 L263 585 Z M47 251 C47 96 161 -12 311 -12 C377 -12 450 15 497 58 L466 110 C425 73 368 50 313 50 C209 50 121 121 118 249 L504 249 C505 260 506 272 506 283 C506 408 435 515 296 515 C160 515 47 416 47 251 L47 251 Z M121 303 C137 404 210 459 294 459 C369 459 433 408 437 303 L121 303 Z " />
<glyph glyph-name="ecircumflex" unicode="&#xea;" horiz-adv-x="553" d="M175 585 L241 585 L295 665 L297 665 L351 585 L417 585 L333 704 L258 704 L175 585 Z M47 251 C47 96 161 -12 311 -12 C377 -12 450 15 497 58 L466 110 C425 73 368 50 313 50 C209 50 121 121 118 249 L504 249 C505 260 506 272 506 283 C506 408 435 515 296 515 C160 515 47 416 47 251 L47 251 Z M121 303 C137 404 210 459 294 459 C369 459 433 408 437 303 L121 303 Z " />
<glyph glyph-name="edieresis" unicode="&#xeb;" horiz-adv-x="553" d="M341 618 L403 618 L403 704 L341 704 L341 618 Z M190 618 L251 618 L251 704 L190 704 L190 618 Z M47 251 C47 96 161 -12 311 -12 C377 -12 450 15 497 58 L466 110 C425 73 368 50 313 50 C209 50 121 121 118 249 L504 249 C505 260 506 272 506 283 C506 408 435 515 296 515 C160 515 47 416 47 251 L47 251 Z M121 303 C137 404 210 459 294 459 C369 459 433 408 437 303 L121 303 Z " />
<glyph glyph-name="igrave" unicode="&#xec;" horiz-adv-x="230" d="M81 0 L149 0 L149 503 L81 503 L81 0 Z M86 585 L148 585 L79 704 L0 704 L86 585 Z " />
<glyph glyph-name="iacute" unicode="&#xed;" horiz-adv-x="230" d="M84 585 L145 585 L232 704 L153 704 L84 585 Z M81 0 L149 0 L149 503 L81 503 L81 0 Z " />
<glyph glyph-name="icircumflex" unicode="&#xee;" horiz-adv-x="230" d="M-4 585 L62 585 L116 665 L118 665 L172 585 L238 585 L154 704 L79 704 L-4 585 Z M81 0 L149 0 L149 503 L81 503 L81 0 Z " />
<glyph glyph-name="idieresis" unicode="&#xef;" horiz-adv-x="230" d="M162 618 L224 618 L224 704 L162 704 L162 618 Z M11 618 L72 618 L72 704 L11 704 L11 618 Z M81 0 L149 0 L149 503 L81 503 L81 0 Z " />
<glyph glyph-name="eth" unicode="&#xf0;" horiz-adv-x="579" d="M49 232 C49 109 133 -12 280 -12 C455 -12 527 139 527 272 C527 425 463 533 377 601 L474 646 L461 694 L330 635 C268 672 198 696 133 711 L114 654 C165 642 213 625 256 603 L120 540 L134 492 L310 572 C367 533 410 481 434 412 L432 412 C432 412 384 467 288 467 C131 467 49 352 49 232 L49 232 Z M119 231 C119 320 175 409 295 409 C393 409 458 346 458 261 C458 164 406 49 282 49 C177 49 119 139 119 231 L119 231 Z " />
<glyph glyph-name="ntilde" unicode="&#xf1;" horiz-adv-x="594" d="M81 0 L149 0 L149 246 C149 363 233 451 340 451 C437 451 450 381 450 302 L450 0 L518 0 L518 320 C518 444 474 515 349 515 C231 515 165 430 146 384 L144 384 C144 384 148 402 148 424 L148 503 L81 503 L81 0 Z M153 588 L208 588 C208 614 214 656 247 656 C292 656 306 585 373 585 C434 585 465 625 465 701 L411 701 C411 676 404 633 371 633 C326 633 312 704 245 704 C184 704 153 665 153 588 L153 588 Z " />
<glyph glyph-name="ograve" unicode="&#xf2;" horiz-adv-x="624" d="M47 254 C47 102 165 -12 312 -12 C459 -12 578 102 578 254 C578 403 459 515 312 515 C165 515 47 403 47 254 L47 254 Z M117 254 C117 368 204 454 312 454 C420 454 508 368 508 254 C508 136 420 50 312 50 C204 50 117 136 117 254 L117 254 Z M281 585 L343 585 L274 704 L195 704 L281 585 Z " />
<glyph glyph-name="oacute" unicode="&#xf3;" horiz-adv-x="624" d="M279 585 L340 585 L427 704 L348 704 L279 585 Z M47 254 C47 102 165 -12 312 -12 C459 -12 578 102 578 254 C578 403 459 515 312 515 C165 515 47 403 47 254 L47 254 Z M117 254 C117 368 204 454 312 454 C420 454 508 368 508 254 C508 136 420 50 312 50 C204 50 117 136 117 254 L117 254 Z " />
<glyph glyph-name="ocircumflex" unicode="&#xf4;" horiz-adv-x="624" d="M191 585 L257 585 L311 665 L313 665 L367 585 L433 585 L349 704 L274 704 L191 585 Z M47 254 C47 102 165 -12 312 -12 C459 -12 578 102 578 254 C578 403 459 515 312 515 C165 515 47 403 47 254 L47 254 Z M117 254 C117 368 204 454 312 454 C420 454 508 368 508 254 C508 136 420 50 312 50 C204 50 117 136 117 254 L117 254 Z " />
<glyph glyph-name="otilde" unicode="&#xf5;" horiz-adv-x="624" d="M47 254 C47 102 165 -12 312 -12 C459 -12 578 102 578 254 C578 403 459 515 312 515 C165 515 47 403 47 254 L47 254 Z M117 254 C117 368 204 454 312 454 C420 454 508 368 508 254 C508 136 420 50 312 50 C204 50 117 136 117 254 L117 254 Z M156 588 L211 588 C211 614 217 656 250 656 C295 656 309 585 376 585 C437 585 468 625 468 701 L414 701 C414 676 407 633 374 633 C329 633 315 704 248 704 C187 704 156 665 156 588 L156 588 Z " />
<glyph glyph-name="odieresis" unicode="&#xf6;" horiz-adv-x="624" d="M357 618 L419 618 L419 704 L357 704 L357 618 Z M206 618 L267 618 L267 704 L206 704 L206 618 Z M47 254 C47 102 165 -12 312 -12 C459 -12 578 102 578 254 C578 403 459 515 312 515 C165 515 47 403 47 254 L47 254 Z M117 254 C117 368 204 454 312 454 C420 454 508 368 508 254 C508 136 420 50 312 50 C204 50 117 136 117 254 L117 254 Z " />
<glyph glyph-name="divide" unicode="&#xf7;" horiz-adv-x="568" d="M246 433 L321 433 L321 507 L246 507 L246 433 Z M39 255 L529 255 L529 313 L39 313 L39 255 Z M246 61 L321 61 L321 135 L246 135 L246 61 Z " />
<glyph glyph-name="oslash" unicode="&#xf8;" horiz-adv-x="625" d="M105 -3 L146 -33 L184 21 C222 -1 265 -12 313 -12 C460 -12 579 102 579 254 C579 333 544 402 490 449 L529 503 L488 532 L449 479 C409 502 362 515 313 515 C166 515 47 403 47 254 C47 169 84 96 142 49 L105 -3 Z M180 103 C142 139 117 192 117 254 C117 368 205 454 313 454 C349 454 383 443 412 426 L180 103 Z M221 73 L451 394 C487 359 509 310 509 254 C509 136 421 50 313 50 C279 50 248 58 221 73 L221 73 Z " />
<glyph glyph-name="ugrave" unicode="&#xf9;" horiz-adv-x="588" d="M75 183 C75 52 125 -12 244 -12 C355 -12 423 70 442 119 L444 119 C444 119 440 101 440 79 L440 0 L507 0 L507 503 L439 503 L439 262 C439 153 368 52 253 52 C156 52 144 122 144 201 L144 503 L75 503 L75 183 Z M262 585 L324 585 L255 704 L176 704 L262 585 Z " />
<glyph glyph-name="uacute" unicode="&#xfa;" horiz-adv-x="588" d="M258 585 L319 585 L406 704 L327 704 L258 585 Z M75 183 C75 52 125 -12 244 -12 C355 -12 423 70 442 119 L444 119 C444 119 440 101 440 79 L440 0 L507 0 L507 503 L439 503 L439 262 C439 153 368 52 253 52 C156 52 144 122 144 201 L144 503 L75 503 L75 183 Z " />
<glyph glyph-name="ucircumflex" unicode="&#xfb;" horiz-adv-x="588" d="M170 585 L236 585 L290 665 L292 665 L346 585 L412 585 L328 704 L253 704 L170 585 Z M75 183 C75 52 125 -12 244 -12 C355 -12 423 70 442 119 L444 119 C444 119 440 101 440 79 L440 0 L507 0 L507 503 L439 503 L439 262 C439 153 368 52 253 52 C156 52 144 122 144 201 L144 503 L75 503 L75 183 Z " />
<glyph glyph-name="udieresis" unicode="&#xfc;" horiz-adv-x="588" d="M336 618 L398 618 L398 704 L336 704 L336 618 Z M185 618 L246 618 L246 704 L185 704 L185 618 Z M75 183 C75 52 125 -12 244 -12 C355 -12 423 70 442 119 L444 119 C444 119 440 101 440 79 L440 0 L507 0 L507 503 L439 503 L439 262 C439 153 368 52 253 52 C156 52 144 122 144 201 L144 503 L75 503 L75 183 Z " />
<glyph glyph-name="yacute" unicode="&#xfd;" horiz-adv-x="526" d="M45 -126 L19 -180 C19 -180 56 -210 108 -210 C175 -210 226 -169 252 -105 L500 503 L427 503 L282 136 C272 111 265 83 265 83 L263 83 C263 83 254 111 244 136 L97 503 L22 503 L231 5 L201 -67 C181 -113 149 -149 105 -149 C73 -149 45 -126 45 -126 L45 -126 Z M231 584 L292 584 L379 703 L300 703 L231 584 Z " />
<glyph glyph-name="thorn" unicode="&#xfe;" horiz-adv-x="588" d="M81 -200 L149 -200 L149 40 C149 66 147 84 147 84 L149 84 C179 22 248 -12 315 -12 C446 -12 539 94 539 252 C539 406 455 515 319 515 C237 515 175 473 150 419 L148 419 C148 419 149 436 149 459 L149 703 L81 703 L81 -200 Z M147 251 C147 395 226 454 311 454 C404 454 470 373 470 252 C470 126 398 49 308 49 C206 49 147 143 147 251 L147 251 Z " />
<glyph glyph-name="ydieresis" unicode="&#xff;" horiz-adv-x="526" d="M45 -126 L19 -180 C19 -180 56 -210 108 -210 C175 -210 226 -169 252 -105 L500 503 L427 503 L282 136 C272 111 265 83 265 83 L263 83 C263 83 254 111 244 136 L97 503 L22 503 L231 5 L201 -67 C181 -113 149 -149 105 -149 C73 -149 45 -126 45 -126 L45 -126 Z M308 617 L370 617 L370 703 L308 703 L308 617 Z M157 617 L218 617 L218 703 L157 703 L157 617 Z " />
<glyph glyph-name="Amacron" unicode="&#x100;" horiz-adv-x="632" d="M21 0 L94 0 L174 224 L457 224 L538 0 L611 0 L353 703 L279 703 L21 0 Z M195 284 L288 539 C300 572 315 631 315 631 L317 631 C317 631 332 572 344 539 L436 284 L195 284 Z M193 785 L439 785 L439 840 L193 840 L193 785 Z " />
<glyph glyph-name="amacron" unicode="&#x101;" horiz-adv-x="517" d="M37 135 C37 38 122 -12 207 -12 C288 -12 351 40 377 101 L379 101 C379 101 376 84 376 59 L376 0 L441 0 L441 322 C441 448 374 515 253 515 C186 515 115 492 75 458 L106 406 C147 436 198 454 249 454 C320 454 373 421 373 324 L373 310 L343 310 C247 310 37 300 37 135 L37 135 Z M106 141 C106 253 266 256 344 256 L373 256 L373 233 C373 145 316 45 219 45 C144 45 106 94 106 141 L106 141 Z M131 618 L377 618 L377 673 L131 673 L131 618 Z " />
<glyph glyph-name="Abreve" unicode="&#x102;" horiz-adv-x="632" d="M21 0 L94 0 L174 224 L457 224 L538 0 L611 0 L353 703 L279 703 L21 0 Z M195 284 L288 539 C300 572 315 631 315 631 L317 631 C317 631 332 572 344 539 L436 284 L195 284 Z M316 749 C375 749 431 785 431 856 L431 871 L376 871 L376 858 C376 814 346 796 316 796 C283 796 255 814 255 857 L255 871 L200 871 L200 856 C200 785 256 749 316 749 L316 749 Z " />
<glyph glyph-name="abreve" unicode="&#x103;" horiz-adv-x="517" d="M37 135 C37 38 122 -12 207 -12 C288 -12 351 40 377 101 L379 101 C379 101 376 84 376 59 L376 0 L441 0 L441 322 C441 448 374 515 253 515 C186 515 115 492 75 458 L106 406 C147 436 198 454 249 454 C320 454 373 421 373 324 L373 310 L343 310 C247 310 37 300 37 135 L37 135 Z M106 141 C106 253 266 256 344 256 L373 256 L373 233 C373 145 316 45 219 45 C144 45 106 94 106 141 L106 141 Z M254 582 C313 582 369 618 369 689 L369 704 L314 704 L314 691 C314 647 284 629 254 629 C221 629 193 647 193 690 L193 704 L138 704 L138 689 C138 618 194 582 254 582 L254 582 Z " />
<glyph glyph-name="Aogonek" unicode="&#x104;" horiz-adv-x="632" d="M21 0 L94 0 L174 224 L457 224 L538 0 L541 0 C513 -22 475 -62 475 -113 C475 -198 585 -205 585 -205 L600 -149 C600 -149 538 -144 538 -99 C538 -59 589 -17 611 0 L353 703 L279 703 L21 0 Z M195 284 L288 539 C300 572 315 631 315 631 L317 631 C317 631 332 572 344 539 L436 284 L195 284 Z " />
<glyph glyph-name="aogonek" unicode="&#x105;" horiz-adv-x="517" d="M37 135 C37 38 122 -12 207 -12 C288 -12 351 40 377 101 L379 101 C379 101 376 84 376 59 L376 0 C347 -22 305 -62 305 -113 C305 -198 415 -205 415 -205 L430 -149 C430 -149 368 -144 368 -99 C368 -59 419 -17 441 0 L441 322 C441 448 374 515 253 515 C186 515 115 492 75 458 L106 406 C147 436 198 454 249 454 C320 454 373 421 373 324 L373 310 L343 310 C247 310 37 300 37 135 L37 135 Z M106 141 C106 253 266 256 344 256 L373 256 L373 233 C373 145 316 45 219 45 C144 45 106 94 106 141 L106 141 Z " />
<glyph glyph-name="Cacute" unicode="&#x106;" horiz-adv-x="718" d="M369 752 L430 752 L517 871 L438 871 L369 752 Z M55 356 C55 151 197 -12 411 -12 C535 -12 621 39 680 97 L640 146 C580 87 496 53 413 53 C239 53 127 190 127 357 C127 522 239 650 410 650 C486 650 570 621 625 573 L662 624 C595 688 497 715 408 715 C202 715 55 560 55 356 L55 356 Z " />
<glyph glyph-name="cacute" unicode="&#x107;" horiz-adv-x="542" d="M260 585 L321 585 L408 704 L329 704 L260 585 Z M47 251 C47 95 162 -12 311 -12 C388 -12 463 19 507 68 L476 119 C436 75 373 50 315 50 C203 50 117 133 117 251 C117 371 203 454 313 454 C369 454 425 428 460 392 L495 443 C450 492 377 515 311 515 C163 515 47 406 47 251 L47 251 Z " />
<glyph glyph-name="Ccircumflex" unicode="&#x108;" horiz-adv-x="718" d="M281 752 L347 752 L401 832 L403 832 L457 752 L523 752 L439 871 L364 871 L281 752 Z M55 356 C55 151 197 -12 411 -12 C535 -12 621 39 680 97 L640 146 C580 87 496 53 413 53 C239 53 127 190 127 357 C127 522 239 650 410 650 C486 650 570 621 625 573 L662 624 C595 688 497 715 408 715 C202 715 55 560 55 356 L55 356 Z " />
<glyph glyph-name="ccircumflex" unicode="&#x109;" horiz-adv-x="542" d="M171 585 L237 585 L291 665 L293 665 L347 585 L413 585 L329 704 L254 704 L171 585 Z M47 251 C47 95 162 -12 311 -12 C388 -12 463 19 507 68 L476 119 C436 75 373 50 315 50 C203 50 117 133 117 251 C117 371 203 454 313 454 C369 454 425 428 460 392 L495 443 C450 492 377 515 311 515 C163 515 47 406 47 251 L47 251 Z " />
<glyph glyph-name="Cdotaccent" unicode="&#x10a;" horiz-adv-x="718" d="M55 356 C55 151 197 -12 411 -12 C535 -12 621 39 680 97 L640 146 C580 87 496 53 413 53 C239 53 127 190 127 357 C127 522 239 650 410 650 C486 650 570 621 625 573 L662 624 C595 688 497 715 408 715 C202 715 55 560 55 356 L55 356 Z M369 786 L434 786 L434 871 L369 871 L369 786 Z " />
<glyph glyph-name="cdotaccent" unicode="&#x10b;" horiz-adv-x="542" d="M47 251 C47 95 162 -12 311 -12 C388 -12 463 19 507 68 L476 119 C436 75 373 50 315 50 C203 50 117 133 117 251 C117 371 203 454 313 454 C369 454 425 428 460 392 L495 443 C450 492 377 515 311 515 C163 515 47 406 47 251 L47 251 Z M260 619 L325 619 L325 704 L260 704 L260 619 Z " />
<glyph glyph-name="Ccaron" unicode="&#x10c;" horiz-adv-x="718" d="M364 752 L439 752 L523 871 L457 871 L403 791 L401 791 L347 871 L281 871 L364 752 Z M55 356 C55 151 197 -12 411 -12 C535 -12 621 39 680 97 L640 146 C580 87 496 53 413 53 C239 53 127 190 127 357 C127 522 239 650 410 650 C486 650 570 621 625 573 L662 624 C595 688 497 715 408 715 C202 715 55 560 55 356 L55 356 Z " />
<glyph glyph-name="ccaron" unicode="&#x10d;" horiz-adv-x="542" d="M254 585 L329 585 L413 704 L347 704 L293 624 L291 624 L237 704 L171 704 L254 585 Z M47 251 C47 95 162 -12 311 -12 C388 -12 463 19 507 68 L476 119 C436 75 373 50 315 50 C203 50 117 133 117 251 C117 371 203 454 313 454 C369 454 425 428 460 392 L495 443 C450 492 377 515 311 515 C163 515 47 406 47 251 L47 251 Z " />
<glyph glyph-name="Dcaron" unicode="&#x10e;" horiz-adv-x="738" d="M303 752 L378 752 L462 871 L396 871 L342 791 L340 791 L286 871 L220 871 L303 752 Z M101 0 L327 0 C539 0 680 129 680 352 C680 574 539 703 327 703 L101 703 L101 0 Z M170 62 L170 641 L320 641 C493 641 608 539 608 352 C608 163 493 62 320 62 L170 62 Z " />
<glyph glyph-name="dcaron" unicode="&#x10f;" horiz-adv-x="593" d="M570 702 C578 680 581 662 581 644 C581 618 574 593 562 563 L618 563 C633 596 641 623 641 653 C641 669 639 684 635 702 L570 702 Z M49 252 C49 96 134 -12 268 -12 C355 -12 415 36 443 93 L445 93 C445 93 442 79 442 57 L442 0 L508 0 L508 703 L440 703 L440 454 C440 433 443 416 443 416 L441 416 C410 477 346 515 276 515 C143 515 49 411 49 252 L49 252 Z M119 252 C119 380 193 453 282 453 C389 453 441 354 441 253 C441 109 363 49 279 49 C185 49 119 128 119 252 L119 252 Z " />
<glyph glyph-name="Dcroat" unicode="&#x110;" horiz-adv-x="744" d="M107 0 L333 0 C545 0 686 129 686 352 C686 574 545 703 333 703 L107 703 L107 383 L47 383 L47 323 L107 323 L107 0 Z M176 62 L176 323 L343 323 L343 383 L176 383 L176 641 L326 641 C499 641 614 539 614 352 C614 163 499 62 326 62 L176 62 Z " />
<glyph glyph-name="dcroat" unicode="&#x111;" horiz-adv-x="589" d="M49 252 C49 96 134 -12 268 -12 C355 -12 416 35 442 90 L444 90 C444 90 442 75 442 53 L442 0 L508 0 L508 566 L587 566 L587 617 L508 617 L508 703 L440 703 L440 617 L308 617 L308 566 L440 566 L440 458 C440 437 441 420 441 420 L439 420 C408 481 343 515 276 515 C143 515 49 411 49 252 L49 252 Z M119 252 C119 380 193 454 282 454 C389 454 441 354 441 253 C441 109 363 49 279 49 C185 49 119 128 119 252 L119 252 Z " />
<glyph glyph-name="Emacron" unicode="&#x112;" horiz-adv-x="560" d="M101 0 L515 0 L515 62 L170 62 L170 323 L437 323 L437 385 L170 385 L170 641 L496 641 L496 703 L101 703 L101 0 Z M187 785 L433 785 L433 840 L187 840 L187 785 Z " />
<glyph glyph-name="emacron" unicode="&#x113;" horiz-adv-x="553" d="M47 251 C47 96 161 -12 311 -12 C377 -12 450 15 497 58 L466 110 C425 73 368 50 313 50 C209 50 121 121 118 249 L504 249 C505 260 506 272 506 283 C506 408 435 515 296 515 C160 515 47 416 47 251 L47 251 Z M121 303 C137 404 210 459 294 459 C369 459 433 408 437 303 L121 303 Z M173 618 L419 618 L419 673 L173 673 L173 618 Z " />
<glyph glyph-name="Ebreve" unicode="&#x114;" horiz-adv-x="560" d="M101 0 L515 0 L515 62 L170 62 L170 323 L437 323 L437 385 L170 385 L170 641 L496 641 L496 703 L101 703 L101 0 Z M310 749 C369 749 425 785 425 856 L425 871 L370 871 L370 858 C370 814 340 796 310 796 C277 796 249 814 249 857 L249 871 L194 871 L194 856 C194 785 250 749 310 749 L310 749 Z " />
<glyph glyph-name="ebreve" unicode="&#x115;" horiz-adv-x="553" d="M47 251 C47 96 161 -12 311 -12 C377 -12 450 15 497 58 L466 110 C425 73 368 50 313 50 C209 50 121 121 118 249 L504 249 C505 260 506 272 506 283 C506 408 435 515 296 515 C160 515 47 416 47 251 L47 251 Z M121 303 C137 404 210 459 294 459 C369 459 433 408 437 303 L121 303 Z M296 582 C355 582 411 618 411 689 L411 704 L356 704 L356 691 C356 647 326 629 296 629 C263 629 235 647 235 690 L235 704 L180 704 L180 689 C180 618 236 582 296 582 L296 582 Z " />
<glyph glyph-name="Edotaccent" unicode="&#x116;" horiz-adv-x="560" d="M101 0 L515 0 L515 62 L170 62 L170 323 L437 323 L437 385 L170 385 L170 641 L496 641 L496 703 L101 703 L101 0 Z M277 786 L342 786 L342 871 L277 871 L277 786 Z " />
<glyph glyph-name="edotaccent" unicode="&#x117;" horiz-adv-x="553" d="M47 251 C47 96 161 -12 311 -12 C377 -12 450 15 497 58 L466 110 C425 73 368 50 313 50 C209 50 121 121 118 249 L504 249 C505 260 506 272 506 283 C506 408 435 515 296 515 C160 515 47 416 47 251 L47 251 Z M121 303 C137 404 210 459 294 459 C369 459 433 408 437 303 L121 303 Z M263 619 L328 619 L328 704 L263 704 L263 619 Z " />
<glyph glyph-name="Eogonek" unicode="&#x118;" horiz-adv-x="560" d="M101 0 L452 0 C424 -20 379 -60 379 -113 C379 -198 488 -205 488 -205 L504 -149 C504 -149 442 -144 442 -99 C442 -59 493 -17 515 0 L515 62 L170 62 L170 323 L437 323 L437 385 L170 385 L170 641 L496 641 L496 703 L101 703 L101 0 Z " />
<glyph glyph-name="eogonek" unicode="&#x119;" horiz-adv-x="553" d="M47 251 C47 96 161 -12 311 -12 C323 -12 336 -10 347 -8 C317 -34 289 -69 289 -113 C289 -198 399 -205 399 -205 L414 -149 C414 -149 352 -144 352 -99 C352 -29 455 18 497 59 L466 110 C423 73 369 50 313 50 C209 50 121 121 118 249 L504 249 C504 249 506 270 506 283 C506 408 435 515 296 515 C160 515 47 416 47 251 L47 251 Z M121 303 C137 403 210 459 294 459 C370 459 433 408 437 303 L121 303 Z " />
<glyph glyph-name="Ecaron" unicode="&#x11a;" horiz-adv-x="560" d="M272 752 L347 752 L431 871 L365 871 L311 791 L309 791 L255 871 L189 871 L272 752 Z M101 0 L515 0 L515 62 L170 62 L170 323 L437 323 L437 385 L170 385 L170 641 L496 641 L496 703 L101 703 L101 0 Z " />
<glyph glyph-name="ecaron" unicode="&#x11b;" horiz-adv-x="553" d="M258 585 L333 585 L417 704 L351 704 L297 624 L295 624 L241 704 L175 704 L258 585 Z M47 251 C47 96 161 -12 311 -12 C377 -12 450 15 497 58 L466 110 C425 73 368 50 313 50 C209 50 121 121 118 249 L504 249 C505 260 506 272 506 283 C506 408 435 515 296 515 C160 515 47 416 47 251 L47 251 Z M121 303 C137 404 210 459 294 459 C369 459 433 408 437 303 L121 303 Z " />
<glyph glyph-name="Gcircumflex" unicode="&#x11c;" horiz-adv-x="758" d="M277 752 L343 752 L397 832 L399 832 L453 752 L519 752 L435 871 L360 871 L277 752 Z M55 352 C55 143 207 -12 400 -12 C493 -12 579 28 629 83 L631 83 C631 83 630 68 630 53 L630 0 L693 0 L693 336 L508 336 L508 274 L628 274 L628 155 C573 93 491 53 407 53 C246 53 127 180 127 353 C127 519 242 650 413 650 C488 650 573 621 622 580 L660 633 C591 689 498 715 410 715 C208 715 55 555 55 352 L55 352 Z " />
<glyph glyph-name="gcircumflex" unicode="&#x11d;" horiz-adv-x="582" d="M163 585 L229 585 L283 665 L285 665 L339 585 L405 585 L321 704 L246 704 L163 585 Z M120 -114 L95 -169 C144 -195 202 -210 259 -210 C383 -210 501 -148 501 12 L501 503 L435 503 L435 444 C435 433 437 427 437 427 L435 427 C404 489 335 515 268 515 C133 515 50 412 50 261 C50 110 139 3 274 3 C352 3 404 39 434 96 L436 96 C436 96 432 78 432 59 L432 9 C432 -103 355 -148 257 -148 C210 -148 159 -134 120 -114 L120 -114 Z M119 262 C119 382 177 454 275 454 C364 454 434 408 434 261 C434 113 364 64 284 64 C185 64 119 141 119 262 L119 262 Z " />
<glyph glyph-name="Gbreve" unicode="&#x11e;" horiz-adv-x="758" d="M55 352 C55 143 207 -12 400 -12 C493 -12 579 28 629 83 L631 83 C631 83 630 68 630 53 L630 0 L693 0 L693 336 L508 336 L508 274 L628 274 L628 155 C573 93 491 53 407 53 C246 53 127 180 127 353 C127 519 242 650 413 650 C488 650 573 621 622 580 L660 633 C591 689 498 715 410 715 C208 715 55 555 55 352 L55 352 Z M399 749 C458 749 514 785 514 856 L514 871 L459 871 L459 858 C459 814 429 796 399 796 C366 796 338 814 338 857 L338 871 L283 871 L283 856 C283 785 339 749 399 749 L399 749 Z " />
<glyph glyph-name="gbreve" unicode="&#x11f;" horiz-adv-x="582" d="M120 -114 L95 -169 C144 -195 202 -210 259 -210 C383 -210 501 -148 501 12 L501 503 L435 503 L435 444 C435 433 437 427 437 427 L435 427 C404 489 335 515 268 515 C133 515 50 412 50 261 C50 110 139 3 274 3 C352 3 404 39 434 96 L436 96 C436 96 432 78 432 59 L432 9 C432 -103 355 -148 257 -148 C210 -148 159 -134 120 -114 L120 -114 Z M119 262 C119 382 177 454 275 454 C364 454 434 408 434 261 C434 113 364 64 284 64 C185 64 119 141 119 262 L119 262 Z M284 582 C343 582 399 618 399 689 L399 704 L344 704 L344 691 C344 647 314 629 284 629 C251 629 223 647 223 690 L223 704 L168 704 L168 689 C168 618 224 582 284 582 L284 582 Z " />
<glyph glyph-name="Gdotaccent" unicode="&#x120;" horiz-adv-x="758" d="M55 352 C55 143 207 -12 400 -12 C493 -12 579 28 629 83 L631 83 C631 83 630 68 630 53 L630 0 L693 0 L693 336 L508 336 L508 274 L628 274 L628 155 C573 93 491 53 407 53 C246 53 127 180 127 353 C127 519 242 650 413 650 C488 650 573 621 622 580 L660 633 C591 689 498 715 410 715 C208 715 55 555 55 352 L55 352 Z M366 786 L431 786 L431 871 L366 871 L366 786 Z " />
<glyph glyph-name="gdotaccent" unicode="&#x121;" horiz-adv-x="582" d="M120 -114 L95 -169 C144 -195 202 -210 259 -210 C383 -210 501 -148 501 12 L501 503 L435 503 L435 444 C435 433 437 427 437 427 L435 427 C404 489 335 515 268 515 C133 515 50 412 50 261 C50 110 139 3 274 3 C352 3 404 39 434 96 L436 96 C436 96 432 78 432 59 L432 9 C432 -103 355 -148 257 -148 C210 -148 159 -134 120 -114 L120 -114 Z M119 262 C119 382 177 454 275 454 C364 454 434 408 434 261 C434 113 364 64 284 64 C185 64 119 141 119 262 L119 262 Z M251 619 L316 619 L316 704 L251 704 L251 619 Z " />
<glyph glyph-name="Gcommaaccent" unicode="&#x122;" horiz-adv-x="758" d="M366 -63 C374 -85 377 -103 377 -121 C377 -147 370 -172 358 -202 L414 -202 C429 -169 437 -142 437 -112 C437 -96 435 -81 431 -63 L366 -63 Z M55 352 C55 143 207 -12 400 -12 C493 -12 579 28 629 83 L631 83 C631 83 630 68 630 53 L630 0 L693 0 L693 336 L508 336 L508 274 L628 274 L628 155 C573 93 491 53 407 53 C246 53 127 180 127 353 C127 519 242 650 413 650 C488 650 573 621 622 580 L660 633 C591 689 498 715 410 715 C208 715 55 555 55 352 L55 352 Z " />
<glyph glyph-name="gcommaaccent" unicode="&#x123;" horiz-adv-x="582" d="M318 565 C310 586 307 604 307 622 C307 648 314 673 326 703 L270 703 C255 670 247 643 247 613 C247 597 249 582 253 565 L318 565 Z M120 -114 L95 -169 C144 -195 202 -210 259 -210 C383 -210 501 -148 501 12 L501 503 L435 503 L435 444 C435 433 437 427 437 427 L435 427 C404 489 335 515 268 515 C133 515 50 412 50 261 C50 110 139 3 274 3 C352 3 404 39 434 96 L436 96 C436 96 432 78 432 59 L432 9 C432 -103 355 -148 257 -148 C210 -148 159 -134 120 -114 L120 -114 Z M119 262 C119 382 177 454 275 454 C364 454 434 408 434 261 C434 113 364 64 284 64 C185 64 119 141 119 262 L119 262 Z " />
<glyph glyph-name="Hcircumflex" unicode="&#x124;" horiz-adv-x="747" d="M252 752 L318 752 L372 832 L374 832 L428 752 L494 752 L410 871 L335 871 L252 752 Z M101 0 L170 0 L170 321 L577 321 L577 0 L647 0 L647 703 L577 703 L577 383 L170 383 L170 703 L101 703 L101 0 Z " />
<glyph glyph-name="hcircumflex" unicode="&#x125;" horiz-adv-x="594" d="M-4 752 L62 752 L116 832 L118 832 L172 752 L238 752 L154 871 L79 871 L-4 752 Z M81 0 L149 0 L149 243 C149 364 234 451 340 451 C437 451 450 381 450 302 L450 0 L518 0 L518 320 C518 444 474 515 349 515 C235 515 167 433 148 386 L146 386 C146 386 149 404 149 427 L149 703 L81 703 L81 0 Z " />
<glyph glyph-name="Hbar" unicode="&#x126;" horiz-adv-x="758" d="M107 0 L177 0 L177 321 L581 321 L581 0 L651 0 L651 512 L716 512 L716 565 L651 565 L651 703 L581 703 L581 565 L177 565 L177 703 L107 703 L107 565 L42 565 L42 512 L107 512 L107 0 Z M177 383 L177 512 L581 512 L581 383 L177 383 Z " />
<glyph glyph-name="hbar" unicode="&#x127;" horiz-adv-x="594" d="M81 0 L149 0 L149 246 C149 357 229 451 340 451 C437 451 450 381 450 302 L450 0 L518 0 L518 320 C518 444 474 515 349 515 C235 515 169 437 149 390 L147 390 C147 390 149 408 149 431 L149 566 L283 566 L283 617 L149 617 L149 703 L81 703 L81 617 L5 617 L5 566 L81 566 L81 0 Z " />
<glyph glyph-name="Itilde" unicode="&#x128;" horiz-adv-x="271" d="M101 0 L170 0 L170 703 L101 703 L101 0 Z M-19 755 L36 755 C36 781 42 823 75 823 C120 823 134 752 201 752 C262 752 293 792 293 868 L239 868 C239 843 232 800 199 800 C154 800 140 871 73 871 C12 871 -19 832 -19 755 L-19 755 Z " />
<glyph glyph-name="itilde" unicode="&#x129;" horiz-adv-x="230" d="M81 0 L149 0 L149 503 L81 503 L81 0 Z M-39 588 L16 588 C16 614 22 656 55 656 C100 656 114 585 181 585 C242 585 273 625 273 701 L219 701 C219 676 212 633 179 633 C134 633 120 704 53 704 C-8 704 -39 665 -39 588 L-39 588 Z " />
<glyph glyph-name="Imacron" unicode="&#x12a;" horiz-adv-x="271" d="M101 0 L170 0 L170 703 L101 703 L101 0 Z M14 785 L260 785 L260 840 L14 840 L14 785 Z " />
<glyph glyph-name="imacron" unicode="&#x12b;" horiz-adv-x="230" d="M81 0 L149 0 L149 503 L81 503 L81 0 Z M-7 618 L239 618 L239 673 L-7 673 L-7 618 Z " />
<glyph glyph-name="Ibreve" unicode="&#x12c;" horiz-adv-x="271" d="M101 0 L170 0 L170 703 L101 703 L101 0 Z M137 749 C196 749 252 785 252 856 L252 871 L197 871 L197 858 C197 814 167 796 137 796 C104 796 76 814 76 857 L76 871 L21 871 L21 856 C21 785 77 749 137 749 L137 749 Z " />
<glyph glyph-name="ibreve" unicode="&#x12d;" horiz-adv-x="230" d="M81 0 L149 0 L149 503 L81 503 L81 0 Z M117 582 C176 582 232 618 232 689 L232 704 L177 704 L177 691 C177 647 147 629 117 629 C84 629 56 647 56 690 L56 704 L1 704 L1 689 C1 618 57 582 117 582 L117 582 Z " />
<glyph glyph-name="Iogonek" unicode="&#x12e;" horiz-adv-x="271" d="M101 0 L104 0 C74 -23 34 -65 34 -113 C34 -198 144 -205 144 -205 L159 -149 C159 -149 97 -144 97 -99 C97 -59 148 -17 170 0 L170 703 L101 703 L101 0 Z " />
<glyph glyph-name="iogonek" unicode="&#x12f;" horiz-adv-x="231" d="M81 0 L86 0 C56 -22 14 -63 14 -112 C14 -198 124 -205 124 -205 L139 -149 C139 -149 77 -144 77 -99 C77 -59 128 -17 150 0 L149 1 L149 503 L81 503 L81 0 Z M78 618 L152 618 L152 703 L78 703 L78 618 Z " />
<glyph glyph-name="Idotaccent" unicode="&#x130;" horiz-adv-x="271" d="M101 0 L170 0 L170 703 L101 703 L101 0 Z M104 786 L169 786 L169 871 L104 871 L104 786 Z " />
<glyph glyph-name="dotlessi" unicode="&#x131;" horiz-adv-x="230" d="M81 0 L149 0 L149 503 L81 503 L81 0 Z " />
<glyph glyph-name="IJ" unicode="&#x132;" horiz-adv-x="581" d="M271 -5 C370 -5 487 33 487 228 L487 703 L417 703 L417 228 C417 83 334 60 271 60 L271 -5 Z M101 0 L170 0 L170 703 L101 703 L101 0 Z " />
<glyph glyph-name="ij" unicode="&#x133;" horiz-adv-x="461" d="M78 618 L152 618 L152 703 L78 703 L78 618 Z M81 0 L149 0 L149 503 L81 503 L81 0 Z M308 618 L382 618 L382 703 L308 703 L308 618 Z M311 -16 C311 -131 235 -145 197 -145 C187 -145 179 -144 175 -143 L175 -203 C185 -205 194 -206 204 -206 C261 -206 379 -186 379 -18 L379 503 L311 503 L311 -16 Z " />
<glyph glyph-name="Jcircumflex" unicode="&#x134;" horiz-adv-x="520" d="M184 752 L250 752 L304 832 L306 832 L360 752 L426 752 L342 871 L267 871 L184 752 Z M32 197 C32 46 132 -12 229 -12 C326 -12 426 45 426 197 L426 703 L185 703 L185 641 L357 641 L357 197 C357 90 293 53 228 53 C139 53 101 122 101 199 L101 225 L32 225 L32 197 Z " />
<glyph glyph-name="jcircumflex" unicode="&#x135;" horiz-adv-x="230" d="M-8 584 L57 584 L111 665 L113 665 L167 584 L232 584 L148 703 L76 703 L-8 584 Z M81 -16 C81 -131 5 -145 -33 -145 C-42 -145 -49 -144 -55 -143 L-55 -203 C-45 -205 -36 -206 -26 -206 C31 -206 149 -186 149 -18 L149 503 L81 503 L81 -16 Z " />
<glyph glyph-name="Kcommaaccent" unicode="&#x136;" horiz-adv-x="591" d="M275 -63 C283 -85 286 -103 286 -121 C286 -147 279 -172 267 -202 L323 -202 C338 -169 346 -142 346 -112 C346 -96 344 -81 340 -63 L275 -63 Z M101 0 L170 0 L170 336 L288 336 L490 0 L571 0 L346 369 L346 371 L557 703 L478 703 L288 398 L170 398 L170 703 L101 703 L101 0 Z " />
<glyph glyph-name="kcommaaccent" unicode="&#x137;" horiz-adv-x="496" d="M226 -63 C234 -85 237 -103 237 -121 C237 -147 230 -172 218 -202 L274 -202 C289 -169 297 -142 297 -112 C297 -96 295 -81 291 -63 L226 -63 Z M81 0 L149 0 L149 251 L231 251 L398 0 L480 0 L287 282 L287 284 L462 503 L380 503 L230 311 L149 311 L149 703 L81 703 L81 0 Z " />
<glyph glyph-name="kgreenlandic" unicode="&#x138;" horiz-adv-x="494" d="M81 0 L149 0 L149 238 L229 238 L387 0 L471 0 L287 268 L287 270 L470 503 L387 503 L228 297 L149 297 L149 503 L81 503 L81 0 Z " />
<glyph glyph-name="Lacute" unicode="&#x139;" horiz-adv-x="517" d="M104 752 L165 752 L252 871 L173 871 L104 752 Z M101 0 L496 0 L496 62 L170 62 L170 703 L101 703 L101 0 Z " />
<glyph glyph-name="lacute" unicode="&#x13a;" horiz-adv-x="246" d="M85 752 L146 752 L233 871 L154 871 L85 752 Z M81 119 C81 9 156 -4 197 -4 C208 -4 216 -3 222 -2 L222 59 C216 58 210 58 206 58 C180 58 149 68 149 134 L149 703 L81 703 L81 119 Z " />
<glyph glyph-name="Lcommaaccent" unicode="&#x13b;" horiz-adv-x="517" d="M271 -63 C279 -85 282 -103 282 -121 C282 -147 275 -172 263 -202 L319 -202 C334 -169 342 -142 342 -112 C342 -96 340 -81 336 -63 L271 -63 Z M101 0 L496 0 L496 62 L170 62 L170 703 L101 703 L101 0 Z " />
<glyph glyph-name="lcommaaccent" unicode="&#x13c;" horiz-adv-x="246" d="M116 -63 C124 -85 127 -103 127 -121 C127 -147 120 -172 108 -202 L164 -202 C179 -169 187 -142 187 -112 C187 -96 185 -81 181 -63 L116 -63 Z M81 119 C81 9 156 -4 197 -4 C208 -4 216 -3 222 -2 L222 59 C216 58 210 58 206 58 C180 58 149 68 149 134 L149 703 L81 703 L81 119 Z " />
<glyph glyph-name="Lcaron" unicode="&#x13d;" horiz-adv-x="517" d="M261 702 C269 680 272 662 272 644 C272 618 265 593 253 563 L309 563 C324 596 332 623 332 653 C332 669 330 684 326 702 L261 702 Z M101 0 L496 0 L496 62 L170 62 L170 703 L101 703 L101 0 Z " />
<glyph glyph-name="lcaron" unicode="&#x13e;" horiz-adv-x="250" d="M213 702 C221 680 224 662 224 644 C224 618 217 593 205 563 L261 563 C276 596 284 623 284 653 C284 669 282 684 278 702 L213 702 Z M81 119 C81 9 156 -4 197 -4 C208 -4 216 -3 222 -2 L222 59 C216 58 210 58 206 58 C180 58 149 68 149 134 L149 703 L81 703 L81 119 Z " />
<glyph glyph-name="Ldot" unicode="&#x13f;" horiz-adv-x="517" d="M101 0 L496 0 L496 62 L170 62 L170 703 L101 703 L101 0 Z M294 330 L374 330 L374 413 L294 413 L294 330 Z " />
<glyph glyph-name="ldot" unicode="&#x140;" horiz-adv-x="285" d="M81 119 C81 9 156 -4 197 -4 C208 -4 216 -3 222 -2 L222 59 C216 58 210 58 206 58 C180 58 149 68 149 134 L149 703 L81 703 L81 119 Z M217 330 L297 330 L297 413 L217 413 L217 330 Z " />
<glyph glyph-name="Lslash" unicode="&#x141;" horiz-adv-x="522" d="M106 0 L501 0 L501 62 L175 62 L175 377 L288 442 L288 513 L175 448 L175 703 L106 703 L106 408 L44 372 L44 302 L106 337 L106 0 Z " />
<glyph glyph-name="lslash" unicode="&#x142;" horiz-adv-x="268" d="M16 306 L97 352 L97 119 C97 9 171 -4 213 -4 C226 -4 238 -2 238 -2 L238 59 C238 59 230 58 222 58 C196 58 165 68 165 134 L165 391 L252 442 L252 513 L165 462 L165 703 L97 703 L97 423 L16 376 L16 306 Z " />
<glyph glyph-name="Nacute" unicode="&#x143;" horiz-adv-x="751" d="M342 752 L403 752 L490 871 L411 871 L342 752 Z M101 0 L170 0 L170 506 C170 543 164 601 164 601 L166 601 C166 601 200 541 224 506 L583 0 L650 0 L650 703 L581 703 L581 197 C581 160 587 102 587 102 L585 102 C585 102 551 162 527 197 L168 703 L101 703 L101 0 Z " />
<glyph glyph-name="nacute" unicode="&#x144;" horiz-adv-x="594" d="M276 585 L337 585 L424 704 L345 704 L276 585 Z M81 0 L149 0 L149 246 C149 363 233 451 340 451 C437 451 450 381 450 302 L450 0 L518 0 L518 320 C518 444 474 515 349 515 C231 515 165 430 146 384 L144 384 C144 384 148 402 148 424 L148 503 L81 503 L81 0 Z " />
<glyph glyph-name="Ncommaaccent" unicode="&#x145;" horiz-adv-x="751" d="M341 -63 C349 -85 352 -103 352 -121 C352 -147 345 -172 333 -202 L389 -202 C404 -169 412 -142 412 -112 C412 -96 410 -81 406 -63 L341 -63 Z M101 0 L170 0 L170 506 C170 543 164 601 164 601 L166 601 C166 601 200 541 224 506 L583 0 L650 0 L650 703 L581 703 L581 197 C581 160 587 102 587 102 L585 102 C585 102 551 162 527 197 L168 703 L101 703 L101 0 Z " />
<glyph glyph-name="ncommaaccent" unicode="&#x146;" horiz-adv-x="594" d="M265 -63 C273 -85 276 -103 276 -121 C276 -147 269 -172 257 -202 L313 -202 C328 -169 336 -142 336 -112 C336 -96 334 -81 330 -63 L265 -63 Z M81 0 L149 0 L149 246 C149 363 233 451 340 451 C437 451 450 381 450 302 L450 0 L518 0 L518 320 C518 444 474 515 349 515 C231 515 165 430 146 384 L144 384 C144 384 148 402 148 424 L148 503 L81 503 L81 0 Z " />
<glyph glyph-name="Ncaron" unicode="&#x147;" horiz-adv-x="751" d="M337 752 L412 752 L496 871 L430 871 L376 791 L374 791 L320 871 L254 871 L337 752 Z M101 0 L170 0 L170 506 C170 543 164 601 164 601 L166 601 C166 601 200 541 224 506 L583 0 L650 0 L650 703 L581 703 L581 197 C581 160 587 102 587 102 L585 102 C585 102 551 162 527 197 L168 703 L101 703 L101 0 Z " />
<glyph glyph-name="ncaron" unicode="&#x148;" horiz-adv-x="594" d="M271 585 L346 585 L430 704 L364 704 L310 624 L308 624 L254 704 L188 704 L271 585 Z M81 0 L149 0 L149 246 C149 363 233 451 340 451 C437 451 450 381 450 302 L450 0 L518 0 L518 320 C518 444 474 515 349 515 C231 515 165 430 146 384 L144 384 C144 384 148 402 148 424 L148 503 L81 503 L81 0 Z " />
<glyph glyph-name="napostrophe" unicode="&#x149;" horiz-adv-x="594" d="M19 702 C27 680 30 662 30 644 C30 618 23 593 11 563 L67 563 C82 596 90 623 90 653 C90 669 88 684 84 702 L19 702 Z M81 0 L149 0 L149 246 C149 363 233 451 340 451 C437 451 450 381 450 302 L450 0 L518 0 L518 320 C518 444 474 515 349 515 C231 515 165 430 146 384 L144 384 C144 384 148 402 148 424 L148 503 L81 503 L81 0 Z " />
<glyph glyph-name="Eng" unicode="&#x14a;" horiz-adv-x="751" d="M101 0 L170 0 L170 506 C170 543 164 601 164 601 L166 601 C166 601 200 541 224 506 L579 5 C577 -104 503 -140 442 -140 L442 -205 C541 -205 650 -154 650 12 L650 703 L581 703 L581 197 C581 160 587 102 587 102 L585 102 C585 102 551 162 527 197 L168 703 L101 703 L101 0 Z " />
<glyph glyph-name="eng" unicode="&#x14b;" horiz-adv-x="594" d="M81 0 L149 0 L149 246 C149 357 228 451 340 451 C437 451 450 381 450 302 L450 -20 C450 -135 374 -149 335 -149 C322 -149 313 -148 313 -148 L313 -207 C313 -207 325 -210 342 -210 C399 -210 518 -190 518 -23 L518 320 C518 444 474 515 349 515 C231 515 167 434 148 388 L146 388 C146 388 148 404 148 423 L148 503 L81 503 L81 0 Z " />
<glyph glyph-name="Omacron" unicode="&#x14c;" horiz-adv-x="825" d="M289 785 L535 785 L535 840 L289 840 L289 785 Z M54 357 C54 150 207 -12 412 -12 C618 -12 770 150 770 357 C770 558 618 715 412 715 C207 715 54 558 54 357 L54 357 Z M126 357 C126 523 248 650 412 650 C577 650 698 523 698 357 C698 185 577 53 412 53 C248 53 126 185 126 357 L126 357 Z " />
<glyph glyph-name="omacron" unicode="&#x14d;" horiz-adv-x="624" d="M189 618 L435 618 L435 673 L189 673 L189 618 Z M47 254 C47 102 165 -12 312 -12 C459 -12 578 102 578 254 C578 403 459 515 312 515 C165 515 47 403 47 254 L47 254 Z M117 254 C117 368 204 454 312 454 C420 454 508 368 508 254 C508 136 420 50 312 50 C204 50 117 136 117 254 L117 254 Z " />
<glyph glyph-name="Obreve" unicode="&#x14e;" horiz-adv-x="825" d="M54 357 C54 150 207 -12 412 -12 C618 -12 770 150 770 357 C770 558 618 715 412 715 C207 715 54 558 54 357 L54 357 Z M126 357 C126 523 248 650 412 650 C577 650 698 523 698 357 C698 185 577 53 412 53 C248 53 126 185 126 357 L126 357 Z M412 749 C471 749 527 785 527 856 L527 871 L472 871 L472 858 C472 814 442 796 412 796 C379 796 351 814 351 857 L351 871 L296 871 L296 856 C296 785 352 749 412 749 L412 749 Z " />
<glyph glyph-name="obreve" unicode="&#x14f;" horiz-adv-x="624" d="M47 254 C47 102 165 -12 312 -12 C459 -12 578 102 578 254 C578 403 459 515 312 515 C165 515 47 403 47 254 L47 254 Z M117 254 C117 368 204 454 312 454 C420 454 508 368 508 254 C508 136 420 50 312 50 C204 50 117 136 117 254 L117 254 Z M312 582 C371 582 427 618 427 689 L427 704 L372 704 L372 691 C372 647 342 629 312 629 C279 629 251 647 251 690 L251 704 L196 704 L196 689 C196 618 252 582 312 582 L312 582 Z " />
<glyph glyph-name="Ohungarumlaut" unicode="&#x150;" horiz-adv-x="825" d="M433 752 L493 752 L580 871 L503 871 L433 752 Z M299 752 L364 752 L432 871 L364 871 L299 752 Z M54 357 C54 150 207 -12 412 -12 C618 -12 770 150 770 357 C770 558 618 715 412 715 C207 715 54 558 54 357 L54 357 Z M126 357 C126 523 248 650 412 650 C577 650 698 523 698 357 C698 185 577 53 412 53 C248 53 126 185 126 357 L126 357 Z " />
<glyph glyph-name="ohungarumlaut" unicode="&#x151;" horiz-adv-x="624" d="M333 585 L393 585 L480 704 L403 704 L333 585 Z M199 585 L264 585 L332 704 L264 704 L199 585 Z M47 254 C47 102 165 -12 312 -12 C459 -12 578 102 578 254 C578 403 459 515 312 515 C165 515 47 403 47 254 L47 254 Z M117 254 C117 368 204 454 312 454 C420 454 508 368 508 254 C508 136 420 50 312 50 C204 50 117 136 117 254 L117 254 Z " />
<glyph glyph-name="OE" unicode="&#x152;" horiz-adv-x="943" d="M55 352 C55 149 206 -10 414 -10 C454 -10 502 0 533 0 L898 0 L898 62 L553 62 L553 323 L820 323 L820 385 L553 385 L553 641 L880 641 L880 703 L533 703 C501 703 454 712 414 712 C206 712 55 554 55 352 L55 352 Z M127 352 C127 520 242 650 414 650 C452 650 484 642 484 642 L484 61 C484 61 452 53 414 53 C242 53 127 183 127 352 L127 352 Z " />
<glyph glyph-name="oe" unicode="&#x153;" horiz-adv-x="1013" d="M47 251 C47 91 168 -12 311 -12 C413 -12 497 40 539 125 L541 125 C582 41 665 -12 770 -12 C838 -12 910 15 957 58 L926 110 C884 73 829 50 773 50 C672 50 584 118 578 249 L964 249 C964 249 966 270 966 283 C966 408 895 515 755 515 C659 515 579 466 540 380 L538 380 C496 463 412 515 311 515 C168 515 47 410 47 251 L47 251 Z M581 303 C597 403 670 458 754 458 C829 458 892 407 896 303 L581 303 Z M117 251 C117 372 206 454 312 454 C416 454 508 376 508 254 C508 129 418 50 312 50 C206 50 117 129 117 251 L117 251 Z " />
<glyph glyph-name="Racute" unicode="&#x154;" horiz-adv-x="617" d="M268 752 L329 752 L416 871 L337 871 L268 752 Z M101 0 L170 0 L170 296 L347 296 L505 0 L585 0 L432 283 C421 302 413 311 413 311 L413 313 C493 335 547 412 547 507 C547 592 506 653 443 683 C414 696 381 703 314 703 L101 703 L101 0 Z M170 358 L170 641 L310 641 C360 641 382 637 402 628 C449 607 476 561 476 505 C476 417 422 358 337 358 L170 358 Z " />
<glyph glyph-name="racute" unicode="&#x155;" horiz-adv-x="357" d="M181 584 L242 584 L329 703 L250 703 L181 584 Z M81 0 L149 0 L149 213 C149 313 196 440 309 440 C319 440 331 439 334 438 L334 505 C326 507 316 508 307 508 C229 508 171 446 146 370 L144 370 C144 370 148 388 148 410 L148 503 L81 503 L81 0 Z " />
<glyph glyph-name="Rcommaaccent" unicode="&#x156;" horiz-adv-x="617" d="M287 -63 C295 -85 298 -103 298 -121 C298 -147 291 -172 279 -202 L335 -202 C350 -169 358 -142 358 -112 C358 -96 356 -81 352 -63 L287 -63 Z M101 0 L170 0 L170 296 L347 296 L505 0 L585 0 L432 283 C421 302 413 311 413 311 L413 313 C493 335 547 412 547 507 C547 592 506 653 443 683 C414 696 381 703 314 703 L101 703 L101 0 Z M170 358 L170 641 L310 641 C360 641 382 637 402 628 C449 607 476 561 476 505 C476 417 422 358 337 358 L170 358 Z " />
<glyph glyph-name="rcommaaccent" unicode="&#x157;" horiz-adv-x="357" d="M84 -63 C92 -85 95 -103 95 -121 C95 -147 88 -172 76 -202 L132 -202 C147 -169 155 -142 155 -112 C155 -96 153 -81 149 -63 L84 -63 Z M81 0 L149 0 L149 213 C149 313 196 440 309 440 C319 440 331 439 334 438 L334 505 C326 507 316 508 307 508 C229 508 171 446 146 370 L144 370 C144 370 148 388 148 410 L148 503 L81 503 L81 0 Z " />
<glyph glyph-name="Rcaron" unicode="&#x158;" horiz-adv-x="617" d="M263 752 L338 752 L422 871 L356 871 L302 791 L300 791 L246 871 L180 871 L263 752 Z M101 0 L170 0 L170 296 L347 296 L505 0 L585 0 L432 283 C421 302 413 311 413 311 L413 313 C493 335 547 412 547 507 C547 592 506 653 443 683 C414 696 381 703 314 703 L101 703 L101 0 Z M170 358 L170 641 L310 641 C360 641 382 637 402 628 C449 607 476 561 476 505 C476 417 422 358 337 358 L170 358 Z " />
<glyph glyph-name="rcaron" unicode="&#x159;" horiz-adv-x="357" d="M177 584 L252 584 L336 703 L270 703 L216 623 L214 623 L160 703 L94 703 L177 584 Z M81 0 L149 0 L149 213 C149 313 196 440 309 440 C319 440 331 439 334 438 L334 505 C326 507 316 508 307 508 C229 508 171 446 146 370 L144 370 C144 370 148 388 148 410 L148 503 L81 503 L81 0 Z " />
<glyph glyph-name="Sacute" unicode="&#x15a;" horiz-adv-x="534" d="M236 752 L297 752 L384 871 L305 871 L236 752 Z M47 78 C105 20 187 -12 268 -12 C404 -12 483 73 483 181 C483 407 133 362 133 531 C133 605 200 649 280 649 C336 649 397 625 435 589 L469 647 C421 692 349 715 283 715 C159 715 62 642 62 527 C62 309 412 351 412 174 C412 101 353 54 270 54 C200 54 132 88 88 131 L47 78 Z " />
<glyph glyph-name="sacute" unicode="&#x15b;" horiz-adv-x="438" d="M189 585 L250 585 L337 704 L258 704 L189 585 Z M37 61 C85 11 157 -12 224 -12 C323 -12 394 47 394 130 C394 296 125 262 125 377 C125 432 173 455 226 455 C271 455 323 438 352 409 L384 460 C343 499 284 515 229 515 C137 515 58 467 58 375 C58 210 326 241 326 129 C326 76 281 48 225 48 C170 48 111 70 73 109 L37 61 Z " />
<glyph glyph-name="Scircumflex" unicode="&#x15c;" horiz-adv-x="534" d="M148 752 L214 752 L268 832 L270 832 L324 752 L390 752 L306 871 L231 871 L148 752 Z M47 78 C105 20 187 -12 268 -12 C404 -12 483 73 483 181 C483 407 133 362 133 531 C133 605 200 649 280 649 C336 649 397 625 435 589 L469 647 C421 692 349 715 283 715 C159 715 62 642 62 527 C62 309 412 351 412 174 C412 101 353 54 270 54 C200 54 132 88 88 131 L47 78 Z " />
<glyph glyph-name="scircumflex" unicode="&#x15d;" horiz-adv-x="438" d="M102 585 L168 585 L222 665 L224 665 L278 585 L344 585 L260 704 L185 704 L102 585 Z M37 61 C85 11 157 -12 224 -12 C323 -12 394 47 394 130 C394 296 125 262 125 377 C125 432 173 455 226 455 C271 455 323 438 352 409 L384 460 C343 499 284 515 229 515 C137 515 58 467 58 375 C58 210 326 241 326 129 C326 76 281 48 225 48 C170 48 111 70 73 109 L37 61 Z " />
<glyph glyph-name="Scedilla" unicode="&#x15e;" horiz-adv-x="535" d="M227 -91 C227 -91 234 -90 242 -90 C277 -90 299 -102 299 -124 C299 -151 274 -158 248 -158 C235 -158 216 -156 206 -152 L206 -200 C222 -204 239 -205 256 -205 C305 -205 352 -184 352 -126 C352 -86 323 -61 282 -55 L290 -11 C412 -3 483 79 483 181 C483 407 133 362 133 531 C133 605 200 649 280 649 C336 649 397 625 435 589 L469 647 C421 692 349 715 283 715 C159 715 62 642 62 527 C62 309 412 351 412 174 C412 101 353 54 270 54 C200 54 132 88 88 131 L47 78 C99 25 172 -5 245 -11 L227 -91 Z " />
<glyph glyph-name="scedilla" unicode="&#x15f;" horiz-adv-x="440" d="M179 -91 C179 -91 186 -90 194 -90 C229 -90 251 -102 251 -124 C251 -151 226 -158 200 -158 C187 -158 168 -156 158 -152 L158 -200 C174 -204 191 -205 208 -205 C257 -205 304 -184 304 -126 C304 -86 275 -61 234 -55 L242 -11 C332 -5 395 52 395 130 C395 296 126 262 126 377 C126 432 174 455 227 455 C272 455 324 438 353 409 L385 460 C344 499 285 515 230 515 C138 515 59 467 59 375 C59 210 327 241 327 129 C327 76 282 48 226 48 C171 48 112 70 74 109 L38 61 C79 17 139 -5 198 -11 L179 -91 Z " />
<glyph glyph-name="Scaron" unicode="&#x160;" horiz-adv-x="534" d="M231 752 L306 752 L390 871 L324 871 L270 791 L268 791 L214 871 L148 871 L231 752 Z M47 78 C105 20 187 -12 268 -12 C404 -12 483 73 483 181 C483 407 133 362 133 531 C133 605 200 649 280 649 C336 649 397 625 435 589 L469 647 C421 692 349 715 283 715 C159 715 62 642 62 527 C62 309 412 351 412 174 C412 101 353 54 270 54 C200 54 132 88 88 131 L47 78 Z " />
<glyph glyph-name="scaron" unicode="&#x161;" horiz-adv-x="438" d="M185 585 L260 585 L344 704 L278 704 L224 624 L222 624 L168 704 L102 704 L185 585 Z M37 61 C85 11 157 -12 224 -12 C323 -12 394 47 394 130 C394 296 125 262 125 377 C125 432 173 455 226 455 C271 455 323 438 352 409 L384 460 C343 499 284 515 229 515 C137 515 58 467 58 375 C58 210 326 241 326 129 C326 76 281 48 225 48 C170 48 111 70 73 109 L37 61 Z " />
<glyph glyph-name="Tcommaaccent" unicode="&#x162;" horiz-adv-x="607" d="M269 0 L280 0 L259 -91 C259 -91 266 -90 274 -90 C309 -90 331 -102 331 -124 C331 -151 306 -158 280 -158 C267 -158 248 -156 238 -152 L238 -200 C254 -204 271 -205 288 -205 C337 -205 384 -184 384 -126 C384 -86 355 -61 314 -55 L324 0 L338 0 L338 641 L591 641 L591 703 L17 703 L17 641 L269 641 L269 0 Z " />
<glyph glyph-name="tcommaaccent" unicode="&#x163;" horiz-adv-x="325" d="M153 -91 C153 -91 160 -90 168 -90 C203 -90 225 -102 225 -124 C225 -151 200 -158 174 -158 C161 -158 142 -156 132 -152 L132 -200 C148 -204 165 -205 182 -205 C231 -205 278 -184 278 -126 C278 -86 249 -61 208 -55 L218 2 C239 -3 259 -4 275 -4 C288 -4 298 -3 304 -2 L304 59 C295 57 288 57 281 57 C242 57 167 73 167 190 L167 442 L294 442 L294 499 L167 499 L167 642 L100 642 L100 499 L33 499 L33 442 L99 442 L99 183 C99 89 136 42 178 18 L153 -91 Z " />
<glyph glyph-name="Tcaron" unicode="&#x164;" horiz-adv-x="607" d="M265 752 L340 752 L424 871 L358 871 L304 791 L302 791 L248 871 L182 871 L265 752 Z M269 0 L338 0 L338 641 L591 641 L591 703 L17 703 L17 641 L269 641 L269 0 Z " />
<glyph glyph-name="tcaron" unicode="&#x165;" horiz-adv-x="325" d="M234 702 C242 680 245 662 245 644 C245 619 238 594 226 564 L282 564 C297 597 305 624 305 653 C305 669 303 684 299 702 L234 702 Z M99 183 C99 15 217 -4 275 -4 C288 -4 298 -3 304 -2 L304 59 C295 57 288 57 281 57 C242 57 167 73 167 190 L167 442 L294 442 L294 499 L167 499 L167 642 L100 642 L100 499 L33 499 L33 442 L99 442 L99 183 Z " />
<glyph glyph-name="Tbar" unicode="&#x166;" horiz-adv-x="617" d="M274 0 L343 0 L343 324 L509 324 L509 381 L343 381 L343 641 L596 641 L596 703 L22 703 L22 641 L274 641 L274 381 L113 381 L113 324 L274 324 L274 0 Z " />
<glyph glyph-name="tbar" unicode="&#x167;" horiz-adv-x="330" d="M33 278 L102 278 L102 183 C102 15 219 -4 277 -4 C294 -4 306 -2 306 -2 L306 59 C306 59 297 57 283 57 C244 57 169 73 169 188 L169 278 L294 278 L294 331 L169 331 L169 442 L296 442 L296 499 L169 499 L169 642 L102 642 L102 499 L36 499 L36 442 L102 442 L102 331 L33 331 L33 278 Z " />
<glyph glyph-name="Utilde" unicode="&#x168;" horiz-adv-x="723" d="M93 245 C93 89 203 -12 362 -12 C521 -12 631 89 631 245 L631 703 L561 703 L561 248 C561 125 482 53 361 53 C241 53 162 125 162 246 L162 703 L93 703 L93 245 Z M205 755 L260 755 C260 781 266 823 299 823 C344 823 358 752 425 752 C486 752 517 792 517 868 L463 868 C463 843 456 800 423 800 C378 800 364 871 297 871 C236 871 205 832 205 755 L205 755 Z " />
<glyph glyph-name="utilde" unicode="&#x169;" horiz-adv-x="588" d="M75 183 C75 52 125 -12 244 -12 C355 -12 423 70 442 119 L444 119 C444 119 440 101 440 79 L440 0 L507 0 L507 503 L439 503 L439 262 C439 153 368 52 253 52 C156 52 144 122 144 201 L144 503 L75 503 L75 183 Z M135 588 L190 588 C190 614 196 656 229 656 C274 656 288 585 355 585 C416 585 447 625 447 701 L393 701 C393 676 386 633 353 633 C308 633 294 704 227 704 C166 704 135 665 135 588 L135 588 Z " />
<glyph glyph-name="Umacron" unicode="&#x16a;" horiz-adv-x="723" d="M93 245 C93 89 203 -12 362 -12 C521 -12 631 89 631 245 L631 703 L561 703 L561 248 C561 125 482 53 361 53 C241 53 162 125 162 246 L162 703 L93 703 L93 245 Z M238 785 L484 785 L484 840 L238 840 L238 785 Z " />
<glyph glyph-name="umacron" unicode="&#x16b;" horiz-adv-x="588" d="M75 183 C75 52 125 -12 244 -12 C355 -12 423 70 442 119 L444 119 C444 119 440 101 440 79 L440 0 L507 0 L507 503 L439 503 L439 262 C439 153 368 52 253 52 C156 52 144 122 144 201 L144 503 L75 503 L75 183 Z M168 618 L414 618 L414 673 L168 673 L168 618 Z " />
<glyph glyph-name="Ubreve" unicode="&#x16c;" horiz-adv-x="723" d="M93 245 C93 89 203 -12 362 -12 C521 -12 631 89 631 245 L631 703 L561 703 L561 248 C561 125 482 53 361 53 C241 53 162 125 162 246 L162 703 L93 703 L93 245 Z M361 749 C420 749 476 785 476 856 L476 871 L421 871 L421 858 C421 814 391 796 361 796 C328 796 300 814 300 857 L300 871 L245 871 L245 856 C245 785 301 749 361 749 L361 749 Z " />
<glyph glyph-name="ubreve" unicode="&#x16d;" horiz-adv-x="588" d="M75 183 C75 52 125 -12 244 -12 C355 -12 423 70 442 119 L444 119 C444 119 440 101 440 79 L440 0 L507 0 L507 503 L439 503 L439 262 C439 153 368 52 253 52 C156 52 144 122 144 201 L144 503 L75 503 L75 183 Z M291 582 C350 582 406 618 406 689 L406 704 L351 704 L351 691 C351 647 321 629 291 629 C258 629 230 647 230 690 L230 704 L175 704 L175 689 C175 618 231 582 291 582 L291 582 Z " />
<glyph glyph-name="Uring" unicode="&#x16e;" horiz-adv-x="723" d="M361 742 C401 742 436 770 436 812 C436 854 401 883 361 883 C319 883 285 854 285 812 C285 770 319 742 361 742 L361 742 Z M361 779 C341 779 328 793 328 812 C328 832 341 846 361 846 C380 846 393 832 393 812 C393 793 380 779 361 779 L361 779 Z M93 245 C93 89 203 -12 362 -12 C521 -12 631 89 631 245 L631 703 L561 703 L561 248 C561 125 482 53 361 53 C241 53 162 125 162 246 L162 703 L93 703 L93 245 Z " />
<glyph glyph-name="uring" unicode="&#x16f;" horiz-adv-x="588" d="M291 575 C331 575 366 603 366 645 C366 687 331 716 291 716 C249 716 215 687 215 645 C215 603 249 575 291 575 L291 575 Z M291 612 C271 612 258 626 258 645 C258 665 271 679 291 679 C310 679 323 665 323 645 C323 626 310 612 291 612 L291 612 Z M75 183 C75 52 125 -12 244 -12 C355 -12 423 70 442 119 L444 119 C444 119 440 101 440 79 L440 0 L507 0 L507 503 L439 503 L439 262 C439 153 368 52 253 52 C156 52 144 122 144 201 L144 503 L75 503 L75 183 Z " />
<glyph glyph-name="Uhungarumlaut" unicode="&#x170;" horiz-adv-x="723" d="M93 245 C93 89 203 -12 362 -12 C521 -12 631 89 631 245 L631 703 L561 703 L561 248 C561 125 482 53 361 53 C241 53 162 125 162 246 L162 703 L93 703 L93 245 Z M382 752 L442 752 L529 871 L452 871 L382 752 Z M248 752 L313 752 L381 871 L313 871 L248 752 Z " />
<glyph glyph-name="uhungarumlaut" unicode="&#x171;" horiz-adv-x="588" d="M75 183 C75 52 125 -12 244 -12 C355 -12 423 70 442 119 L444 119 C444 119 440 101 440 79 L440 0 L507 0 L507 503 L439 503 L439 262 C439 153 368 52 253 52 C156 52 144 122 144 201 L144 503 L75 503 L75 183 Z M312 585 L372 585 L459 704 L382 704 L312 585 Z M178 585 L243 585 L311 704 L243 704 L178 585 Z " />
<glyph glyph-name="Uogonek" unicode="&#x172;" horiz-adv-x="723" d="M93 245 C93 83 210 -12 360 -12 C368 -12 384 -11 384 -11 C357 -35 330 -70 330 -113 C330 -198 440 -205 440 -205 L456 -149 C456 -149 394 -144 394 -99 C394 -52 445 -19 499 17 C563 59 631 117 631 245 L631 703 L562 703 L562 248 C562 125 482 53 362 53 C241 53 162 125 162 246 L162 703 L93 703 L93 245 Z " />
<glyph glyph-name="uogonek" unicode="&#x173;" horiz-adv-x="588" d="M75 183 C75 52 125 -12 244 -12 C355 -12 423 70 442 119 L444 119 C444 119 440 101 440 79 L440 0 L443 0 C413 -22 371 -62 371 -113 C371 -198 481 -205 481 -205 L496 -149 C496 -149 434 -144 434 -99 C434 -59 485 -17 507 0 L507 503 L439 503 L439 262 C439 153 368 52 253 52 C156 52 144 122 144 201 L144 503 L75 503 L75 183 Z " />
<glyph glyph-name="Wcircumflex" unicode="&#x174;" horiz-adv-x="927" d="M350 752 L416 752 L470 832 L472 832 L526 752 L592 752 L508 871 L433 871 L350 752 Z M217 0 L300 0 L436 495 C449 540 461 600 461 600 L464 600 C464 600 476 540 489 495 L625 0 L707 0 L895 703 L823 703 L680 157 C671 121 665 82 665 82 L663 82 C663 82 656 120 646 157 L496 703 L430 703 L280 157 C269 120 262 82 262 82 L260 82 C260 82 253 121 244 157 L108 703 L35 703 L217 0 Z " />
<glyph glyph-name="wcircumflex" unicode="&#x175;" horiz-adv-x="825" d="M291 585 L357 585 L411 665 L413 665 L467 585 L533 585 L449 704 L374 704 L291 585 Z M199 0 L274 0 L396 358 C404 383 412 413 412 413 L414 413 C414 413 421 383 429 358 L552 0 L627 0 L796 503 L724 503 L603 129 C594 103 588 75 588 75 L586 75 C586 75 578 104 570 129 L447 501 L379 501 L256 129 C248 104 240 75 240 75 L238 75 C238 75 231 104 223 129 L102 503 L29 503 L199 0 Z " />
<glyph glyph-name="Ycircumflex" unicode="&#x176;" horiz-adv-x="579" d="M255 0 L324 0 L324 302 L561 703 L482 703 L333 448 C312 411 290 364 290 364 L288 364 C288 364 266 411 245 448 L96 703 L17 703 L255 302 L255 0 Z M168 752 L234 752 L288 832 L290 832 L344 752 L410 752 L326 871 L251 871 L168 752 Z " />
<glyph glyph-name="ycircumflex" unicode="&#x177;" horiz-adv-x="526" d="M45 -126 L19 -180 C19 -180 56 -210 108 -210 C175 -210 226 -169 252 -105 L500 503 L427 503 L282 136 C272 111 265 83 265 83 L263 83 C263 83 254 111 244 136 L97 503 L22 503 L231 5 L201 -67 C181 -113 149 -149 105 -149 C73 -149 45 -126 45 -126 L45 -126 Z M143 584 L209 584 L263 664 L265 664 L319 584 L385 584 L301 703 L226 703 L143 584 Z " />
<glyph glyph-name="Ydieresis" unicode="&#x178;" horiz-adv-x="579" d="M255 0 L324 0 L324 302 L561 703 L482 703 L333 448 C312 411 290 364 290 364 L288 364 C288 364 266 411 245 448 L96 703 L17 703 L255 302 L255 0 Z M329 785 L391 785 L391 871 L329 871 L329 785 Z M178 785 L239 785 L239 871 L178 871 L178 785 Z " />
<glyph glyph-name="Zacute" unicode="&#x179;" horiz-adv-x="579" d="M268 752 L329 752 L416 871 L337 871 L268 752 Z M35 0 L537 0 L537 62 L173 62 C138 62 121 60 121 60 L121 62 C121 62 145 88 170 126 L534 654 L534 703 L55 703 L55 641 L396 641 C431 641 448 643 448 643 L448 641 C448 641 424 615 399 577 L35 49 L35 0 Z " />
<glyph glyph-name="zacute" unicode="&#x17a;" horiz-adv-x="498" d="M214 585 L275 585 L362 704 L283 704 L214 585 Z M37 0 L460 0 L460 60 L178 60 C145 60 128 58 128 58 L128 60 C128 60 150 81 169 106 L450 458 L450 503 L49 503 L49 443 L308 443 C341 443 358 445 358 445 L358 443 C358 443 337 421 318 397 L37 44 L37 0 Z " />
<glyph glyph-name="Zdotaccent" unicode="&#x17b;" horiz-adv-x="579" d="M35 0 L537 0 L537 62 L173 62 C138 62 121 60 121 60 L121 62 C121 62 145 88 170 126 L534 654 L534 703 L55 703 L55 641 L396 641 C431 641 448 643 448 643 L448 641 C448 641 424 615 399 577 L35 49 L35 0 Z M268 786 L333 786 L333 871 L268 871 L268 786 Z " />
<glyph glyph-name="zdotaccent" unicode="&#x17c;" horiz-adv-x="498" d="M37 0 L460 0 L460 60 L178 60 C145 60 128 58 128 58 L128 60 C128 60 150 81 169 106 L450 458 L450 503 L49 503 L49 443 L308 443 C341 443 358 445 358 445 L358 443 C358 443 337 421 318 397 L37 44 L37 0 Z M216 619 L281 619 L281 704 L216 704 L216 619 Z " />
<glyph glyph-name="Zcaron" unicode="&#x17d;" horiz-adv-x="579" d="M262 752 L337 752 L421 871 L355 871 L301 791 L299 791 L245 871 L179 871 L262 752 Z M35 0 L537 0 L537 62 L173 62 C138 62 121 60 121 60 L121 62 C121 62 145 88 170 126 L534 654 L534 703 L55 703 L55 641 L396 641 C431 641 448 643 448 643 L448 641 C448 641 424 615 399 577 L35 49 L35 0 Z " />
<glyph glyph-name="zcaron" unicode="&#x17e;" horiz-adv-x="498" d="M210 585 L285 585 L369 704 L303 704 L249 624 L247 624 L193 704 L127 704 L210 585 Z M37 0 L460 0 L460 60 L178 60 C145 60 128 58 128 58 L128 60 C128 60 150 81 169 106 L450 458 L450 503 L49 503 L49 443 L308 443 C341 443 358 445 358 445 L358 443 C358 443 337 421 318 397 L37 44 L37 0 Z " />
<glyph glyph-name="longs" unicode="&#x17f;" horiz-adv-x="270" d="M100 0 L169 0 L169 521 C169 633 242 647 281 647 C296 647 305 645 305 645 L305 705 C305 705 293 708 274 708 C218 708 100 687 100 522 L100 499 L37 499 L37 442 L100 442 L100 0 Z " />
<glyph glyph-name="florin" unicode="&#x192;" horiz-adv-x="568" d="M34 -40 L34 -100 C34 -100 64 -106 100 -106 C156 -106 274 -86 289 80 L314 365 L444 365 L444 422 L319 422 L329 526 C340 640 413 655 452 655 C488 655 533 648 533 648 L533 708 C533 708 491 715 451 715 C394 715 274 694 260 529 L250 422 L156 422 L156 365 L245 365 L221 83 C211 -31 137 -45 98 -45 C67 -45 34 -40 34 -40 L34 -40 Z " />
<glyph glyph-name="Scommaaccent" unicode="&#x218;" horiz-adv-x="534" d="M232 -63 C240 -85 243 -103 243 -121 C243 -147 236 -172 224 -202 L280 -202 C295 -169 303 -142 303 -112 C303 -96 301 -81 297 -63 L232 -63 Z M47 78 C105 20 187 -12 268 -12 C404 -12 483 73 483 181 C483 407 133 362 133 531 C133 605 200 649 280 649 C336 649 397 625 435 589 L469 647 C421 692 349 715 283 715 C159 715 62 642 62 527 C62 309 412 351 412 174 C412 101 353 54 270 54 C200 54 132 88 88 131 L47 78 Z " />
<glyph glyph-name="scommaaccent" unicode="&#x219;" horiz-adv-x="438" d="M187 -63 C195 -85 198 -103 198 -121 C198 -147 191 -172 179 -202 L235 -202 C250 -169 258 -142 258 -112 C258 -96 256 -81 252 -63 L187 -63 Z M37 61 C85 11 157 -12 224 -12 C323 -12 394 47 394 130 C394 296 125 262 125 377 C125 432 173 455 226 455 C271 455 323 438 352 409 L384 460 C343 499 284 515 229 515 C137 515 58 467 58 375 C58 210 326 241 326 129 C326 76 281 48 225 48 C170 48 111 70 73 109 L37 61 Z " />
<glyph glyph-name="uni021A" unicode="&#x21a;" horiz-adv-x="607" d="M269 -63 C277 -85 280 -103 280 -121 C280 -147 273 -172 261 -202 L317 -202 C332 -169 340 -142 340 -112 C340 -96 338 -81 334 -63 L269 -63 Z M269 0 L338 0 L338 641 L591 641 L591 703 L17 703 L17 641 L269 641 L269 0 Z " />
<glyph glyph-name="uni021B" unicode="&#x21b;" horiz-adv-x="325" d="M169 -63 C177 -85 180 -103 180 -121 C180 -147 173 -172 161 -202 L217 -202 C232 -169 240 -142 240 -112 C240 -96 238 -81 234 -63 L169 -63 Z M99 183 C99 15 217 -4 275 -4 C288 -4 298 -3 304 -2 L304 59 C295 57 288 57 281 57 C242 57 167 73 167 190 L167 442 L294 442 L294 499 L167 499 L167 642 L100 642 L100 499 L33 499 L33 442 L99 442 L99 183 Z " />
<glyph glyph-name="circumflex" unicode="&#x2c6;" horiz-adv-x="504" d="M131 752 L197 752 L251 832 L253 832 L307 752 L373 752 L289 871 L214 871 L131 752 Z " />
<glyph glyph-name="caron" unicode="&#x2c7;" horiz-adv-x="504" d="M214 752 L289 752 L373 871 L307 871 L253 791 L251 791 L197 871 L131 871 L214 752 Z " />
<glyph glyph-name="breve" unicode="&#x2d8;" horiz-adv-x="505" d="M253 749 C312 749 368 785 368 856 L368 871 L313 871 L313 858 C313 814 283 796 253 796 C220 796 192 814 192 857 L192 871 L137 871 L137 856 C137 785 193 749 253 749 L253 749 Z " />
<glyph glyph-name="dotaccent" unicode="&#x2d9;" horiz-adv-x="505" d="M220 786 L285 786 L285 871 L220 871 L220 786 Z " />
<glyph glyph-name="ring" unicode="&#x2da;" horiz-adv-x="505" d="M253 742 C293 742 328 770 328 812 C328 854 293 883 253 883 C211 883 177 854 177 812 C177 770 211 742 253 742 L253 742 Z M253 779 C233 779 220 793 220 812 C220 832 233 846 253 846 C272 846 285 832 285 812 C285 793 272 779 253 779 L253 779 Z " />
<glyph glyph-name="ogonek" unicode="&#x2db;" horiz-adv-x="504" d="M179 -113 C179 -198 289 -205 289 -205 L304 -149 C304 -149 242 -144 242 -99 C242 -48 326 9 326 9 L277 22 C277 22 179 -33 179 -113 L179 -113 Z " />
<glyph glyph-name="tilde" unicode="&#x2dc;" horiz-adv-x="504" d="M96 755 L151 755 C151 781 157 823 190 823 C235 823 249 752 316 752 C377 752 408 792 408 868 L354 868 C354 843 347 800 314 800 C269 800 255 871 188 871 C127 871 96 832 96 755 L96 755 Z " />
<glyph glyph-name="hungarumlaut" unicode="&#x2dd;" horiz-adv-x="504" d="M246 752 L306 752 L393 871 L316 871 L246 752 Z M112 752 L177 752 L245 871 L177 871 L112 752 Z " />
<glyph glyph-name="uni0400" unicode="&#x400;" horiz-adv-x="560" d="M101 0 L515 0 L515 62 L170 62 L170 323 L437 323 L437 385 L170 385 L170 641 L496 641 L496 703 L101 703 L101 0 Z M294 752 L356 752 L287 871 L208 871 L294 752 Z " />
<glyph glyph-name="uni0401" unicode="&#x401;" horiz-adv-x="560" d="M350 785 L412 785 L412 871 L350 871 L350 785 Z M199 785 L260 785 L260 871 L199 871 L199 785 Z M101 0 L515 0 L515 62 L170 62 L170 323 L437 323 L437 385 L170 385 L170 641 L496 641 L496 703 L101 703 L101 0 Z " />
<glyph glyph-name="uni0402" unicode="&#x402;" horiz-adv-x="727" d="M216 0 L285 0 L285 315 C285 315 362 361 460 361 C571 361 620 298 620 211 C620 86 536 48 462 48 C443 48 431 49 422 50 L422 -10 C437 -11 455 -12 469 -12 C586 -12 689 58 689 214 C689 336 613 425 469 425 C425 425 357 415 286 381 L284 381 C284 381 285 396 285 411 L285 641 L524 641 L524 703 L16 703 L16 641 L216 641 L216 0 Z " />
<glyph glyph-name="uni0403" unicode="&#x403;" horiz-adv-x="485" d="M241 752 L302 752 L389 871 L310 871 L241 752 Z M101 0 L170 0 L170 641 L470 641 L470 703 L101 703 L101 0 Z " />
<glyph glyph-name="uni0404" unicode="&#x404;" horiz-adv-x="717" d="M55 356 C55 151 203 -12 411 -12 C585 -12 680 96 680 96 L642 145 C642 145 555 52 413 52 C255 52 142 169 129 322 L525 322 L525 382 L129 382 C139 536 255 651 410 651 C542 651 625 573 625 573 L662 624 C662 624 576 715 408 715 C203 715 55 559 55 356 L55 356 Z " />
<glyph glyph-name="uni0405" unicode="&#x405;" horiz-adv-x="534" d="M47 78 C105 20 187 -12 268 -12 C404 -12 483 73 483 181 C483 407 133 362 133 531 C133 605 200 649 280 649 C336 649 397 625 435 589 L469 647 C421 692 349 715 283 715 C159 715 62 642 62 527 C62 309 412 351 412 174 C412 101 353 54 270 54 C200 54 132 88 88 131 L47 78 Z " />
<glyph glyph-name="uni0406" unicode="&#x406;" horiz-adv-x="271" d="M101 0 L170 0 L170 703 L101 703 L101 0 Z " />
<glyph glyph-name="uni0407" unicode="&#x407;" horiz-adv-x="271" d="M101 0 L170 0 L170 703 L101 703 L101 0 Z M182 785 L244 785 L244 871 L182 871 L182 785 Z M31 785 L92 785 L92 871 L31 871 L31 785 Z " />
<glyph glyph-name="uni0408" unicode="&#x408;" horiz-adv-x="520" d="M32 197 C32 46 132 -12 229 -12 C326 -12 426 45 426 197 L426 703 L185 703 L185 641 L357 641 L357 197 C357 90 293 53 228 53 C139 53 101 122 101 199 L101 225 L32 225 L32 197 Z " />
<glyph glyph-name="uni0409" unicode="&#x409;" horiz-adv-x="937" d="M21 -7 C223 9 256 233 256 552 L256 641 L476 641 L476 0 L692 0 C810 0 904 76 904 201 C904 328 814 403 687 403 L545 403 L545 703 L187 703 L187 552 C187 259 154 74 21 58 L21 -7 Z M545 62 L545 341 L682 341 C769 341 832 289 832 201 C832 111 769 62 683 62 L545 62 Z " />
<glyph glyph-name="uni040A" unicode="&#x40a;" horiz-adv-x="998" d="M101 0 L170 0 L170 339 L533 339 L533 0 L753 0 C870 0 964 76 964 201 C964 327 875 402 753 402 L602 402 L602 703 L533 703 L533 401 L170 401 L170 703 L101 703 L101 0 Z M602 62 L602 340 L742 340 C829 340 892 289 892 201 C892 111 829 62 743 62 L602 62 Z " />
<glyph glyph-name="uni040B" unicode="&#x40b;" horiz-adv-x="723" d="M216 0 L285 0 L285 307 C316 329 388 361 466 361 C563 361 601 309 601 213 L601 0 L671 0 L671 224 C671 349 612 425 478 425 C396 425 320 394 285 375 L283 375 C283 375 285 393 285 408 L285 641 L523 641 L523 703 L16 703 L16 641 L216 641 L216 0 Z " />
<glyph glyph-name="uni040C" unicode="&#x40c;" horiz-adv-x="592" d="M273 752 L334 752 L421 871 L342 871 L273 752 Z M101 0 L170 0 L170 336 L288 336 L490 0 L571 0 L346 369 L346 371 L557 703 L478 703 L288 398 L170 398 L170 703 L101 703 L101 0 Z " />
<glyph glyph-name="uni040D" unicode="&#x40d;" horiz-adv-x="751" d="M101 0 L168 0 L526 506 C550 541 585 601 585 601 L587 601 C587 601 581 543 581 506 L581 0 L650 0 L650 703 L583 703 L227 199 C203 164 166 102 166 102 L164 102 C164 102 170 160 170 197 L170 703 L101 703 L101 0 Z M352 752 L414 752 L345 871 L266 871 L352 752 Z " />
<glyph glyph-name="uni040E" unicode="&#x40e;" horiz-adv-x="587" d="M83 31 C117 7 156 -12 199 -12 C273 -12 314 45 340 111 L570 703 L496 703 L350 310 C335 268 319 219 319 219 L317 219 C317 219 298 268 277 311 L84 703 L7 703 L286 145 C264 87 244 50 198 50 C164 50 133 72 116 84 L83 31 Z M292 736 C360 736 424 779 424 854 L424 871 L366 871 L366 857 C366 811 329 787 292 787 C254 787 219 811 219 856 L219 871 L160 871 L160 854 C160 779 224 736 292 736 L292 736 Z " />
<glyph glyph-name="uni040F" unicode="&#x40f;" horiz-adv-x="723" d="M101 0 L329 0 L329 -140 L394 -140 L394 0 L623 0 L623 703 L553 703 L553 62 L170 62 L170 703 L101 703 L101 0 Z " />
<glyph glyph-name="uni0410" unicode="&#x410;" horiz-adv-x="632" d="M21 0 L94 0 L174 224 L457 224 L538 0 L611 0 L353 703 L279 703 L21 0 Z M195 284 L288 539 C300 572 315 631 315 631 L317 631 C317 631 332 572 344 539 L436 284 L195 284 Z " />
<glyph glyph-name="uni0411" unicode="&#x411;" horiz-adv-x="594" d="M101 0 L344 0 C461 0 546 80 546 204 C546 341 456 411 338 411 L170 411 L170 641 L499 641 L499 703 L101 703 L101 0 Z M170 62 L170 349 L333 349 C417 349 475 294 475 204 C475 115 421 62 334 62 L170 62 Z " />
<glyph glyph-name="uni0412" unicode="&#x412;" horiz-adv-x="616" d="M101 0 L349 0 C467 0 560 72 560 197 C560 281 514 351 442 371 L442 373 C496 400 531 453 531 526 C531 636 451 703 341 703 L101 703 L101 0 Z M170 398 L170 641 L339 641 C414 641 460 593 460 521 C460 448 412 398 341 398 L170 398 Z M170 62 L170 338 L349 338 C431 338 488 283 488 199 C488 115 435 62 350 62 L170 62 Z " />
<glyph glyph-name="uni0413" unicode="&#x413;" horiz-adv-x="485" d="M101 0 L170 0 L170 641 L470 641 L470 703 L101 703 L101 0 Z " />
<glyph glyph-name="uni0414" unicode="&#x414;" horiz-adv-x="700" d="M150 62 C243 196 260 394 260 564 L260 641 L510 641 L510 62 L150 62 Z M5 62 L5 -140 L71 -140 L71 0 L593 0 L593 -140 L658 -140 L658 62 L579 62 L579 703 L193 703 L193 566 C193 403 182 204 76 62 L5 62 Z " />
<glyph glyph-name="uni0415" unicode="&#x415;" horiz-adv-x="560" d="M101 0 L515 0 L515 62 L170 62 L170 323 L437 323 L437 385 L170 385 L170 641 L496 641 L496 703 L101 703 L101 0 Z " />
<glyph glyph-name="uni0416" unicode="&#x416;" horiz-adv-x="854" d="M22 0 L101 0 L291 336 L392 336 L392 0 L461 0 L461 336 L563 336 L753 0 L832 0 L621 369 L621 371 L817 703 L740 703 L563 398 L461 398 L461 703 L392 703 L392 398 L291 398 L114 703 L36 703 L232 371 L232 369 L22 0 Z " />
<glyph glyph-name="uni0417" unicode="&#x417;" horiz-adv-x="538" d="M32 79 C82 21 168 -12 247 -12 C380 -12 483 69 483 197 C483 288 430 349 354 370 L354 372 C405 396 459 445 459 531 C459 642 381 715 254 715 C201 715 126 706 53 646 L85 592 C138 636 195 652 247 652 C347 652 388 592 388 524 C388 446 322 394 244 394 L173 394 L173 334 L262 334 C345 334 411 285 411 199 C411 108 340 52 244 52 C176 52 111 86 73 129 L32 79 Z " />
<glyph glyph-name="uni0418" unicode="&#x418;" horiz-adv-x="751" d="M101 0 L168 0 L526 506 C550 541 585 601 585 601 L587 601 C587 601 581 543 581 506 L581 0 L650 0 L650 703 L583 703 L227 199 C203 164 166 102 166 102 L164 102 C164 102 170 160 170 197 L170 703 L101 703 L101 0 Z " />
<glyph glyph-name="uni0419" unicode="&#x419;" horiz-adv-x="751" d="M378 736 C446 736 510 779 510 854 L510 871 L452 871 L452 857 C452 811 415 787 378 787 C340 787 305 811 305 856 L305 871 L246 871 L246 854 C246 779 310 736 378 736 L378 736 Z M101 0 L168 0 L526 506 C550 541 585 601 585 601 L587 601 C587 601 581 543 581 506 L581 0 L650 0 L650 703 L583 703 L227 199 C203 164 166 102 166 102 L164 102 C164 102 170 160 170 197 L170 703 L101 703 L101 0 Z " />
<glyph glyph-name="uni041A" unicode="&#x41a;" horiz-adv-x="592" d="M101 0 L170 0 L170 336 L288 336 L490 0 L571 0 L346 369 L346 371 L557 703 L478 703 L288 398 L170 398 L170 703 L101 703 L101 0 Z " />
<glyph glyph-name="uni041B" unicode="&#x41b;" horiz-adv-x="664" d="M11 57 L11 -8 C203 7 245 227 245 560 L245 641 L494 641 L494 0 L564 0 L564 703 L178 703 L178 561 C178 262 143 75 11 57 L11 57 Z " />
<glyph glyph-name="uni041C" unicode="&#x41c;" horiz-adv-x="842" d="M74 0 L143 0 L182 492 C185 530 184 592 184 592 L186 592 C186 592 208 527 224 492 L389 131 L453 131 L619 492 C635 528 656 590 656 590 L658 590 C658 590 657 530 660 492 L699 0 L768 0 L712 703 L641 703 L456 290 C440 254 422 204 422 204 L420 204 C420 204 402 254 386 290 L201 703 L130 703 L74 0 Z " />
<glyph glyph-name="uni041D" unicode="&#x41d;" horiz-adv-x="747" d="M101 0 L170 0 L170 321 L577 321 L577 0 L647 0 L647 703 L577 703 L577 383 L170 383 L170 703 L101 703 L101 0 Z " />
<glyph glyph-name="uni041E" unicode="&#x41e;" horiz-adv-x="825" d="M54 357 C54 150 213 -12 412 -12 C612 -12 770 150 770 357 C770 558 612 715 412 715 C213 715 54 558 54 357 L54 357 Z M126 357 C126 523 254 650 412 650 C571 650 698 523 698 357 C698 185 571 53 412 53 C254 53 126 185 126 357 L126 357 Z " />
<glyph glyph-name="uni041F" unicode="&#x41f;" horiz-adv-x="738" d="M101 0 L170 0 L170 641 L568 641 L568 0 L637 0 L637 703 L101 703 L101 0 Z " />
<glyph glyph-name="uni0420" unicode="&#x420;" horiz-adv-x="596" d="M101 0 L170 0 L170 276 L344 276 C469 276 561 360 561 491 C561 621 469 703 344 703 L101 703 L101 0 Z M170 338 L170 641 L336 641 C429 641 490 586 490 491 C490 395 429 338 335 338 L170 338 Z " />
<glyph glyph-name="uni0421" unicode="&#x421;" horiz-adv-x="718" d="M55 356 C55 151 197 -12 411 -12 C535 -12 621 39 680 97 L640 146 C580 87 496 53 413 53 C239 53 127 190 127 357 C127 522 239 650 410 650 C486 650 570 621 625 573 L662 624 C595 688 497 715 408 715 C202 715 55 560 55 356 L55 356 Z " />
<glyph glyph-name="uni0422" unicode="&#x422;" horiz-adv-x="608" d="M269 0 L338 0 L338 641 L591 641 L591 703 L17 703 L17 641 L269 641 L269 0 Z " />
<glyph glyph-name="uni0423" unicode="&#x423;" horiz-adv-x="587" d="M83 31 C117 7 156 -12 199 -12 C273 -12 314 45 340 111 L570 703 L496 703 L350 310 C335 268 319 219 319 219 L317 219 C317 219 298 268 277 311 L84 703 L7 703 L286 145 C264 87 244 50 198 50 C164 50 133 72 116 84 L83 31 Z " />
<glyph glyph-name="uni0424" unicode="&#x424;" horiz-adv-x="820" d="M44 373 C44 192 178 79 375 79 L375 -12 L445 -12 L445 79 C642 79 776 192 776 373 C776 553 641 666 445 666 L445 750 L375 750 L375 666 C178 666 44 553 44 373 L44 373 Z M445 138 L445 606 C603 606 705 521 705 373 C705 224 603 138 445 138 L445 138 Z M116 373 C116 521 218 606 375 606 L375 138 C218 138 116 224 116 373 L116 373 Z " />
<glyph glyph-name="uni0425" unicode="&#x425;" horiz-adv-x="576" d="M19 0 L98 0 L242 242 C264 279 285 320 285 320 L287 320 C287 320 310 280 331 243 L478 0 L557 0 L332 367 L538 703 L457 703 L333 495 C311 459 289 416 289 416 L287 416 C287 416 263 459 242 495 L119 703 L38 703 L243 367 L19 0 Z " />
<glyph glyph-name="uni0426" unicode="&#x426;" horiz-adv-x="744" d="M101 0 L638 0 L638 -140 L702 -140 L702 62 L623 62 L623 703 L553 703 L553 62 L170 62 L170 703 L101 703 L101 0 Z " />
<glyph glyph-name="uni0427" unicode="&#x427;" horiz-adv-x="618" d="M265 277 C338 277 412 309 448 329 L450 329 C450 329 448 310 448 296 L448 0 L518 0 L518 703 L448 703 L448 395 C416 374 347 341 275 341 C168 341 126 393 126 490 L126 703 L56 703 L56 476 C56 350 121 277 265 277 L265 277 Z " />
<glyph glyph-name="uni0428" unicode="&#x428;" horiz-adv-x="993" d="M101 0 L893 0 L893 703 L823 703 L823 62 L531 62 L531 703 L462 703 L462 62 L170 62 L170 703 L101 703 L101 0 Z " />
<glyph glyph-name="uni0429" unicode="&#x429;" horiz-adv-x="1019" d="M101 0 L914 0 L914 -140 L979 -140 L979 62 L893 62 L893 703 L823 703 L823 62 L531 62 L531 703 L462 703 L462 62 L170 62 L170 703 L101 703 L101 0 Z " />
<glyph glyph-name="uni042A" unicode="&#x42a;" horiz-adv-x="669" d="M195 0 L430 0 C547 0 633 81 633 208 C633 347 542 419 424 419 L264 419 L264 703 L10 703 L10 641 L195 641 L195 0 Z M264 62 L264 357 L419 357 C503 357 561 301 561 208 C561 116 507 62 420 62 L264 62 Z " />
<glyph glyph-name="uni042B" unicode="&#x42b;" horiz-adv-x="813" d="M643 0 L712 0 L712 703 L643 703 L643 0 Z M101 0 L334 0 C451 0 536 81 536 208 C536 347 446 419 328 419 L170 419 L170 703 L101 703 L101 0 Z M170 62 L170 357 L323 357 C407 357 465 301 465 208 C465 116 411 62 324 62 L170 62 Z " />
<glyph glyph-name="uni042C" unicode="&#x42c;" horiz-adv-x="575" d="M101 0 L336 0 C453 0 539 81 539 208 C539 347 448 419 330 419 L170 419 L170 703 L101 703 L101 0 Z M170 62 L170 357 L325 357 C409 357 467 301 467 208 C467 116 413 62 326 62 L170 62 Z " />
<glyph glyph-name="uni042D" unicode="&#x42d;" horiz-adv-x="717" d="M38 95 C105 27 206 -12 306 -12 C512 -12 662 151 662 356 C662 559 515 715 308 715 C216 715 117 684 54 623 L91 571 C152 623 230 651 307 651 C463 651 579 537 589 382 L192 382 L192 322 L588 322 C575 170 461 52 306 52 C216 52 126 91 76 144 L38 95 Z " />
<glyph glyph-name="uni042E" unicode="&#x42e;" horiz-adv-x="1050" d="M101 0 L170 0 L170 321 L301 321 C316 131 464 -12 646 -12 C840 -12 995 150 995 357 C995 558 840 715 646 715 C461 715 311 571 299 383 L170 383 L170 703 L101 703 L101 0 Z M370 357 C370 522 493 649 646 649 C799 649 923 522 923 357 C923 186 799 53 646 53 C493 53 370 186 370 357 L370 357 Z " />
<glyph glyph-name="uni042F" unicode="&#x42f;" horiz-adv-x="611" d="M28 0 L108 0 L285 296 L441 296 L441 0 L511 0 L511 703 L305 703 C238 703 205 696 176 683 C115 654 72 592 72 506 C72 409 118 335 214 307 L214 305 C214 305 207 295 195 276 L28 0 Z M282 357 C197 357 144 416 144 505 C144 559 170 605 214 626 C233 636 256 641 309 641 L441 641 L441 357 L282 357 Z " />
<glyph glyph-name="uni0430" unicode="&#x430;" horiz-adv-x="517" d="M37 135 C37 38 122 -12 207 -12 C288 -12 351 40 377 101 L379 101 C379 101 376 84 376 59 L376 0 L441 0 L441 322 C441 448 374 515 253 515 C186 515 115 492 75 458 L106 406 C147 436 198 454 249 454 C320 454 373 421 373 324 L373 310 L343 310 C247 310 37 300 37 135 L37 135 Z M106 141 C106 253 266 256 344 256 L373 256 L373 233 C373 145 316 45 219 45 C144 45 106 94 106 141 L106 141 Z " />
<glyph glyph-name="uni0431" unicode="&#x431;" horiz-adv-x="576" d="M59 285 C59 115 131 -12 296 -12 C431 -12 525 85 525 224 C525 370 435 456 312 456 C237 456 169 431 124 350 L122 350 C129 456 169 528 283 582 L477 671 L452 728 L266 641 C99 565 59 455 59 285 L59 285 Z M133 225 C133 323 200 399 298 399 C383 399 455 334 455 223 C455 113 383 48 294 48 C206 48 133 113 133 225 L133 225 Z " />
<glyph glyph-name="uni0432" unicode="&#x432;" horiz-adv-x="503" d="M81 0 L273 0 C386 0 455 54 455 141 C455 200 418 249 353 262 L353 264 C402 282 429 323 429 375 C429 458 365 503 263 503 L81 503 L81 0 Z M149 285 L149 451 L252 451 C323 451 359 425 359 371 C359 317 324 285 256 285 L149 285 Z M149 53 L149 233 L263 233 C341 233 385 201 385 142 C385 88 347 53 264 53 L149 53 Z " />
<glyph glyph-name="uni0433" unicode="&#x433;" horiz-adv-x="404" d="M81 0 L149 0 L149 444 L381 444 L381 503 L81 503 L81 0 Z " />
<glyph glyph-name="uni0434" unicode="&#x434;" horiz-adv-x="572" d="M146 58 C221 171 228 340 228 415 L228 445 L404 445 L404 58 L146 58 Z M11 58 L11 -120 L76 -120 L76 0 L478 0 L478 -120 L543 -120 L543 58 L472 58 L472 503 L161 503 L161 421 C161 353 158 169 73 58 L11 58 Z " />
<glyph glyph-name="uni0435" unicode="&#x435;" horiz-adv-x="553" d="M47 251 C47 96 161 -12 311 -12 C377 -12 450 15 497 58 L466 110 C425 73 368 50 313 50 C209 50 121 121 118 249 L504 249 C505 260 506 272 506 283 C506 408 435 515 296 515 C160 515 47 416 47 251 L47 251 Z M121 303 C137 404 210 459 294 459 C369 459 433 408 437 303 L121 303 Z " />
<glyph glyph-name="uni0436" unicode="&#x436;" horiz-adv-x="721" d="M20 0 L99 0 L247 227 L327 227 L327 0 L393 0 L393 227 L474 227 L621 0 L701 0 L531 257 L531 259 L685 503 L610 503 L474 287 L393 287 L393 503 L327 503 L327 287 L246 287 L110 503 L36 503 L190 259 L190 257 L20 0 Z " />
<glyph glyph-name="uni0437" unicode="&#x437;" horiz-adv-x="439" d="M30 61 C67 25 126 -12 205 -12 C302 -12 392 40 392 142 C392 209 352 249 297 263 L297 265 C340 282 374 317 374 380 C374 470 303 515 210 515 C137 515 82 489 47 460 L77 412 C111 439 151 457 200 457 C262 457 304 429 304 372 C304 314 260 287 192 287 L139 287 L139 233 L200 233 C280 233 322 201 322 144 C322 77 262 46 201 46 C133 46 86 87 66 108 L30 61 Z " />
<glyph glyph-name="uni0438" unicode="&#x438;" horiz-adv-x="591" d="M81 0 L146 0 L393 331 C412 359 443 399 444 404 L446 404 C446 400 443 360 443 331 L443 0 L510 0 L510 503 L445 503 L198 173 C178 145 148 102 146 98 L144 98 C145 100 147 142 147 173 L147 503 L81 503 L81 0 Z " />
<glyph glyph-name="uni0439" unicode="&#x439;" horiz-adv-x="591" d="M295 569 C363 569 427 612 427 687 L427 704 L369 704 L369 690 C369 644 332 620 295 620 C257 620 222 644 222 689 L222 704 L163 704 L163 687 C163 612 227 569 295 569 L295 569 Z M81 0 L146 0 L393 331 C412 359 443 399 444 404 L446 404 C446 400 443 360 443 331 L443 0 L510 0 L510 503 L445 503 L198 173 C178 145 148 102 146 98 L144 98 C145 100 147 142 147 173 L147 503 L81 503 L81 0 Z " />
<glyph glyph-name="uni043A" unicode="&#x43a;" horiz-adv-x="495" d="M81 0 L149 0 L149 230 L230 230 L397 0 L480 0 L285 262 L285 264 L460 503 L380 503 L229 290 L149 290 L149 503 L81 503 L81 0 Z " />
<glyph glyph-name="uni043B" unicode="&#x43b;" horiz-adv-x="530" d="M20 -4 C149 6 206 113 206 351 L206 444 L380 444 L380 0 L448 0 L448 503 L140 503 L140 351 C140 165 104 70 20 57 L20 -4 Z " />
<glyph glyph-name="uni043C" unicode="&#x43c;" horiz-adv-x="717" d="M62 0 L128 0 L153 325 C155 352 153 412 153 412 L155 412 C155 412 169 376 188 337 L327 58 L389 58 L529 339 C550 380 561 412 561 412 L563 412 C563 412 562 352 563 325 L588 0 L655 0 L613 503 L542 503 L390 193 C375 161 359 122 359 122 L357 122 C357 122 340 162 326 193 L175 503 L103 503 L62 0 Z " />
<glyph glyph-name="uni043D" unicode="&#x43d;" horiz-adv-x="592" d="M81 0 L149 0 L149 228 L443 228 L443 0 L511 0 L511 503 L443 503 L443 288 L149 288 L149 503 L81 503 L81 0 Z " />
<glyph glyph-name="uni043E" unicode="&#x43e;" horiz-adv-x="624" d="M47 254 C47 102 165 -12 312 -12 C459 -12 578 102 578 254 C578 403 459 515 312 515 C165 515 47 403 47 254 L47 254 Z M117 254 C117 368 204 454 312 454 C420 454 508 368 508 254 C508 136 420 50 312 50 C204 50 117 136 117 254 L117 254 Z " />
<glyph glyph-name="uni043F" unicode="&#x43f;" horiz-adv-x="583" d="M81 0 L149 0 L149 443 L434 443 L434 0 L502 0 L502 503 L81 503 L81 0 Z " />
<glyph glyph-name="uni0440" unicode="&#x440;" horiz-adv-x="589" d="M81 -200 L149 -200 L149 44 C149 70 146 88 146 88 L148 88 C181 25 243 -12 314 -12 C445 -12 539 92 539 252 C539 407 456 515 320 515 C242 515 176 476 145 411 L143 411 C143 411 146 428 146 450 L146 503 L81 503 L81 -200 Z M147 250 C147 393 226 453 310 453 C404 453 470 374 470 251 C470 123 396 49 307 49 C204 49 147 149 147 250 L147 250 Z " />
<glyph glyph-name="uni0441" unicode="&#x441;" horiz-adv-x="542" d="M47 251 C47 95 162 -12 311 -12 C388 -12 463 19 507 68 L476 119 C436 75 373 50 315 50 C203 50 117 133 117 251 C117 371 203 454 313 454 C369 454 425 428 460 392 L495 443 C450 492 377 515 311 515 C163 515 47 406 47 251 L47 251 Z " />
<glyph glyph-name="uni0442" unicode="&#x442;" horiz-adv-x="481" d="M206 0 L274 0 L274 443 L458 443 L458 503 L23 503 L23 443 L206 443 L206 0 Z " />
<glyph glyph-name="uni0443" unicode="&#x443;" horiz-adv-x="526" d="M45 -126 L19 -180 C19 -180 56 -210 108 -210 C175 -210 226 -169 252 -105 L500 503 L427 503 L282 136 C272 111 265 83 265 83 L263 83 C263 83 254 111 244 136 L97 503 L22 503 L231 5 L201 -67 C181 -113 149 -149 105 -149 C73 -149 45 -126 45 -126 L45 -126 Z " />
<glyph glyph-name="uni0444" unicode="&#x444;" horiz-adv-x="704" d="M48 254 C48 98 162 -4 319 -11 L319 -200 L385 -200 L385 -11 C542 -4 656 98 656 254 C656 407 542 507 385 514 L385 700 L319 700 L319 514 C162 507 48 407 48 254 L48 254 Z M385 48 L385 454 C504 448 587 374 587 254 C587 132 504 55 385 48 L385 48 Z M117 254 C117 374 200 448 319 454 L319 48 C200 55 117 132 117 254 L117 254 Z " />
<glyph glyph-name="uni0445" unicode="&#x445;" horiz-adv-x="479" d="M20 0 L99 0 L222 189 C231 203 239 217 239 217 L241 217 C241 217 249 202 258 189 L380 0 L460 0 L283 262 L445 503 L366 503 L258 334 C250 321 241 305 241 305 L239 305 C239 305 230 321 222 334 L114 503 L34 503 L196 262 L20 0 Z " />
<glyph glyph-name="uni0446" unicode="&#x446;" horiz-adv-x="596" d="M81 0 L502 0 L502 -120 L566 -120 L566 60 L496 60 L496 503 L427 503 L427 60 L149 60 L149 503 L81 503 L81 0 Z " />
<glyph glyph-name="uni0447" unicode="&#x447;" horiz-adv-x="502" d="M216 184 C261 184 319 202 353 223 L355 223 C355 223 353 206 353 191 L353 0 L421 0 L421 503 L353 503 L353 286 C331 269 284 245 228 245 C130 245 114 297 114 350 L114 503 L47 503 L47 343 C47 245 99 184 216 184 L216 184 Z " />
<glyph glyph-name="uni0448" unicode="&#x448;" horiz-adv-x="791" d="M81 0 L710 0 L710 503 L644 503 L644 60 L429 60 L429 503 L363 503 L363 60 L147 60 L147 503 L81 503 L81 0 Z " />
<glyph glyph-name="uni0449" unicode="&#x449;" horiz-adv-x="811" d="M81 0 L717 0 L717 -120 L781 -120 L781 60 L710 60 L710 503 L644 503 L644 60 L429 60 L429 503 L363 503 L363 60 L147 60 L147 503 L81 503 L81 0 Z " />
<glyph glyph-name="uni044A" unicode="&#x44a;" horiz-adv-x="537" d="M151 0 L326 0 C447 0 503 63 503 154 C503 273 418 311 328 311 L219 311 L219 503 L12 503 L12 444 L151 444 L151 0 Z M219 54 L219 257 L321 257 C400 257 434 216 434 155 C434 95 401 54 319 54 L219 54 Z " />
<glyph glyph-name="uni044B" unicode="&#x44b;" horiz-adv-x="667" d="M518 0 L586 0 L586 503 L518 503 L518 0 Z M81 0 L255 0 C376 0 433 63 433 154 C433 273 347 311 257 311 L149 311 L149 503 L81 503 L81 0 Z M149 54 L149 257 L250 257 C329 257 363 216 363 155 C363 95 330 54 249 54 L149 54 Z " />
<glyph glyph-name="uni044C" unicode="&#x44c;" horiz-adv-x="468" d="M81 0 L256 0 C377 0 434 63 434 154 C434 273 348 311 258 311 L149 311 L149 503 L81 503 L81 0 Z M149 54 L149 257 L251 257 C330 257 364 216 364 155 C364 95 331 54 250 54 L149 54 Z " />
<glyph glyph-name="uni044D" unicode="&#x44d;" horiz-adv-x="541" d="M35 65 C86 13 158 -12 230 -12 C380 -12 494 95 494 251 C494 406 379 515 232 515 C163 515 88 491 45 444 L80 394 C120 433 173 456 231 456 C330 456 414 386 425 278 L166 278 L166 224 L425 224 C414 118 331 47 229 47 C175 47 110 67 65 116 L35 65 Z " />
<glyph glyph-name="uni044E" unicode="&#x44e;" horiz-adv-x="805" d="M81 0 L149 0 L149 222 L250 222 C264 87 371 -12 503 -12 C644 -12 759 102 759 254 C759 403 644 515 502 515 C370 515 262 416 249 281 L149 281 L149 503 L81 503 L81 0 Z M317 254 C317 368 400 454 503 454 C605 454 688 368 688 254 C688 136 605 50 503 50 C400 50 317 136 317 254 L317 254 Z " />
<glyph glyph-name="uni044F" unicode="&#x44f;" horiz-adv-x="495" d="M30 0 L109 0 L241 193 L345 193 L345 0 L413 0 L413 503 L236 503 C132 503 58 451 58 350 C58 268 115 217 174 205 L174 203 C174 203 161 189 151 173 L30 0 Z M244 246 C179 246 128 282 128 350 C128 422 174 451 249 451 L345 451 L345 246 L244 246 Z " />
<glyph glyph-name="uni0450" unicode="&#x450;" horiz-adv-x="553" d="M47 251 C47 96 161 -12 311 -12 C377 -12 450 15 497 58 L466 110 C425 73 368 50 313 50 C209 50 121 121 118 249 L504 249 C505 260 506 272 506 283 C506 408 435 515 296 515 C160 515 47 416 47 251 L47 251 Z M121 303 C137 404 210 459 294 459 C369 459 433 408 437 303 L121 303 Z M277 585 L339 585 L270 704 L191 704 L277 585 Z " />
<glyph glyph-name="uni0451" unicode="&#x451;" horiz-adv-x="553" d="M334 618 L396 618 L396 704 L334 704 L334 618 Z M183 618 L244 618 L244 704 L183 704 L183 618 Z M47 251 C47 96 161 -12 311 -12 C377 -12 450 15 497 58 L466 110 C425 73 368 50 313 50 C209 50 121 121 118 249 L504 249 C505 260 506 272 506 283 C506 408 435 515 296 515 C160 515 47 416 47 251 L47 251 Z M121 303 C137 404 210 459 294 459 C369 459 433 408 437 303 L121 303 Z " />
<glyph glyph-name="uni0452" unicode="&#x452;" horiz-adv-x="594" d="M81 0 L149 0 L149 188 C149 212 151 234 158 255 C180 338 254 398 340 398 C437 398 450 328 450 249 L450 -16 C450 -135 377 -150 338 -150 C324 -150 313 -148 313 -148 L313 -208 C313 -208 326 -210 345 -210 C402 -210 518 -187 518 -16 L518 267 C518 390 474 462 349 462 C235 462 169 384 149 336 L147 336 C147 336 149 354 149 378 L149 565 L372 565 L372 619 L149 619 L149 703 L81 703 L81 619 L17 619 L17 565 L81 565 L81 0 Z " />
<glyph glyph-name="uni0453" unicode="&#x453;" horiz-adv-x="404" d="M181 585 L242 585 L329 704 L250 704 L181 585 Z M81 0 L149 0 L149 444 L381 444 L381 503 L81 503 L81 0 Z " />
<glyph glyph-name="uni0454" unicode="&#x454;" horiz-adv-x="542" d="M47 251 C47 95 162 -12 311 -12 C439 -12 507 66 507 66 L477 118 C477 118 419 47 314 47 C209 47 124 119 116 229 L375 229 L375 283 L116 283 C129 389 211 455 313 455 C405 455 461 394 461 394 L496 444 C496 444 435 515 311 515 C163 515 47 406 47 251 L47 251 Z " />
<glyph glyph-name="uni0455" unicode="&#x455;" horiz-adv-x="438" d="M37 61 C85 11 157 -12 224 -12 C323 -12 394 47 394 130 C394 296 125 262 125 377 C125 432 173 455 226 455 C271 455 323 438 352 409 L384 460 C343 499 284 515 229 515 C137 515 58 467 58 375 C58 210 326 241 326 129 C326 76 281 48 225 48 C170 48 111 70 73 109 L37 61 Z " />
<glyph glyph-name="uni0456" unicode="&#x456;" horiz-adv-x="230" d="M78 618 L152 618 L152 703 L78 703 L78 618 Z M81 0 L149 0 L149 503 L81 503 L81 0 Z " />
<glyph glyph-name="uni0457" unicode="&#x457;" horiz-adv-x="230" d="M161 618 L223 618 L223 704 L161 704 L161 618 Z M10 618 L71 618 L71 704 L10 704 L10 618 Z M81 0 L149 0 L149 503 L81 503 L81 0 Z " />
<glyph glyph-name="uni0458" unicode="&#x458;" horiz-adv-x="230" d="M78 618 L152 618 L152 703 L78 703 L78 618 Z M81 -16 C81 -131 5 -145 -33 -145 C-43 -145 -51 -144 -55 -143 L-55 -203 C-45 -205 -36 -206 -26 -206 C31 -206 149 -186 149 -18 L149 503 L81 503 L81 -16 Z " />
<glyph glyph-name="uni0459" unicode="&#x459;" horiz-adv-x="728" d="M29 -4 C159 6 216 109 216 350 L216 444 L342 444 L342 0 L517 0 C637 0 694 62 694 152 C694 270 608 308 518 308 L410 308 L410 503 L150 503 L150 349 C150 165 114 70 29 57 L29 -4 Z M410 54 L410 254 L513 254 C592 254 626 213 626 152 C626 94 593 54 512 54 L410 54 Z " />
<glyph glyph-name="uni045A" unicode="&#x45a;" horiz-adv-x="797" d="M81 0 L149 0 L149 245 L412 245 L412 0 L586 0 C707 0 764 64 764 154 C764 265 673 303 583 303 L480 303 L480 503 L412 503 L412 303 L149 303 L149 503 L81 503 L81 0 Z M480 54 L480 249 L578 249 C657 249 696 214 696 154 C696 92 663 54 582 54 L480 54 Z " />
<glyph glyph-name="uni045B" unicode="&#x45b;" horiz-adv-x="594" d="M81 0 L149 0 L149 188 C149 212 151 235 158 255 C180 339 254 398 340 398 C437 398 450 328 450 249 L450 0 L518 0 L518 267 C518 391 474 462 349 462 C235 462 169 384 149 336 L147 336 C147 336 149 354 149 378 L149 565 L372 565 L372 619 L149 619 L149 703 L81 703 L81 619 L17 619 L17 565 L81 565 L81 0 Z " />
<glyph glyph-name="uni045C" unicode="&#x45c;" horiz-adv-x="495" d="M215 585 L276 585 L363 704 L284 704 L215 585 Z M81 0 L149 0 L149 230 L230 230 L397 0 L480 0 L285 262 L285 264 L460 503 L380 503 L229 290 L149 290 L149 503 L81 503 L81 0 Z " />
<glyph glyph-name="uni045D" unicode="&#x45d;" horiz-adv-x="591" d="M81 0 L146 0 L393 331 C412 359 443 399 444 404 L446 404 C446 400 443 360 443 331 L443 0 L510 0 L510 503 L445 503 L198 173 C178 145 148 102 146 98 L144 98 C145 100 147 142 147 173 L147 503 L81 503 L81 0 Z M288 585 L350 585 L281 704 L202 704 L288 585 Z " />
<glyph glyph-name="uni045E" unicode="&#x45e;" horiz-adv-x="526" d="M45 -126 L19 -180 C19 -180 56 -210 108 -210 C175 -210 226 -169 252 -105 L500 503 L427 503 L282 136 C272 111 265 83 265 83 L263 83 C263 83 254 111 244 136 L97 503 L22 503 L231 5 L201 -67 C181 -113 149 -149 105 -149 C73 -149 45 -126 45 -126 L45 -126 Z M263 569 C331 569 395 612 395 687 L395 704 L337 704 L337 690 C337 644 300 620 263 620 C225 620 190 644 190 689 L190 704 L131 704 L131 687 C131 612 195 569 263 569 L263 569 Z " />
<glyph glyph-name="uni045F" unicode="&#x45f;" horiz-adv-x="562" d="M81 0 L249 0 L249 -120 L313 -120 L313 0 L480 0 L480 503 L412 503 L412 60 L149 60 L149 503 L81 503 L81 0 Z " />
<glyph glyph-name="uni0462" unicode="&#x462;" horiz-adv-x="678" d="M198 0 L431 0 C549 0 643 80 643 209 C643 336 550 411 430 411 L267 411 L267 540 L471 540 L471 598 L267 598 L267 710 L199 710 L199 598 L14 598 L14 540 L198 540 L198 0 Z M267 62 L267 349 L421 349 C507 349 571 298 571 209 C571 115 508 62 421 62 L267 62 Z " />
<glyph glyph-name="uni0463" unicode="&#x463;" horiz-adv-x="511" d="M122 0 L298 0 C419 0 476 63 476 154 C476 273 390 311 300 311 L190 311 L190 461 L358 461 L358 515 L190 515 L190 703 L121 703 L121 515 L0 515 L0 461 L122 461 L122 0 Z M190 54 L190 257 L293 257 C372 257 406 216 406 155 C406 95 373 54 292 54 L190 54 Z " />
<glyph glyph-name="uni0472" unicode="&#x472;" horiz-adv-x="825" d="M54 357 C54 150 208 -12 412 -12 C616 -12 770 150 770 357 C770 558 616 715 412 715 C208 715 54 558 54 357 L54 357 Z M413 51 C259 51 140 168 126 326 L698 326 C684 168 566 51 413 51 L413 51 Z M413 651 C567 651 685 538 698 385 L126 385 C139 538 258 651 413 651 L413 651 Z " />
<glyph glyph-name="uni0473" unicode="&#x473;" horiz-adv-x="624" d="M47 254 C47 102 165 -12 312 -12 C459 -12 578 102 578 254 C578 403 459 515 312 515 C165 515 47 403 47 254 L47 254 Z M312 45 C210 45 126 122 114 229 L510 229 C499 122 414 45 312 45 L312 45 Z M312 458 C414 458 499 383 510 279 L114 279 C126 383 210 458 312 458 L312 458 Z " />
<glyph glyph-name="uni0474" unicode="&#x474;" horiz-adv-x="684" d="M279 0 L353 0 L557 580 C580 645 599 640 649 640 L671 640 L671 703 L627 703 C552 703 524 697 496 615 L344 169 C332 133 317 79 317 79 L315 79 C315 79 300 133 288 169 L94 703 L19 703 L279 0 Z " />
<glyph glyph-name="uni0475" unicode="&#x475;" horiz-adv-x="551" d="M218 0 L293 0 L429 383 C447 432 463 441 509 441 L530 441 L530 503 L492 503 C423 503 392 481 370 414 L274 134 C265 109 256 73 256 73 L254 73 C254 73 246 109 237 134 L97 503 L25 503 L218 0 Z " />
<glyph glyph-name="uni048A" unicode="&#x48a;" horiz-adv-x="778" d="M101 0 L168 0 L526 506 C550 541 585 601 585 601 L587 601 C587 601 581 543 581 506 L581 0 L674 0 L628 -140 L683 -140 L749 17 L749 62 L650 62 L650 703 L583 703 L227 199 C203 164 166 102 166 102 L164 102 C164 102 170 160 170 197 L170 703 L101 703 L101 0 Z M379 736 C447 736 511 779 511 854 L511 871 L453 871 L453 857 C453 811 416 787 379 787 C341 787 306 811 306 856 L306 871 L247 871 L247 854 C247 779 311 736 379 736 L379 736 Z " />
<glyph glyph-name="uni048B" unicode="&#x48b;" horiz-adv-x="618" d="M81 0 L146 0 L393 331 C412 359 443 399 444 404 L446 404 C446 400 443 360 443 331 L443 0 L521 0 L481 -120 L534 -120 L590 16 L590 59 L510 59 L510 503 L445 503 L198 173 C178 145 148 102 146 98 L144 98 C145 100 147 142 147 173 L147 503 L81 503 L81 0 Z M299 569 C367 569 431 612 431 687 L431 704 L373 704 L373 690 C373 644 336 620 299 620 C261 620 226 644 226 689 L226 704 L167 704 L167 687 C167 612 231 569 299 569 L299 569 Z " />
<glyph glyph-name="uni048C" unicode="&#x48c;" horiz-adv-x="662" d="M176 0 L417 0 C534 0 628 80 628 209 C628 340 536 419 416 419 L245 419 L245 578 L422 578 L422 636 L245 636 L245 750 L176 750 L176 636 L12 636 L12 578 L176 578 L176 0 Z M245 62 L245 357 L406 357 C493 357 556 302 556 209 C556 115 493 62 407 62 L245 62 Z " />
<glyph glyph-name="uni048D" unicode="&#x48d;" horiz-adv-x="519" d="M129 0 L305 0 C426 0 483 63 483 154 C483 273 397 311 307 311 L197 311 L197 461 L365 461 L365 515 L197 515 L197 703 L128 703 L128 515 L7 515 L7 461 L129 461 L129 0 Z M197 54 L197 257 L300 257 C379 257 413 216 413 155 C413 95 380 54 299 54 L197 54 Z " />
<glyph glyph-name="uni048E" unicode="&#x48e;" horiz-adv-x="615" d="M101 0 L170 0 L170 276 L344 276 C382 276 418 284 449 299 L512 212 L555 245 L494 329 C536 367 561 422 561 491 C561 621 469 703 344 703 L101 703 L101 0 Z M342 447 L413 349 C391 339 365 334 337 334 L170 334 L170 641 L337 641 C432 641 493 586 493 489 C493 444 480 407 456 381 L385 480 L342 447 Z " />
<glyph glyph-name="uni048F" unicode="&#x48f;" horiz-adv-x="598" d="M81 -200 L149 -200 L149 44 C149 70 146 88 146 88 L148 88 C148 88 193 -12 314 -12 C361 -12 403 1 438 25 L493 -41 L534 -5 L477 62 C516 108 539 173 539 252 C539 407 456 515 320 515 C187 515 145 411 145 411 L143 411 C143 411 146 428 146 450 L146 503 L81 503 L81 -200 Z M326 160 L396 75 C371 57 340 48 308 48 C204 48 147 147 147 249 C147 393 226 453 312 453 C406 453 473 374 473 250 C473 193 458 147 434 114 L367 195 L326 160 Z " />
<glyph glyph-name="uni0490" unicode="&#x490;" horiz-adv-x="489" d="M101 0 L170 0 L170 641 L475 641 L475 791 L413 791 L413 703 L101 703 L101 0 Z " />
<glyph glyph-name="uni0491" unicode="&#x491;" horiz-adv-x="399" d="M81 0 L149 0 L149 444 L376 444 L376 583 L318 583 L318 503 L81 503 L81 0 Z " />
<glyph glyph-name="uni0492" unicode="&#x492;" horiz-adv-x="497" d="M106 0 L175 0 L175 319 L337 319 L337 374 L175 374 L175 641 L476 641 L476 703 L106 703 L106 374 L43 374 L43 319 L106 319 L106 0 Z " />
<glyph glyph-name="uni0493" unicode="&#x493;" horiz-adv-x="410" d="M83 0 L151 0 L151 220 L283 220 L283 271 L151 271 L151 444 L383 444 L383 503 L83 503 L83 271 L20 271 L20 220 L83 220 L83 0 Z " />
<glyph glyph-name="uni0494" unicode="&#x494;" horiz-adv-x="596" d="M101 0 L170 0 L170 324 C197 336 247 357 305 357 C418 357 477 300 477 138 C477 -65 391 -115 307 -115 L307 -174 C443 -174 548 -88 548 138 C548 368 436 419 314 419 C260 419 197 399 170 384 L170 641 L471 641 L471 703 L101 703 L101 0 Z " />
<glyph glyph-name="uni0495" unicode="&#x495;" horiz-adv-x="487" d="M81 0 L149 0 L149 193 C168 205 207 224 259 224 C355 224 383 149 383 68 C383 -49 332 -116 273 -156 L307 -206 C384 -155 450 -72 450 71 C450 173 410 284 268 284 C228 284 185 272 149 254 L149 445 L384 445 L384 503 L81 503 L81 0 Z " />
<glyph glyph-name="uni0496" unicode="&#x496;" horiz-adv-x="899" d="M22 0 L101 0 L291 336 L392 336 L392 0 L461 0 L461 336 L563 336 L753 0 L820 0 L820 -140 L885 -140 L885 62 L796 62 L621 369 L621 371 L817 703 L740 703 L563 398 L461 398 L461 703 L392 703 L392 398 L291 398 L114 703 L36 703 L232 371 L232 369 L22 0 Z " />
<glyph glyph-name="uni0497" unicode="&#x497;" horiz-adv-x="756" d="M20 0 L99 0 L247 227 L327 227 L327 0 L393 0 L393 227 L474 227 L621 0 L672 0 L672 -120 L737 -120 L737 60 L661 60 L531 257 L531 259 L685 503 L610 503 L474 287 L393 287 L393 503 L327 503 L327 287 L246 287 L110 503 L36 503 L190 259 L190 257 L20 0 Z " />
<glyph glyph-name="uni0498" unicode="&#x498;" horiz-adv-x="540" d="M32 79 C76 27 149 -4 220 -10 L220 -140 L284 -140 L284 -9 C398 4 483 81 483 197 C483 288 430 349 354 370 L354 372 C405 396 459 445 459 531 C459 642 381 715 254 715 C201 715 126 706 53 646 L85 592 C138 636 195 652 247 652 C347 652 388 592 388 524 C388 446 322 394 244 394 L173 394 L173 334 L262 334 C345 334 411 285 411 199 C411 108 340 52 244 52 C176 52 111 86 73 129 L32 79 Z " />
<glyph glyph-name="uni0499" unicode="&#x499;" horiz-adv-x="441" d="M30 61 C63 28 115 -5 184 -11 L184 -120 L247 -120 L247 -8 C326 4 392 55 392 142 C392 209 352 249 297 263 L297 265 C340 282 374 317 374 380 C374 470 303 515 210 515 C137 515 82 489 47 460 L77 412 C111 439 151 457 200 457 C262 457 304 429 304 372 C304 314 260 287 192 287 L139 287 L139 233 L200 233 C280 233 322 201 322 144 C322 77 262 46 201 46 C133 46 86 87 66 108 L30 61 Z " />
<glyph glyph-name="uni049A" unicode="&#x49a;" horiz-adv-x="637" d="M101 0 L170 0 L170 336 L288 336 L490 0 L558 0 L558 -140 L622 -140 L622 62 L533 62 L346 369 L346 371 L557 703 L478 703 L288 398 L170 398 L170 703 L101 703 L101 0 Z " />
<glyph glyph-name="uni049B" unicode="&#x49b;" horiz-adv-x="528" d="M81 0 L149 0 L149 230 L230 230 L397 0 L445 0 L445 -120 L509 -120 L509 60 L435 60 L285 262 L285 264 L460 503 L380 503 L229 290 L149 290 L149 503 L81 503 L81 0 Z " />
<glyph glyph-name="uni049C" unicode="&#x49c;" horiz-adv-x="664" d="M101 0 L170 0 L170 336 L249 336 L249 211 L306 211 L306 336 L360 336 L562 0 L643 0 L419 369 L419 371 L629 703 L550 703 L360 398 L306 398 L306 523 L249 523 L249 398 L170 398 L170 703 L101 703 L101 0 Z " />
<glyph glyph-name="uni049D" unicode="&#x49d;" horiz-adv-x="563" d="M81 0 L149 0 L149 230 L212 230 L212 122 L266 122 L266 230 L298 230 L465 0 L548 0 L353 262 L353 264 L528 503 L448 503 L297 290 L266 290 L266 396 L212 396 L212 290 L149 290 L149 503 L81 503 L81 0 Z " />
<glyph glyph-name="uni049E" unicode="&#x49e;" horiz-adv-x="596" d="M11 529 L105 529 L105 0 L174 0 L174 336 L292 336 L494 0 L575 0 L350 369 L350 371 L561 703 L482 703 L292 398 L174 398 L174 529 L278 529 L278 584 L174 584 L174 703 L105 703 L105 584 L11 584 L11 529 Z " />
<glyph glyph-name="uni049F" unicode="&#x49f;" horiz-adv-x="496" d="M81 0 L149 0 L149 249 L231 249 L398 0 L480 0 L287 280 L287 282 L462 503 L380 503 L230 309 L149 309 L149 529 L275 529 L275 582 L149 582 L149 703 L81 703 L81 582 L19 582 L19 529 L81 529 L81 0 Z " />
<glyph glyph-name="uni04A0" unicode="&#x4a0;" horiz-adv-x="731" d="M240 0 L309 0 L309 336 L428 336 L629 0 L710 0 L486 369 L486 371 L696 703 L617 703 L428 398 L309 398 L309 703 L18 703 L18 641 L240 641 L240 0 Z " />
<glyph glyph-name="uni04A1" unicode="&#x4a1;" horiz-adv-x="564" d="M151 0 L219 0 L219 230 L299 230 L467 0 L550 0 L355 262 L355 264 L529 503 L450 503 L298 290 L219 290 L219 503 L12 503 L12 444 L151 444 L151 0 Z " />
<glyph glyph-name="uni04A2" unicode="&#x4a2;" horiz-adv-x="775" d="M101 0 L170 0 L170 321 L577 321 L577 0 L674 0 L674 -140 L738 -140 L738 62 L647 62 L647 703 L577 703 L577 383 L170 383 L170 703 L101 703 L101 0 Z " />
<glyph glyph-name="uni04A3" unicode="&#x4a3;" horiz-adv-x="616" d="M81 0 L149 0 L149 228 L443 228 L443 0 L526 0 L526 -120 L590 -120 L590 60 L511 60 L511 503 L443 503 L443 288 L149 288 L149 503 L81 503 L81 0 Z " />
<glyph glyph-name="uni04A4" unicode="&#x4a4;" horiz-adv-x="922" d="M101 0 L170 0 L170 321 L537 321 L537 0 L606 0 L606 641 L907 641 L907 703 L537 703 L537 383 L170 383 L170 703 L101 703 L101 0 Z " />
<glyph glyph-name="uni04A5" unicode="&#x4a5;" horiz-adv-x="716" d="M81 0 L149 0 L149 228 L411 228 L411 0 L479 0 L479 444 L693 444 L693 503 L411 503 L411 288 L149 288 L149 503 L81 503 L81 0 Z " />
<glyph glyph-name="uni04A6" unicode="&#x4a6;" horiz-adv-x="994" d="M101 0 L170 0 L170 642 L504 642 L504 0 L573 0 L573 335 C600 347 650 369 708 369 C822 369 880 309 880 138 C880 -65 794 -115 710 -115 L710 -174 C848 -174 951 -88 951 138 C951 376 839 429 717 429 C663 429 600 409 573 394 L573 703 L101 703 L101 0 Z " />
<glyph glyph-name="uni04A7" unicode="&#x4a7;" horiz-adv-x="798" d="M81 0 L149 0 L149 443 L381 443 L381 0 L449 0 L449 217 C469 229 509 248 560 248 C661 248 695 172 695 82 C695 -42 644 -114 584 -156 L618 -206 C693 -154 761 -66 761 84 C761 195 713 309 568 309 C528 309 485 297 449 279 L449 503 L81 503 L81 0 Z " />
<glyph glyph-name="uni04A8" unicode="&#x4a8;" horiz-adv-x="932" d="M56 361 C56 136 198 -12 405 -12 C476 -12 548 6 614 39 C675 14 744 0 819 0 L862 0 L862 60 L819 60 C768 60 722 67 680 79 C791 157 871 277 871 410 C871 608 756 703 622 703 C503 703 365 609 365 407 C365 265 433 150 541 78 C497 62 451 53 405 53 C226 53 127 194 127 360 C127 530 238 623 339 651 L323 715 C202 688 56 573 56 361 L56 361 Z M437 407 C437 571 543 638 622 638 C711 638 799 576 799 410 C799 285 718 174 608 110 C498 170 437 281 437 407 L437 407 Z " />
<glyph glyph-name="uni04A9" unicode="&#x4a9;" horiz-adv-x="768" d="M48 258 C48 111 139 -12 331 -12 C391 -12 453 3 508 30 C559 10 615 0 670 0 L715 0 L715 58 L668 58 C635 58 603 62 574 69 C655 129 712 215 712 310 C712 432 632 515 512 515 C391 515 302 419 302 304 C302 198 359 116 441 65 C405 53 368 47 332 47 C179 47 115 144 115 257 C115 370 193 435 256 457 L234 515 C150 488 48 405 48 258 L48 258 Z M369 305 C369 394 433 457 511 457 C589 457 645 403 645 307 C645 214 586 139 507 94 C425 136 369 211 369 305 L369 305 Z " />
<glyph glyph-name="uni04AA" unicode="&#x4aa;" horiz-adv-x="719" d="M55 356 C55 163 180 7 373 -10 L373 -140 L438 -140 L438 -11 C547 -4 625 43 680 97 L640 146 C580 87 496 53 413 53 C239 53 127 190 127 357 C127 522 239 650 410 650 C486 650 570 621 625 573 L662 624 C595 688 497 715 408 715 C202 715 55 560 55 356 L55 356 Z " />
<glyph glyph-name="uni04AB" unicode="&#x4ab;" horiz-adv-x="544" d="M47 251 C47 109 142 8 271 -9 L271 -120 L334 -120 L334 -11 C402 -5 467 24 507 68 L476 119 C436 75 373 50 315 50 C203 50 117 133 117 251 C117 371 203 454 313 454 C369 454 425 428 460 392 L495 443 C450 492 377 515 311 515 C163 515 47 406 47 251 L47 251 Z " />
<glyph glyph-name="uni04AC" unicode="&#x4ac;" horiz-adv-x="608" d="M267 0 L364 0 L364 -140 L428 -140 L428 62 L337 62 L337 641 L590 641 L590 703 L16 703 L16 641 L268 641 L268 2 L267 0 Z " />
<glyph glyph-name="uni04AD" unicode="&#x4ad;" horiz-adv-x="485" d="M206 0 L290 0 L290 -120 L354 -120 L354 60 L274 60 L274 443 L458 443 L458 503 L23 503 L23 443 L206 443 L206 0 Z " />
<glyph glyph-name="uni04AE" unicode="&#x4ae;" horiz-adv-x="567" d="M249 0 L318 0 L318 302 L555 703 L476 703 L327 448 C306 411 284 364 284 364 L282 364 C282 364 260 411 239 448 L90 703 L11 703 L249 302 L249 0 Z " />
<glyph glyph-name="uni04AF" unicode="&#x4af;" horiz-adv-x="511" d="M223 31 L223 -200 L289 -200 L289 31 L486 503 L415 503 L275 165 C265 138 256 107 256 107 L254 107 C254 107 246 138 235 165 L96 503 L24 503 L223 31 Z " />
<glyph glyph-name="uni04B0" unicode="&#x4b0;" horiz-adv-x="567" d="M120 250 L249 250 L249 0 L318 0 L318 250 L445 250 L445 305 L320 305 L555 703 L476 703 L327 448 C306 411 284 364 284 364 L282 364 C282 364 260 411 239 448 L90 703 L11 703 L247 305 L120 305 L120 250 Z " />
<glyph glyph-name="uni04B1" unicode="&#x4b1;" horiz-adv-x="510" d="M107 0 L223 0 L223 -200 L289 -200 L289 0 L404 0 L404 54 L298 54 L485 503 L413 503 L275 165 C265 138 256 107 256 107 L254 107 C254 107 246 138 235 165 L98 503 L26 503 L213 54 L107 54 L107 0 Z " />
<glyph glyph-name="uni04B2" unicode="&#x4b2;" horiz-adv-x="621" d="M19 0 L98 0 L242 242 C264 279 285 321 285 321 L287 321 C287 321 310 280 331 243 L478 0 L544 0 L544 -140 L608 -140 L608 62 L519 62 L332 367 L538 703 L457 703 L333 495 C311 459 290 414 290 414 L288 414 C288 414 263 459 242 495 L119 703 L38 703 L243 367 L19 0 Z " />
<glyph glyph-name="uni04B3" unicode="&#x4b3;" horiz-adv-x="512" d="M20 0 L99 0 L222 189 C231 203 239 217 239 217 L241 217 C241 217 249 202 258 189 L380 0 L427 0 L427 -120 L491 -120 L491 60 L419 60 L283 262 L445 503 L366 503 L258 334 C250 321 241 305 241 305 L239 305 C239 305 230 321 222 334 L114 503 L34 503 L196 262 L20 0 Z " />
<glyph glyph-name="uni04B4" unicode="&#x4b4;" horiz-adv-x="891" d="M240 0 L789 0 L789 -140 L853 -140 L853 62 L765 62 L765 703 L696 703 L696 62 L309 62 L309 641 L531 641 L531 703 L18 703 L18 641 L240 641 L240 0 Z " />
<glyph glyph-name="uni04B5" unicode="&#x4b5;" horiz-adv-x="719" d="M195 0 L625 0 L625 -120 L690 -120 L690 60 L617 60 L617 503 L549 503 L549 60 L263 60 L263 443 L435 443 L435 503 L23 503 L23 443 L195 443 L195 0 Z " />
<glyph glyph-name="uni04B6" unicode="&#x4b6;" horiz-adv-x="646" d="M265 277 C338 277 412 309 448 329 L450 329 C450 329 448 310 448 296 L448 0 L545 0 L545 -140 L609 -140 L609 62 L518 62 L518 703 L448 703 L448 395 C416 374 347 341 275 341 C168 341 126 393 126 490 L126 703 L56 703 L56 476 C56 350 121 277 265 277 L265 277 Z " />
<glyph glyph-name="uni04B7" unicode="&#x4b7;" horiz-adv-x="530" d="M216 184 C261 184 319 202 353 223 L355 223 C355 223 353 206 353 191 L353 0 L443 0 L443 -120 L507 -120 L507 60 L421 60 L421 503 L353 503 L353 286 C331 269 284 245 228 245 C130 245 114 297 114 350 L114 503 L47 503 L47 343 C47 245 99 184 216 184 L216 184 Z " />
<glyph glyph-name="uni04B8" unicode="&#x4b8;" horiz-adv-x="625" d="M265 169 L322 169 L322 284 C377 294 427 315 454 330 L456 330 C456 330 454 311 454 297 L454 0 L524 0 L524 703 L454 703 L454 395 C428 378 378 354 322 345 L322 485 L265 485 L265 341 C164 344 124 396 124 490 L124 703 L54 703 L54 478 C54 353 119 280 265 279 L265 169 Z " />
<glyph glyph-name="uni04B9" unicode="&#x4b9;" horiz-adv-x="514" d="M219 104 L273 104 L273 190 C307 197 342 210 365 225 L367 225 C367 225 365 209 365 193 L365 0 L433 0 L433 503 L365 503 L365 286 C347 273 313 256 273 248 L273 370 L219 370 L219 245 C130 250 114 299 114 350 L114 503 L47 503 L47 343 C47 246 100 184 219 184 L219 104 Z " />
<glyph glyph-name="uni04BA" unicode="&#x4ba;" horiz-adv-x="615" d="M101 0 L170 0 L170 342 C201 364 272 396 350 396 C447 396 486 343 486 247 L486 0 L556 0 L556 258 C556 383 497 459 363 459 C280 459 205 428 170 409 L168 409 C168 409 170 428 170 442 L170 703 L101 703 L101 0 Z " />
<glyph glyph-name="uni04BB" unicode="&#x4bb;" horiz-adv-x="594" d="M81 0 L149 0 L149 243 C149 364 234 451 340 451 C437 451 450 381 450 302 L450 0 L518 0 L518 320 C518 444 474 515 349 515 C235 515 167 433 148 386 L146 386 C146 386 149 404 149 427 L149 703 L81 703 L81 0 Z " />
<glyph glyph-name="uni04BC" unicode="&#x4bc;" horiz-adv-x="860" d="M44 509 C44 415 99 356 191 356 L199 356 L199 348 C199 132 340 -12 531 -12 C704 -12 794 81 798 84 L763 140 C756 134 668 53 536 53 C398 53 269 159 271 356 L801 356 C801 356 802 376 802 393 C802 597 689 715 520 715 C347 715 228 586 204 414 L193 414 C135 414 110 460 110 514 C110 544 112 564 117 589 L126 631 L60 631 L51 589 C46 566 44 535 44 509 L44 509 Z M274 414 C293 542 381 652 520 652 C667 652 731 535 731 414 L274 414 Z " />
<glyph glyph-name="uni04BD" unicode="&#x4bd;" horiz-adv-x="665" d="M39 382 C39 292 79 249 156 249 L160 249 C161 95 273 -12 423 -12 C536 -12 609 58 609 58 L578 110 C578 110 517 50 426 50 C322 50 233 121 230 249 L616 249 C616 249 619 270 619 283 C619 408 547 515 408 515 C287 515 185 436 164 303 L161 303 C120 303 99 328 99 387 C99 407 104 438 112 459 L52 459 C46 439 39 404 39 382 L39 382 Z M233 303 C249 403 322 458 406 458 C481 458 545 408 549 303 L233 303 Z " />
<glyph glyph-name="uni04BE" unicode="&#x4be;" horiz-adv-x="861" d="M44 509 C44 415 99 356 191 356 L199 356 L199 348 C199 148 319 10 489 -9 L489 -140 L553 -140 L553 -11 C711 -4 794 81 798 84 L763 140 C756 134 668 53 536 53 C398 53 269 159 271 356 L801 356 C801 356 802 376 802 393 C802 597 689 715 520 715 C347 715 228 586 204 414 L193 414 C135 414 110 460 110 514 C110 544 112 564 117 589 L126 631 L60 631 L51 589 C46 566 44 535 44 509 L44 509 Z M274 414 C293 542 381 652 520 652 C667 652 731 535 731 414 L274 414 Z " />
<glyph glyph-name="uni04BF" unicode="&#x4bf;" horiz-adv-x="666" d="M39 382 C39 292 79 249 156 249 L160 249 C161 114 247 16 368 -7 L368 -120 L432 -120 L432 -12 C540 -8 609 58 609 58 L578 110 C578 110 517 50 426 50 C322 50 233 121 230 249 L616 249 C616 249 619 270 619 283 C619 408 547 515 408 515 C287 515 185 436 164 303 L161 303 C120 303 99 328 99 387 C99 407 104 438 112 459 L52 459 C46 439 39 404 39 382 L39 382 Z M233 303 C249 403 322 458 406 458 C481 458 545 408 549 303 L233 303 Z " />
<glyph glyph-name="uni04C0" unicode="&#x4c0;" horiz-adv-x="270" d="M101 0 L169 0 L169 703 L101 703 L101 0 Z " />
<glyph glyph-name="uni04C1" unicode="&#x4c1;" horiz-adv-x="854" d="M22 0 L101 0 L291 336 L392 336 L392 0 L461 0 L461 336 L563 336 L753 0 L832 0 L621 369 L621 371 L817 703 L740 703 L563 398 L461 398 L461 703 L392 703 L392 398 L291 398 L114 703 L36 703 L232 371 L232 369 L22 0 Z M427 736 C495 736 559 779 559 854 L559 871 L501 871 L501 857 C501 811 464 787 427 787 C389 787 354 811 354 856 L354 871 L295 871 L295 854 C295 779 359 736 427 736 L427 736 Z " />
<glyph glyph-name="uni04C2" unicode="&#x4c2;" horiz-adv-x="721" d="M20 0 L99 0 L247 227 L327 227 L327 0 L393 0 L393 227 L474 227 L621 0 L701 0 L531 257 L531 259 L685 503 L610 503 L474 287 L393 287 L393 503 L327 503 L327 287 L246 287 L110 503 L36 503 L190 259 L190 257 L20 0 Z M360 569 C428 569 492 612 492 687 L492 704 L434 704 L434 690 C434 644 397 620 360 620 C322 620 287 644 287 689 L287 704 L228 704 L228 687 C228 612 292 569 360 569 L360 569 Z " />
<glyph glyph-name="uni04C3" unicode="&#x4c3;" horiz-adv-x="615" d="M101 0 L170 0 L170 337 L243 337 C380 337 491 277 491 117 C491 -59 404 -114 325 -114 L325 -174 C460 -174 562 -71 562 120 C562 208 526 343 357 383 L557 703 L478 703 L288 398 L170 398 L170 703 L101 703 L101 0 Z " />
<glyph glyph-name="uni04C4" unicode="&#x4c4;" horiz-adv-x="504" d="M81 0 L149 0 L149 228 L198 228 C314 228 390 173 390 48 C390 -61 338 -123 279 -154 L312 -206 C382 -166 457 -87 457 48 C457 120 438 235 294 274 L294 276 L460 503 L380 503 L227 288 L149 288 L149 503 L81 503 L81 0 Z " />
<glyph glyph-name="uni04C5" unicode="&#x4c5;" horiz-adv-x="692" d="M11 57 L11 -8 C203 7 245 227 245 560 L245 641 L494 641 L494 0 L588 0 L542 -140 L597 -140 L663 17 L663 62 L564 62 L564 703 L178 703 L178 561 C178 262 143 75 11 57 L11 57 Z " />
<glyph glyph-name="uni04C6" unicode="&#x4c6;" horiz-adv-x="556" d="M20 -4 C149 6 206 113 206 351 L206 444 L380 444 L380 0 L458 0 L418 -120 L471 -120 L527 16 L527 59 L448 59 L448 503 L140 503 L140 351 C140 165 104 70 20 57 L20 -4 Z " />
<glyph glyph-name="uni04C7" unicode="&#x4c7;" horiz-adv-x="747" d="M101 0 L170 0 L170 321 L577 321 L577 30 C577 -97 505 -114 464 -114 L464 -174 C531 -176 647 -151 647 32 L647 703 L577 703 L577 383 L170 383 L170 703 L101 703 L101 0 Z " />
<glyph glyph-name="uni04C8" unicode="&#x4c8;" horiz-adv-x="593" d="M81 0 L149 0 L149 228 L443 228 L443 40 C443 -70 396 -121 332 -153 L367 -206 C443 -162 512 -105 512 40 L512 503 L443 503 L443 288 L149 288 L149 503 L81 503 L81 0 Z " />
<glyph glyph-name="uni04C9" unicode="&#x4c9;" horiz-adv-x="775" d="M101 0 L170 0 L170 321 L577 321 L577 0 L670 0 L625 -140 L680 -140 L746 17 L746 62 L647 62 L647 703 L577 703 L577 383 L170 383 L170 703 L101 703 L101 0 Z " />
<glyph glyph-name="uni04CA" unicode="&#x4ca;" horiz-adv-x="618" d="M81 0 L149 0 L149 228 L443 228 L443 0 L520 0 L481 -120 L533 -120 L590 16 L590 59 L511 59 L511 503 L443 503 L443 288 L149 288 L149 503 L81 503 L81 0 Z " />
<glyph glyph-name="uni04CB" unicode="&#x4cb;" horiz-adv-x="618" d="M265 277 C338 277 412 309 448 329 L450 329 C450 329 448 310 448 296 L448 62 L356 62 L356 -140 L420 -140 L420 0 L518 0 L518 703 L448 703 L448 395 C416 374 347 341 275 341 C168 341 126 393 126 490 L126 703 L56 703 L56 476 C56 350 121 277 265 277 L265 277 Z " />
<glyph glyph-name="uni04CC" unicode="&#x4cc;" horiz-adv-x="508" d="M279 52 L279 -120 L344 -120 L344 0 L427 0 L427 503 L359 503 L359 289 C336 273 281 248 222 248 C131 248 114 301 114 353 L114 503 L47 503 L47 346 C47 250 97 188 208 188 C254 188 323 206 359 228 L361 228 C361 228 359 211 359 196 L359 52 L279 52 Z " />
<glyph glyph-name="uni04CD" unicode="&#x4cd;" horiz-adv-x="872" d="M74 0 L143 0 L182 492 C185 530 184 592 184 592 L186 592 C186 592 208 527 224 492 L389 131 L453 131 L619 492 C635 528 656 590 656 590 L658 590 C658 590 657 530 660 492 L699 0 L786 0 L741 -140 L796 -140 L861 17 L861 62 L763 62 L712 703 L641 703 L456 290 C440 254 422 204 422 204 L420 204 C420 204 402 254 386 290 L201 703 L130 703 L74 0 Z " />
<glyph glyph-name="uni04CE" unicode="&#x4ce;" horiz-adv-x="745" d="M62 0 L128 0 L153 325 C155 352 153 412 153 412 L155 412 C155 412 169 376 188 337 L327 58 L389 58 L529 339 C550 380 561 412 561 412 L563 412 C563 412 562 352 563 325 L588 0 L659 0 L620 -120 L673 -120 L729 16 L729 59 L650 59 L613 503 L542 503 L390 193 C375 161 359 122 359 122 L357 122 C357 122 340 162 326 193 L175 503 L103 503 L62 0 Z " />
<glyph glyph-name="uni04CF" unicode="&#x4cf;" horiz-adv-x="230" d="M81 0 L149 0 L149 703 L81 703 L81 0 Z " />
<glyph glyph-name="uni04D0" unicode="&#x4d0;" horiz-adv-x="632" d="M21 0 L94 0 L174 224 L457 224 L538 0 L611 0 L353 703 L279 703 L21 0 Z M195 284 L288 539 C300 572 315 631 315 631 L317 631 C317 631 332 572 344 539 L436 284 L195 284 Z M315 736 C383 736 447 779 447 854 L447 871 L389 871 L389 857 C389 811 352 787 315 787 C277 787 242 811 242 856 L242 871 L183 871 L183 854 C183 779 247 736 315 736 L315 736 Z " />
<glyph glyph-name="uni04D1" unicode="&#x4d1;" horiz-adv-x="518" d="M37 135 C37 38 122 -12 207 -12 C288 -12 351 40 377 101 L379 101 C379 101 376 84 376 59 L376 0 L441 0 L441 322 C441 448 374 515 253 515 C186 515 115 492 75 458 L106 406 C147 436 198 454 249 454 C320 454 373 421 373 324 L373 310 L343 310 C247 310 37 300 37 135 L37 135 Z M106 141 C106 253 266 256 344 256 L373 256 L373 233 C373 145 316 45 219 45 C144 45 106 94 106 141 L106 141 Z M265 569 C333 569 397 612 397 687 L397 704 L339 704 L339 690 C339 644 302 620 265 620 C227 620 192 644 192 689 L192 704 L133 704 L133 687 C133 612 197 569 265 569 L265 569 Z " />
<glyph glyph-name="uni04D2" unicode="&#x4d2;" horiz-adv-x="632" d="M21 0 L94 0 L174 224 L457 224 L538 0 L611 0 L353 703 L279 703 L21 0 Z M195 284 L288 539 C300 572 315 631 315 631 L317 631 C317 631 332 572 344 539 L436 284 L195 284 Z M361 785 L423 785 L423 871 L361 871 L361 785 Z M210 785 L271 785 L271 871 L210 871 L210 785 Z " />
<glyph glyph-name="uni04D3" unicode="&#x4d3;" horiz-adv-x="518" d="M37 135 C37 38 122 -12 207 -12 C288 -12 351 40 377 101 L379 101 C379 101 376 84 376 59 L376 0 L441 0 L441 322 C441 448 374 515 253 515 C186 515 115 492 75 458 L106 406 C147 436 198 454 249 454 C320 454 373 421 373 324 L373 310 L343 310 C247 310 37 300 37 135 L37 135 Z M106 141 C106 253 266 256 344 256 L373 256 L373 233 C373 145 316 45 219 45 C144 45 106 94 106 141 L106 141 Z M301 618 L363 618 L363 704 L301 704 L301 618 Z M150 618 L211 618 L211 704 L150 704 L150 618 Z " />
<glyph glyph-name="uni04D4" unicode="&#x4d4;" horiz-adv-x="848" d="M16 0 L89 0 L219 324 L390 324 L390 0 L804 0 L804 62 L459 62 L459 323 L726 323 L726 385 L459 385 L459 641 L786 641 L786 703 L305 703 L16 0 Z M244 384 L349 641 L390 641 L390 384 L244 384 Z " />
<glyph glyph-name="uni04D5" unicode="&#x4d5;" horiz-adv-x="867" d="M38 137 C38 40 119 -12 211 -12 C345 -12 393 102 401 128 L403 128 C440 41 521 -12 624 -12 C691 -12 766 16 810 58 L779 110 C739 72 681 50 627 50 C522 50 442 120 439 252 L817 252 C818 263 820 275 820 286 C820 411 746 515 611 515 C529 515 462 480 421 411 L419 411 C398 474 349 515 249 515 C185 515 115 493 74 457 L106 406 C146 436 195 454 245 454 C321 454 373 421 373 324 L373 306 L340 306 C228 306 38 301 38 137 L38 137 Z M443 306 C459 406 524 457 608 457 C679 457 746 410 750 306 L443 306 Z M108 141 C108 243 230 252 315 252 L374 252 L374 234 C374 146 317 45 220 45 C146 45 108 92 108 141 L108 141 Z " />
<glyph glyph-name="uni04D6" unicode="&#x4d6;" horiz-adv-x="560" d="M101 0 L515 0 L515 62 L170 62 L170 323 L437 323 L437 385 L170 385 L170 641 L496 641 L496 703 L101 703 L101 0 Z M303 736 C371 736 435 779 435 854 L435 871 L377 871 L377 857 C377 811 340 787 303 787 C265 787 230 811 230 856 L230 871 L171 871 L171 854 C171 779 235 736 303 736 L303 736 Z " />
<glyph glyph-name="uni04D7" unicode="&#x4d7;" horiz-adv-x="553" d="M47 251 C47 96 161 -12 311 -12 C377 -12 450 15 497 58 L466 110 C425 73 368 50 313 50 C209 50 121 121 118 249 L504 249 C505 260 506 272 506 283 C506 408 435 515 296 515 C160 515 47 416 47 251 L47 251 Z M121 303 C137 404 210 459 294 459 C369 459 433 408 437 303 L121 303 Z M290 569 C358 569 422 612 422 687 L422 704 L364 704 L364 690 C364 644 327 620 290 620 C252 620 217 644 217 689 L217 704 L158 704 L158 687 C158 612 222 569 290 569 L290 569 Z " />
<glyph glyph-name="uni04D8" unicode="&#x4d8;" horiz-adv-x="720" d="M55 341 C55 99 176 -12 349 -12 C545 -12 663 146 663 355 C663 569 530 715 341 715 C169 715 77 628 73 624 L110 573 C117 579 202 650 335 650 C482 650 587 539 590 380 L57 380 C57 380 55 359 55 341 L55 341 Z M127 321 L588 321 C588 157 491 52 356 52 C196 52 127 152 127 321 L127 321 Z " />
<glyph glyph-name="uni04D9" unicode="&#x4d9;" horiz-adv-x="554" d="M47 233 C47 90 121 -12 266 -12 C398 -12 506 80 506 252 C506 408 404 515 262 515 C143 515 65 451 57 446 L88 395 C88 395 155 455 256 455 C354 455 433 380 436 269 L49 269 C49 269 47 247 47 233 L47 233 Z M118 215 L432 215 C427 97 347 45 268 45 C190 45 122 87 118 215 L118 215 Z " />
<glyph glyph-name="uni04DA" unicode="&#x4da;" horiz-adv-x="720" d="M400 785 L462 785 L462 871 L400 871 L400 785 Z M249 785 L310 785 L310 871 L249 871 L249 785 Z M55 341 C55 99 176 -12 349 -12 C545 -12 663 146 663 355 C663 569 530 715 341 715 C169 715 77 628 73 624 L110 573 C117 579 202 650 335 650 C482 650 587 539 590 380 L57 380 C57 380 55 359 55 341 L55 341 Z M127 321 L588 321 C588 157 491 52 356 52 C196 52 127 152 127 321 L127 321 Z " />
<glyph glyph-name="uni04DB" unicode="&#x4db;" horiz-adv-x="554" d="M310 618 L372 618 L372 704 L310 704 L310 618 Z M159 618 L220 618 L220 704 L159 704 L159 618 Z M47 233 C47 90 121 -12 266 -12 C398 -12 506 80 506 252 C506 408 404 515 262 515 C143 515 65 451 57 446 L88 395 C88 395 155 455 256 455 C354 455 433 380 436 269 L49 269 C49 269 47 247 47 233 L47 233 Z M118 215 L432 215 C427 97 347 45 268 45 C190 45 122 87 118 215 L118 215 Z " />
<glyph glyph-name="uni04DC" unicode="&#x4dc;" horiz-adv-x="854" d="M22 0 L101 0 L291 336 L392 336 L392 0 L461 0 L461 336 L563 336 L753 0 L832 0 L621 369 L621 371 L817 703 L740 703 L563 398 L461 398 L461 703 L392 703 L392 398 L291 398 L114 703 L36 703 L232 371 L232 369 L22 0 Z M473 785 L535 785 L535 871 L473 871 L473 785 Z M322 785 L383 785 L383 871 L322 871 L322 785 Z " />
<glyph glyph-name="uni04DD" unicode="&#x4dd;" horiz-adv-x="721" d="M404 618 L466 618 L466 704 L404 704 L404 618 Z M253 618 L314 618 L314 704 L253 704 L253 618 Z M20 0 L99 0 L247 227 L327 227 L327 0 L393 0 L393 227 L474 227 L621 0 L701 0 L531 257 L531 259 L685 503 L610 503 L474 287 L393 287 L393 503 L327 503 L327 287 L246 287 L110 503 L36 503 L190 259 L190 257 L20 0 Z " />
<glyph glyph-name="uni04DE" unicode="&#x4de;" horiz-adv-x="538" d="M309 785 L371 785 L371 871 L309 871 L309 785 Z M158 785 L219 785 L219 871 L158 871 L158 785 Z M32 79 C82 21 168 -12 247 -12 C380 -12 483 69 483 197 C483 288 430 349 354 370 L354 372 C405 396 459 445 459 531 C459 642 381 715 254 715 C201 715 126 706 53 646 L85 592 C138 636 195 652 247 652 C347 652 388 592 388 524 C388 446 322 394 244 394 L173 394 L173 334 L262 334 C345 334 411 285 411 199 C411 108 340 52 244 52 C176 52 111 86 73 129 L32 79 Z " />
<glyph glyph-name="uni04DF" unicode="&#x4df;" horiz-adv-x="439" d="M260 618 L322 618 L322 704 L260 704 L260 618 Z M109 618 L170 618 L170 704 L109 704 L109 618 Z M30 61 C67 25 126 -12 205 -12 C302 -12 392 40 392 142 C392 209 352 249 297 263 L297 265 C340 282 374 317 374 380 C374 470 303 515 210 515 C137 515 82 489 47 460 L77 412 C111 439 151 457 200 457 C262 457 304 429 304 372 C304 314 260 287 192 287 L139 287 L139 233 L200 233 C280 233 322 201 322 144 C322 77 262 46 201 46 C133 46 86 87 66 108 L30 61 Z " />
<glyph glyph-name="uni04E0" unicode="&#x4e0;" horiz-adv-x="521" d="M64 105 L36 51 C90 13 159 -10 228 -10 C369 -10 468 75 468 203 C468 269 445 362 303 384 C282 388 260 389 208 390 L208 392 C208 392 224 405 236 417 L450 652 L450 703 L53 703 L53 643 L304 643 C338 643 365 645 365 645 L365 643 C365 643 343 625 322 602 L122 381 L122 332 C224 332 253 332 273 329 C365 317 399 272 399 198 C399 111 330 51 226 51 C171 51 106 72 64 105 L64 105 Z " />
<glyph glyph-name="uni04E1" unicode="&#x4e1;" horiz-adv-x="479" d="M40 -95 L12 -149 C66 -187 135 -210 204 -210 C345 -210 444 -125 444 3 C444 69 421 162 279 184 C258 188 236 189 184 190 L184 192 C184 192 200 205 212 217 L426 452 L426 503 L29 503 L29 443 L280 443 C314 443 341 445 341 445 L341 443 C341 443 319 425 298 402 L98 181 L98 132 C200 132 229 132 249 129 C341 117 375 72 375 -2 C375 -89 306 -149 202 -149 C147 -149 82 -128 40 -95 L40 -95 Z " />
<glyph glyph-name="uni04E2" unicode="&#x4e2;" horiz-adv-x="751" d="M257 785 L503 785 L503 840 L257 840 L257 785 Z M101 0 L168 0 L526 506 C550 541 585 601 585 601 L587 601 C587 601 581 543 581 506 L581 0 L650 0 L650 703 L583 703 L227 199 C203 164 166 102 166 102 L164 102 C164 102 170 160 170 197 L170 703 L101 703 L101 0 Z " />
<glyph glyph-name="uni04E3" unicode="&#x4e3;" horiz-adv-x="591" d="M81 0 L146 0 L393 331 C412 359 443 399 444 404 L446 404 C446 400 443 360 443 331 L443 0 L510 0 L510 503 L445 503 L198 173 C178 145 148 102 146 98 L144 98 C145 100 147 142 147 173 L147 503 L81 503 L81 0 Z M174 618 L420 618 L420 673 L174 673 L174 618 Z " />
<glyph glyph-name="uni04E4" unicode="&#x4e4;" horiz-adv-x="751" d="M420 785 L482 785 L482 871 L420 871 L420 785 Z M269 785 L330 785 L330 871 L269 871 L269 785 Z M101 0 L168 0 L526 506 C550 541 585 601 585 601 L587 601 C587 601 581 543 581 506 L581 0 L650 0 L650 703 L583 703 L227 199 C203 164 166 102 166 102 L164 102 C164 102 170 160 170 197 L170 703 L101 703 L101 0 Z " />
<glyph glyph-name="uni04E5" unicode="&#x4e5;" horiz-adv-x="591" d="M344 618 L406 618 L406 704 L344 704 L344 618 Z M193 618 L254 618 L254 704 L193 704 L193 618 Z M81 0 L146 0 L393 331 C412 359 443 399 444 404 L446 404 C446 400 443 360 443 331 L443 0 L510 0 L510 503 L445 503 L198 173 C178 145 148 102 146 98 L144 98 C145 100 147 142 147 173 L147 503 L81 503 L81 0 Z " />
<glyph glyph-name="uni04E6" unicode="&#x4e6;" horiz-adv-x="825" d="M455 785 L517 785 L517 871 L455 871 L455 785 Z M304 785 L365 785 L365 871 L304 871 L304 785 Z M54 357 C54 150 207 -12 412 -12 C618 -12 770 150 770 357 C770 558 618 715 412 715 C207 715 54 558 54 357 L54 357 Z M126 357 C126 523 248 650 412 650 C577 650 698 523 698 357 C698 185 577 53 412 53 C248 53 126 185 126 357 L126 357 Z " />
<glyph glyph-name="uni04E7" unicode="&#x4e7;" horiz-adv-x="624" d="M358 618 L420 618 L420 704 L358 704 L358 618 Z M207 618 L268 618 L268 704 L207 704 L207 618 Z M47 254 C47 102 165 -12 312 -12 C459 -12 578 102 578 254 C578 403 459 515 312 515 C165 515 47 403 47 254 L47 254 Z M117 254 C117 368 204 454 312 454 C420 454 508 368 508 254 C508 136 420 50 312 50 C204 50 117 136 117 254 L117 254 Z " />
<glyph glyph-name="uni04E8" unicode="&#x4e8;" horiz-adv-x="825" d="M54 357 C54 150 208 -12 412 -12 C616 -12 770 150 770 357 C770 558 616 715 412 715 C208 715 54 558 54 357 L54 357 Z M413 51 C259 51 140 168 126 326 L698 326 C684 168 566 51 413 51 L413 51 Z M413 651 C567 651 685 538 698 385 L126 385 C139 538 258 651 413 651 L413 651 Z " />
<glyph glyph-name="uni04E9" unicode="&#x4e9;" horiz-adv-x="624" d="M47 254 C47 102 165 -12 312 -12 C459 -12 578 102 578 254 C578 403 459 515 312 515 C165 515 47 403 47 254 L47 254 Z M312 45 C210 45 126 122 114 229 L510 229 C499 122 414 45 312 45 L312 45 Z M312 458 C414 458 499 383 510 279 L114 279 C126 383 210 458 312 458 L312 458 Z " />
<glyph glyph-name="uni04EA" unicode="&#x4ea;" horiz-adv-x="825" d="M54 357 C54 150 208 -12 412 -12 C616 -12 770 150 770 357 C770 558 616 715 412 715 C208 715 54 558 54 357 L54 357 Z M413 51 C259 51 140 168 126 326 L698 326 C684 168 566 51 413 51 L413 51 Z M413 651 C567 651 685 538 698 385 L126 385 C139 538 258 651 413 651 L413 651 Z M457 785 L519 785 L519 871 L457 871 L457 785 Z M306 785 L367 785 L367 871 L306 871 L306 785 Z " />
<glyph glyph-name="uni04EB" unicode="&#x4eb;" horiz-adv-x="624" d="M47 254 C47 102 165 -12 312 -12 C459 -12 578 102 578 254 C578 403 459 515 312 515 C165 515 47 403 47 254 L47 254 Z M312 45 C210 45 126 122 114 229 L510 229 C499 122 414 45 312 45 L312 45 Z M312 458 C414 458 499 383 510 279 L114 279 C126 383 210 458 312 458 L312 458 Z M354 618 L416 618 L416 704 L354 704 L354 618 Z M203 618 L264 618 L264 704 L203 704 L203 618 Z " />
<glyph glyph-name="uni04EC" unicode="&#x4ec;" horiz-adv-x="717" d="M371 785 L433 785 L433 871 L371 871 L371 785 Z M220 785 L281 785 L281 871 L220 871 L220 785 Z M38 95 C105 27 206 -12 306 -12 C512 -12 662 151 662 356 C662 559 515 715 308 715 C216 715 117 684 54 623 L91 571 C152 623 230 651 307 651 C463 651 579 537 589 382 L192 382 L192 322 L588 322 C575 170 461 52 306 52 C216 52 126 91 76 144 L38 95 Z " />
<glyph glyph-name="uni04ED" unicode="&#x4ed;" horiz-adv-x="541" d="M297 618 L359 618 L359 704 L297 704 L297 618 Z M146 618 L207 618 L207 704 L146 704 L146 618 Z M35 65 C86 13 158 -12 230 -12 C380 -12 494 95 494 251 C494 406 379 515 232 515 C163 515 88 491 45 444 L80 394 C120 433 173 456 231 456 C330 456 414 386 425 278 L166 278 L166 224 L425 224 C414 118 331 47 229 47 C175 47 110 67 65 116 L35 65 Z " />
<glyph glyph-name="uni04EE" unicode="&#x4ee;" horiz-adv-x="587" d="M171 785 L417 785 L417 840 L171 840 L171 785 Z M83 31 C117 7 156 -12 199 -12 C273 -12 314 45 340 111 L570 703 L496 703 L350 310 C335 268 319 219 319 219 L317 219 C317 219 298 268 277 311 L84 703 L7 703 L286 145 C264 87 244 50 198 50 C164 50 133 72 116 84 L83 31 Z " />
<glyph glyph-name="uni04EF" unicode="&#x4ef;" horiz-adv-x="526" d="M45 -126 L19 -180 C19 -180 56 -210 108 -210 C175 -210 226 -169 252 -105 L500 503 L427 503 L282 136 C272 111 265 83 265 83 L263 83 C263 83 254 111 244 136 L97 503 L22 503 L231 5 L201 -67 C181 -113 149 -149 105 -149 C73 -149 45 -126 45 -126 L45 -126 Z M139 618 L385 618 L385 673 L139 673 L139 618 Z " />
<glyph glyph-name="uni04F0" unicode="&#x4f0;" horiz-adv-x="587" d="M341 785 L403 785 L403 871 L341 871 L341 785 Z M190 785 L251 785 L251 871 L190 871 L190 785 Z M83 31 C117 7 156 -12 199 -12 C273 -12 314 45 340 111 L570 703 L496 703 L350 310 C335 268 319 219 319 219 L317 219 C317 219 298 268 277 311 L84 703 L7 703 L286 145 C264 87 244 50 198 50 C164 50 133 72 116 84 L83 31 Z " />
<glyph glyph-name="uni04F1" unicode="&#x4f1;" horiz-adv-x="526" d="M45 -126 L19 -180 C19 -180 56 -210 108 -210 C175 -210 226 -169 252 -105 L500 503 L427 503 L282 136 C272 111 265 83 265 83 L263 83 C263 83 254 111 244 136 L97 503 L22 503 L231 5 L201 -67 C181 -113 149 -149 105 -149 C73 -149 45 -126 45 -126 L45 -126 Z M307 618 L369 618 L369 704 L307 704 L307 618 Z M156 618 L217 618 L217 704 L156 704 L156 618 Z " />
<glyph glyph-name="uni04F2" unicode="&#x4f2;" horiz-adv-x="587" d="M83 31 C117 7 156 -12 199 -12 C273 -12 314 45 340 111 L570 703 L496 703 L350 310 C335 268 319 219 319 219 L317 219 C317 219 298 268 277 311 L84 703 L7 703 L286 145 C264 87 244 50 198 50 C164 50 133 72 116 84 L83 31 Z M328 752 L388 752 L475 871 L398 871 L328 752 Z M194 752 L259 752 L327 871 L259 871 L194 752 Z " />
<glyph glyph-name="uni04F3" unicode="&#x4f3;" horiz-adv-x="526" d="M45 -126 L19 -180 C19 -180 56 -210 108 -210 C175 -210 226 -169 252 -105 L500 503 L427 503 L282 136 C272 111 265 83 265 83 L263 83 C263 83 254 111 244 136 L97 503 L22 503 L231 5 L201 -67 C181 -113 149 -149 105 -149 C73 -149 45 -126 45 -126 L45 -126 Z M289 585 L349 585 L436 704 L359 704 L289 585 Z M155 585 L220 585 L288 704 L220 704 L155 585 Z " />
<glyph glyph-name="uni04F4" unicode="&#x4f4;" horiz-adv-x="618" d="M265 277 C338 277 412 309 448 329 L450 329 C450 329 448 310 448 296 L448 0 L518 0 L518 703 L448 703 L448 395 C416 374 347 341 275 341 C168 341 126 393 126 490 L126 703 L56 703 L56 476 C56 350 121 277 265 277 L265 277 Z M338 785 L400 785 L400 871 L338 871 L338 785 Z M187 785 L248 785 L248 871 L187 871 L187 785 Z " />
<glyph glyph-name="uni04F5" unicode="&#x4f5;" horiz-adv-x="502" d="M287 618 L349 618 L349 704 L287 704 L287 618 Z M136 618 L197 618 L197 704 L136 704 L136 618 Z M216 184 C261 184 319 202 353 223 L355 223 C355 223 353 206 353 191 L353 0 L421 0 L421 503 L353 503 L353 286 C331 269 284 245 228 245 C130 245 114 297 114 350 L114 503 L47 503 L47 343 C47 245 99 184 216 184 L216 184 Z " />
<glyph glyph-name="uni04F6" unicode="&#x4f6;" horiz-adv-x="488" d="M101 0 L197 0 L197 -140 L261 -140 L261 62 L170 62 L170 641 L470 641 L470 703 L101 703 L101 0 Z " />
<glyph glyph-name="uni04F7" unicode="&#x4f7;" horiz-adv-x="407" d="M81 0 L165 0 L165 -120 L229 -120 L229 60 L149 60 L149 444 L381 444 L381 503 L81 503 L81 0 Z " />
<glyph glyph-name="uni04F8" unicode="&#x4f8;" horiz-adv-x="813" d="M451 785 L513 785 L513 871 L451 871 L451 785 Z M300 785 L361 785 L361 871 L300 871 L300 785 Z M643 0 L712 0 L712 703 L643 703 L643 0 Z M101 0 L334 0 C451 0 536 81 536 208 C536 347 446 419 328 419 L170 419 L170 703 L101 703 L101 0 Z M170 62 L170 357 L323 357 C407 357 465 301 465 208 C465 116 411 62 324 62 L170 62 Z " />
<glyph glyph-name="uni04F9" unicode="&#x4f9;" horiz-adv-x="667" d="M377 618 L439 618 L439 704 L377 704 L377 618 Z M226 618 L287 618 L287 704 L226 704 L226 618 Z M518 0 L586 0 L586 503 L518 503 L518 0 Z M81 0 L255 0 C376 0 433 63 433 154 C433 273 347 311 257 311 L149 311 L149 503 L81 503 L81 0 Z M149 54 L149 257 L250 257 C329 257 363 216 363 155 C363 95 330 54 249 54 L149 54 Z " />
<glyph glyph-name="uni0524" unicode="&#x524;" horiz-adv-x="765" d="M101 0 L170 0 L170 641 L568 641 L568 0 L665 0 L665 -140 L729 -140 L729 62 L637 62 L637 703 L101 703 L101 0 Z " />
<glyph glyph-name="uni0525" unicode="&#x525;" horiz-adv-x="607" d="M81 0 L149 0 L149 443 L434 443 L434 0 L517 0 L517 -120 L581 -120 L581 60 L502 60 L502 503 L81 503 L81 0 Z " />
<glyph glyph-name="uni1E9E" unicode="&#x1e9e;" horiz-adv-x="666" d="M95 0 L165 0 L165 517 C165 586 215 641 288 641 L460 641 C496 641 503 643 503 643 L503 641 C503 641 488 627 458 582 L323 386 L323 337 L413 337 C490 337 545 275 545 200 C545 125 490 62 411 62 L255 62 L255 0 L416 0 C527 0 616 90 616 200 C616 302 539 391 435 395 L404 395 L404 397 C404 397 414 409 430 432 L587 655 L587 703 L283 703 C176 703 95 622 95 516 L95 0 Z " />
<glyph glyph-name="thinspace" unicode="&#x2009;" horiz-adv-x="12" d="" />
<glyph glyph-name="endash" unicode="&#x2013;" horiz-adv-x="649" d="M75 255 L575 255 L575 313 L75 313 L75 255 Z " />
<glyph glyph-name="emdash" unicode="&#x2014;" horiz-adv-x="849" d="M75 255 L775 255 L775 313 L75 313 L75 255 Z " />
<glyph glyph-name="quoteleft" unicode="&#x2018;" horiz-adv-x="238" d="M67 541 L139 541 L178 712 L124 712 L67 541 Z " />
<glyph glyph-name="quoteright" unicode="&#x2019;" horiz-adv-x="234" d="M70 541 L125 541 L181 712 L109 712 L70 541 Z " />
<glyph glyph-name="quotesinglbase" unicode="&#x201a;" horiz-adv-x="250" d="M59 -90 L112 -90 L168 82 L98 82 L59 -90 Z " />
<glyph glyph-name="quotedblleft" unicode="&#x201c;" horiz-adv-x="358" d="M187 541 L259 541 L298 712 L243 712 L187 541 Z M67 541 L139 541 L178 712 L124 712 L67 541 Z " />
<glyph glyph-name="quotedblright" unicode="&#x201d;" horiz-adv-x="353" d="M190 541 L244 541 L300 712 L228 712 L190 541 Z M70 541 L125 541 L181 712 L109 712 L70 541 Z " />
<glyph glyph-name="quotedblbase" unicode="&#x201e;" horiz-adv-x="369" d="M177 -90 L231 -90 L287 82 L216 82 L177 -90 Z M59 -90 L112 -90 L168 82 L98 82 L59 -90 Z " />
<glyph glyph-name="dagger" unicode="&#x2020;" horiz-adv-x="401" d="M165 -50 L232 -50 L232 445 L353 445 L353 503 L232 503 L232 703 L165 703 L165 503 L48 503 L48 445 L165 445 L165 -50 Z " />
<glyph glyph-name="daggerdbl" unicode="&#x2021;" horiz-adv-x="427" d="M61 179 L178 179 L178 -50 L245 -50 L245 179 L366 179 L366 237 L245 237 L245 445 L366 445 L366 503 L245 503 L245 703 L178 703 L178 503 L61 503 L61 445 L178 445 L178 237 L61 237 L61 179 Z " />
<glyph glyph-name="bullet" unicode="&#x2022;" horiz-adv-x="459" d="M230 148 C309 148 372 212 372 291 C372 370 309 434 230 434 C151 434 87 370 87 291 C87 212 151 148 230 148 L230 148 Z " />
<glyph glyph-name="ellipsis" unicode="&#x2026;" horiz-adv-x="699" d="M544 0 L625 0 L625 83 L544 83 L544 0 Z M309 0 L389 0 L389 83 L309 83 L309 0 Z M74 0 L154 0 L154 83 L74 83 L74 0 Z " />
<glyph glyph-name="perthousand" unicode="&#x2030;" horiz-adv-x="1048" d="M196 437 C274 437 337 499 337 576 C337 652 274 715 196 715 C118 715 56 652 56 576 C56 499 118 437 196 437 L196 437 Z M62 0 L134 0 L669 703 L597 703 L62 0 Z M196 493 C150 493 115 530 115 576 C115 621 150 659 196 659 C242 659 277 621 277 576 C277 530 242 493 196 493 L196 493 Z M730 126 C730 50 793 -12 870 -12 C948 -12 1011 50 1011 126 C1011 203 948 266 870 266 C793 266 730 203 730 126 L730 126 Z M394 126 C394 50 456 -12 534 -12 C611 -12 675 50 675 126 C675 203 611 266 534 266 C456 266 394 203 394 126 L394 126 Z M790 127 C790 172 824 210 870 210 C916 210 952 172 952 127 C952 81 916 44 870 44 C824 44 790 81 790 127 L790 127 Z M453 127 C453 172 488 210 534 210 C580 210 615 172 615 127 C615 81 580 44 534 44 C488 44 453 81 453 127 L453 127 Z " />
<glyph glyph-name="guilsinglleft" unicode="&#x2039;" horiz-adv-x="346" d="M214 77 L288 77 L124 282 L288 488 L214 488 L50 282 L214 77 Z " />
<glyph glyph-name="guilsinglright" unicode="&#x203a;" horiz-adv-x="346" d="M58 77 L132 77 L296 282 L132 488 L58 488 L222 282 L58 77 Z " />
<glyph glyph-name="fraction" unicode="&#x2044;" horiz-adv-x="159" d="M-58 0 L277 703 L219 703 L-117 0 L-58 0 Z " />
<glyph glyph-name="zerosuperior" unicode="&#x2070;" horiz-adv-x="381" d="M190 413 C306 413 343 512 343 641 C343 769 306 869 190 869 C75 869 38 769 38 641 C38 512 75 413 190 413 L190 413 Z M190 465 C116 465 94 542 94 641 C94 739 116 817 190 817 C264 817 286 739 286 641 C286 542 264 465 190 465 L190 465 Z " />
<glyph glyph-name="foursuperior" unicode="&#x2074;" horiz-adv-x="381" d="M233 423 L288 423 L288 537 L353 537 L353 587 L288 587 L288 859 L234 859 L22 575 L22 537 L233 537 L233 423 Z M90 587 L90 589 L202 736 C219 758 235 785 235 785 L237 785 C237 785 233 750 233 723 L233 587 L90 587 Z " />
<glyph glyph-name="fivesuperior" unicode="&#x2075;" horiz-adv-x="381" d="M179 413 C268 413 334 480 334 560 C334 639 271 705 183 705 C160 705 140 700 122 693 L120 693 C120 693 124 707 126 730 L135 808 L307 808 L307 859 L89 859 L64 645 L98 632 C120 647 149 656 176 656 C232 656 278 614 278 560 C278 506 232 465 177 465 C139 465 100 486 81 517 L43 482 C75 439 125 413 179 413 L179 413 Z " />
<glyph glyph-name="sixsuperior" unicode="&#x2076;" horiz-adv-x="381" d="M201 413 C281 413 343 468 343 562 C343 646 285 703 201 703 C168 703 127 687 106 663 L104 663 C115 744 160 817 235 817 C256 817 285 809 300 801 L322 848 C295 861 265 869 234 869 C99 869 43 726 43 614 C43 497 105 413 201 413 L201 413 Z M201 465 C140 465 101 536 101 591 C101 622 145 657 196 657 C250 657 287 619 287 562 C287 509 257 465 201 465 L201 465 Z " />
<glyph glyph-name="sevensuperior" unicode="&#x2077;" horiz-adv-x="381" d="M69 423 L130 423 L341 821 L341 859 L51 859 L51 808 L226 808 C257 808 276 810 276 810 L276 808 C276 808 260 783 243 751 L69 423 Z " />
<glyph glyph-name="eightsuperior" unicode="&#x2078;" horiz-adv-x="381" d="M190 413 C272 413 339 467 339 538 C339 586 310 615 274 637 C282 645 331 693 331 753 C331 830 262 869 195 869 C127 869 60 830 60 756 C60 712 82 684 112 663 C93 651 38 611 38 547 C38 459 115 413 190 413 L190 413 Z M232 657 C175 683 115 702 115 754 C115 798 153 818 194 818 C235 818 277 796 277 751 C277 706 244 670 232 657 L232 657 Z M190 463 C141 463 93 495 93 549 C93 597 132 628 152 642 C212 612 283 594 283 539 C283 494 236 463 190 463 L190 463 Z " />
<glyph glyph-name="ninesuperior" unicode="&#x2079;" horiz-adv-x="381" d="M59 434 C82 421 120 413 146 413 C282 413 338 556 338 667 C338 784 275 869 180 869 C100 869 38 813 38 720 C38 636 96 578 179 578 C213 578 254 595 275 618 L277 618 C265 538 220 465 145 465 C123 465 95 473 80 481 L59 434 Z M184 624 C130 624 93 663 93 719 C93 773 124 817 180 817 C240 817 279 746 279 691 C279 659 236 624 184 624 L184 624 Z " />
<glyph glyph-name="zeroinferior" unicode="&#x2080;" horiz-adv-x="381" d="M190 -167 C306 -167 343 -68 343 61 C343 189 306 289 190 289 C75 289 38 189 38 61 C38 -68 75 -167 190 -167 L190 -167 Z M190 -115 C116 -115 94 -38 94 61 C94 159 116 237 190 237 C264 237 286 159 286 61 C286 -38 264 -115 190 -115 L190 -115 Z " />
<glyph glyph-name="oneinferior" unicode="&#x2081;" horiz-adv-x="381" d="M78 -157 L320 -157 L320 -107 L228 -107 L228 279 L176 279 L77 180 L112 143 L152 182 C169 198 173 206 173 206 L174 206 C174 206 173 195 173 182 L173 -107 L78 -107 L78 -157 Z " />
<glyph glyph-name="twoinferior" unicode="&#x2082;" horiz-adv-x="381" d="M51 -157 L329 -157 L329 -107 L107 -107 C112 7 321 14 321 162 C321 233 269 289 184 289 C132 289 82 259 58 223 L93 188 C115 214 146 237 183 237 C231 237 265 202 265 160 C265 48 48 40 48 -126 C48 -135 49 -146 51 -157 L51 -157 Z " />
<glyph glyph-name="threeinferior" unicode="&#x2083;" horiz-adv-x="381" d="M181 -167 C265 -167 330 -103 330 -26 C330 62 262 97 205 103 L324 242 L324 279 L62 279 L62 228 L215 228 C234 228 252 231 252 231 L252 229 C252 229 238 216 227 204 L128 88 L142 58 L175 58 C223 58 273 28 273 -26 C273 -78 226 -115 180 -115 C131 -115 91 -89 73 -63 L38 -101 C71 -146 129 -167 181 -167 L181 -167 Z " />
<glyph glyph-name="fourinferior" unicode="&#x2084;" horiz-adv-x="381" d="M233 -157 L288 -157 L288 -43 L353 -43 L353 7 L288 7 L288 279 L234 279 L22 -5 L22 -43 L233 -43 L233 -157 Z M90 7 L90 9 L202 156 C219 178 235 205 235 205 L237 205 C237 205 233 170 233 143 L233 7 L90 7 Z " />
<glyph glyph-name="fiveinferior" unicode="&#x2085;" horiz-adv-x="381" d="M179 -167 C268 -167 334 -100 334 -20 C334 59 271 125 183 125 C160 125 140 120 122 113 L120 113 C120 113 124 127 126 150 L135 228 L307 228 L307 279 L89 279 L64 65 L98 52 C120 67 149 76 176 76 C232 76 278 34 278 -20 C278 -74 232 -115 177 -115 C139 -115 100 -94 81 -63 L43 -98 C75 -141 125 -167 179 -167 L179 -167 Z " />
<glyph glyph-name="sixinferior" unicode="&#x2086;" horiz-adv-x="381" d="M201 -167 C281 -167 343 -112 343 -18 C343 66 285 123 201 123 C168 123 127 107 106 83 L104 83 C115 164 160 237 235 237 C256 237 285 229 300 221 L322 268 C295 281 265 289 234 289 C99 289 43 146 43 34 C43 -83 105 -167 201 -167 L201 -167 Z M201 -115 C140 -115 101 -44 101 11 C101 42 145 77 196 77 C250 77 287 39 287 -18 C287 -71 257 -115 201 -115 L201 -115 Z " />
<glyph glyph-name="seveninferior" unicode="&#x2087;" horiz-adv-x="381" d="M69 -157 L130 -157 L341 241 L341 279 L51 279 L51 228 L226 228 C257 228 276 230 276 230 L276 228 C276 228 260 203 243 171 L69 -157 Z " />
<glyph glyph-name="eightinferior" unicode="&#x2088;" horiz-adv-x="381" d="M190 -166 C272 -166 339 -112 339 -41 C339 7 310 36 274 58 C282 66 331 114 331 174 C331 251 262 290 195 290 C127 290 60 251 60 177 C60 133 82 105 112 84 C93 72 38 32 38 -32 C38 -120 115 -166 190 -166 L190 -166 Z M232 78 C175 104 115 123 115 175 C115 219 153 239 194 239 C235 239 277 217 277 172 C277 127 244 91 232 78 L232 78 Z M190 -116 C141 -116 93 -84 93 -30 C93 18 132 49 152 63 C212 33 283 15 283 -40 C283 -85 236 -116 190 -116 L190 -116 Z " />
<glyph glyph-name="nineinferior" unicode="&#x2089;" horiz-adv-x="381" d="M59 -146 C82 -159 120 -167 146 -167 C282 -167 338 -24 338 87 C338 204 275 289 180 289 C100 289 38 233 38 140 C38 56 96 -2 179 -2 C213 -2 254 15 275 38 L277 38 C265 -42 220 -115 145 -115 C123 -115 95 -107 80 -99 L59 -146 Z M184 44 C130 44 93 83 93 139 C93 193 124 237 180 237 C240 237 279 166 279 111 C279 79 236 44 184 44 L184 44 Z " />
<glyph glyph-name="Euro" unicode="&#x20ac;" horiz-adv-x="568" d="M27 266 L89 266 C124 103 256 -12 427 -12 C462 -12 504 -6 532 3 L516 68 C489 59 456 55 427 55 C296 55 194 141 164 266 L436 266 L445 317 L153 317 C150 343 150 373 154 398 L460 398 L471 449 L165 449 C199 568 297 649 426 649 C453 649 482 645 505 638 L521 703 C490 711 458 715 427 715 C262 715 130 604 91 449 L27 449 L27 398 L82 398 C78 374 78 335 81 317 L27 317 L27 266 Z " />
<glyph glyph-name="numero" unicode="&#x2116;" horiz-adv-x="1036" d="M94 0 L164 0 L164 506 C164 543 158 601 158 601 L160 601 C160 601 194 541 218 506 L577 0 L644 0 L644 703 L575 703 L575 197 C575 160 580 102 580 102 L578 102 C578 102 545 162 521 197 L162 703 L94 703 L94 0 Z M720 475 C720 400 779 342 852 342 C926 342 984 400 984 475 C984 549 926 606 852 606 C779 606 720 549 720 475 L720 475 Z M776 475 C776 519 810 552 852 552 C895 552 928 519 928 475 C928 430 895 395 852 395 C810 395 776 430 776 475 L776 475 Z M729 221 L974 221 L974 274 L729 274 L729 221 Z " />
<glyph glyph-name="trademark" unicode="&#x2122;" horiz-adv-x="980" d="M470 265 L526 265 L550 562 C551 577 549 591 549 591 L551 591 L663 347 L710 347 L822 591 L824 591 C824 591 822 577 823 562 L847 265 L903 265 L868 703 L817 703 L701 452 C693 433 688 411 688 411 L686 411 C686 411 680 433 672 452 L556 703 L505 703 L470 265 Z M220 265 L276 265 L276 651 L433 651 L433 703 L64 703 L64 651 L220 651 L220 265 Z " />
<glyph glyph-name="minus" unicode="&#x2212;" horiz-adv-x="568" d="M31 255 L537 255 L537 313 L31 313 L31 255 Z " />
<glyph glyph-name="infinity" unicode="&#x221e;" horiz-adv-x="470" d="M235 176 C331 176 408 254 408 349 C408 445 331 521 235 521 C140 521 62 445 62 349 C62 254 140 176 235 176 L235 176 Z " />
<glyph glyph-name="approxequal" unicode="&#x2248;" horiz-adv-x="568" d="M72 321 C99 349 142 377 185 377 C256 377 289 307 383 307 C443 307 497 343 529 376 L496 420 C469 391 426 364 383 364 C312 364 279 434 185 434 C125 434 72 398 39 365 L72 321 Z M72 148 C99 176 142 203 185 203 C256 203 289 133 383 133 C443 133 497 169 529 202 L496 246 C469 217 426 190 383 190 C312 190 279 260 185 260 C125 260 72 224 39 191 L72 148 Z " />
<glyph glyph-name="notequal" unicode="&#x2260;" horiz-adv-x="568" d="M107 83 L148 54 L232 168 L516 168 L516 226 L272 226 L358 342 L516 342 L516 400 L398 400 L463 487 L421 516 L336 400 L50 400 L50 342 L295 342 L209 226 L50 226 L50 168 L169 168 L107 83 Z " />
<glyph glyph-name="lessequal" unicode="&#x2264;" horiz-adv-x="568" d="M51 259 L503 57 L503 124 L135 283 L135 285 L503 444 L503 511 L51 309 L51 259 Z M52 -104 L52 -162 L503 -162 L503 -104 L52 -104 Z " />
<glyph glyph-name="greaterequal" unicode="&#x2265;" horiz-adv-x="568" d="M65 57 L517 259 L517 309 L65 511 L65 444 L432 285 L432 283 L65 124 L65 57 Z M64 -104 L64 -162 L515 -162 L515 -104 L64 -104 Z " />
<glyph glyph-name="commaaccent" unicode="&#xf6c3;" horiz-adv-x="335" d="M135 -63 C143 -85 146 -103 146 -121 C146 -147 139 -172 127 -202 L183 -202 C198 -169 206 -142 206 -112 C206 -96 204 -81 200 -63 L135 -63 Z " />
<glyph glyph-name="cyrbreve" unicode="&#xf6d4;" horiz-adv-x="305" d="M152 736 C220 736 284 779 284 854 L284 871 L226 871 L226 857 C226 811 189 787 152 787 C114 787 79 811 79 856 L79 871 L20 871 L20 854 C20 779 84 736 152 736 L152 736 Z " />
<glyph glyph-name="apple" unicode="&#xf8ff;" horiz-adv-x="1130" d="M168 -5 L433 -146 L567 -75 L699 -146 L964 -5 L964 147 L1088 219 L1088 497 L964 568 L964 719 L699 861 L567 790 L433 861 L168 719 L168 568 L42 497 L42 219 L168 147 L168 -5 Z M208 30 L208 169 L94 233 L94 482 L208 548 L208 684 L446 810 L567 746 L685 810 L923 684 L923 548 L1037 482 L1037 233 L923 169 L923 30 L685 -96 L567 -30 L446 -96 L208 30 Z M242 64 L457 -50 L567 8 L674 -50 L888 64 L888 185 L988 245 L988 470 L888 528 L888 651 L674 765 L567 706 L457 765 L242 651 L242 528 L143 470 L143 245 L242 185 L242 64 Z M447 91 L447 551 L382 551 L382 591 L702 591 C745 591 760 573 760 534 L760 480 L718 480 L718 522 C718 543 712 551 689 551 L490 551 L490 359 L718 359 L718 319 L490 319 L490 91 L447 91 Z " />
<glyph glyph-name="f_f" unicode="&#xfb00;" horiz-adv-x="642" d="M100 0 L168 0 L168 446 L421 446 L421 0 L489 0 L489 446 L617 446 L617 503 L489 503 L489 521 C489 633 563 647 601 647 C613 647 622 646 625 645 L625 705 C615 708 604 708 594 708 C538 708 421 687 421 522 L421 503 L168 503 L168 521 C168 633 242 647 281 647 C292 647 301 646 305 645 L305 705 C294 708 283 708 274 708 C217 708 100 687 100 522 L100 503 L37 503 L37 446 L100 446 L100 0 Z " />
<glyph glyph-name="fi" unicode="&#xfb01;" horiz-adv-x="546" d="M100 0 L168 0 L168 446 L398 446 L398 0 L465 0 L465 503 L168 503 L168 521 C168 633 242 647 281 647 C291 647 301 646 305 645 L305 705 C295 707 285 708 274 708 C217 708 100 687 100 522 L100 503 L37 503 L37 446 L100 446 L100 0 Z M395 618 L468 618 L468 703 L395 703 L395 618 Z " />
<glyph glyph-name="fl" unicode="&#xfb02;" horiz-adv-x="558" d="M392 119 C392 9 467 -4 508 -4 C519 -4 527 -3 533 -2 L533 59 C527 58 521 58 517 58 C491 58 460 68 460 134 L460 703 L392 703 L392 119 Z M100 0 L169 0 L169 442 L297 442 L297 499 L169 499 L169 521 C169 633 242 647 281 647 C292 647 301 646 305 645 L305 705 C295 707 286 708 274 708 C218 708 100 687 100 522 L100 499 L37 499 L37 442 L100 442 L100 0 Z " />
<glyph glyph-name="f_f_i" unicode="&#xfb03;" horiz-adv-x="867" d="M100 0 L168 0 L168 446 L421 446 L421 0 L489 0 L489 446 L718 446 L718 0 L786 0 L786 503 L489 503 L489 521 C489 633 563 647 601 647 C612 647 621 646 625 645 L625 705 C615 707 606 708 594 708 C538 708 421 687 421 522 L421 503 L168 503 L168 521 C168 633 242 647 281 647 C291 647 301 646 305 645 L305 705 C295 707 285 708 274 708 C217 708 100 687 100 522 L100 503 L37 503 L37 446 L100 446 L100 0 Z M716 618 L789 618 L789 703 L716 703 L716 618 Z " />
<glyph glyph-name="f_f_l" unicode="&#xfb04;" horiz-adv-x="878" d="M100 0 L168 0 L168 446 L421 446 L421 0 L489 0 L489 446 L617 446 L617 503 L489 503 L489 521 C489 633 563 647 601 647 C612 647 621 646 625 645 L625 705 C615 707 606 708 594 708 C538 708 421 687 421 522 L421 503 L168 503 L168 521 C168 633 242 647 281 647 C291 647 301 646 305 645 L305 705 C295 707 285 708 274 708 C217 708 100 687 100 522 L100 503 L37 503 L37 446 L100 446 L100 0 Z M713 119 C713 9 788 -4 829 -4 C840 -4 848 -3 854 -2 L854 59 C848 58 842 58 838 58 C812 58 781 68 781 134 L781 703 L713 703 L713 119 Z " />
</font>
</svg>
